#TITLE:Hello Again;
#SUBTITLE:~only one for you~;
#ARTIST:星野奏子;
#TITLETRANSLIT:;
#SUBTITLETRANSLIT:Kanako Hoshino;
#ARTISTTRANSLIT:;
#CREDIT:Steps and graphics by Xythar (source photo by Night_Rain on sxc.hu);
#BANNER:Hello Again.png;
#BACKGROUND:Hello Again-bg.png;
#LYRICSPATH:;
#CDTITLE:xythar.png;
#MUSIC:Hello Again.mp3;
#OFFSET:-0.035;
#SAMPLESTART:7.338;
#SAMPLELENGTH:12.000;
#SELECTABLE:YES;
#BPMS:0.000=164.000;
#STOPS:;
#BGCHANGES:;

//---------------dance-single - ----------------
#NOTES:
     dance-single:
     :
     Hard:
     8:
     0.500,0.562,0.174,0.000,0.011:
0000
0000
0000
0000
,
0000
0000
0000
0000
,
0000
0000
0000
0000
,
0000
0000
0000
0000
,
0000
0000
0000
0000
,
1000
0000
0001
0100
0000
0100
0001
0000
,
1000
0000
0100
0010
0000
0010
0100
0000
,
1000
0000
0001
0100
0000
0100
0001
0100
,
0000
0010
0000
1000
0000
0100
0000
0010
,
0001
0000
0001
1000
0000
1000
0010
0000
,
0100
0000
0001
1000
0000
1000
0100
0000
,
0010
0000
0100
1000
0000
1000
0001
0000
,
1000
0100
0010
0001
0000
0100
0010
0000
,
1001
0000
0010
0100
0000
0100
1000
0000
,
0001
0000
0100
0010
0000
0010
1000
0000
,
0100
0000
1000
0010
0000
0100
0000
0001
,
0000
0010
0000
0100
0000
1000
0000
0010
,
0100
0000
0100
0001
0000
0001
1000
0000
,
1100
0000
0010
0001
0000
0001
0100
0000
,
0010
0000
1000
0100
0000
1000
0001
0100
,
0000
0001
0010
0100
0000
1000
0010
0000
,
0101
0000
0100
0010
0000
0010
1000
0000
,
1001
0010
0100
1000
,
1001
0000
0001
1000
0000
1000
0001
0100
,
0001
0000
0100
0010
0000
0010
1000
0010
,
1000
0000
1000
0100
0000
0010
0001
0010
,
0001
0000
0100
0010
0000
0100
0001
1000
,
0100
0000
0100
1000
0000
1000
0001
0100
,
0001
0000
1000
0010
0000
0010
0100
0001
,
0100
0000
0001
1000
0100
0000
0010
0001
,
0100
0000
0010
1000
0100
1000
0001
0100
,
0001
0000
1000
0100
0000
0100
1000
0010
,
0100
0000
0100
0001
0000
0001
1000
0100
,
1000
0000
0010
0100
0000
0100
0001
1000
,
0001
0000
1000
0010
0000
0010
1000
0001
,
0010
0000
0010
0100
0000
0100
0010
0001
,
0100
0000
0100
0001
0000
0001
1000
0100
,
1000
0000
0001
0100
0001
0000
1000
0010
,
1000
0000
0001
0010
0001
0010
0001
0100
,
0010
1000
0100
0010
,
0001
0100
0010
1010
,
1000
0001
0010
0100
,
1000
0010
0100
0101
,
0001
1000
0100
0001
,
0100
1000
0010
0100
,
0001
0000
1000
0100
1000
0000
0001
0100
,
0000
0100
0010
0000
1000
0010
1000
0000
,
0001
0000
0010
0100
0000
0100
1000
0000
,
0001
0000
1000
0100
1000
0000
0001
0000
,
0100
0010
1000
0100
,
1000
0100
0010
0001
0010
0100
1000
0001
,
0100
0000
0100
0010
0000
0010
1000
0001
,
1000
0000
0100
0010
0000
0010
0001
1000
,
0100
0000
1000
0001
0000
0001
1000
0010
,
0100
0000
0100
0010
0000
0010
1000
0100
,
0010
0000
0010
0001
0000
0001
1000
0000
,
1001
0000
0001
0100
0000
0100
0010
1000
,
0100
0000
0100
1000
0000
0001
0100
0001
,
1000
0000
0100
0010
0000
0010
0001
1000
,
0100
0000
1000
0001
0000
0001
0100
0010
,
1000
0000
0100
0001
0000
0001
0100
1000
,
0010
0000
0010
0100
0000
0100
0001
1000
,
0100
0000
0100
0010
0000
0010
0100
1000
,
0001
0000
0100
0001
0000
0001
1000
0000
,
1100
0000
0100
0010
0000
0010
0001
0000
,
0101
0000
0001
0100
0000
0100
0010
0000
,
1010
0000
1000
0100
0000
0100
0010
0001
,
0010
0000
0001
0000
1000
0100
1000
0001
,
0000
0001
0100
0000
0010
0100
0010
0000
,
1000
0000
0100
0000
1000
0010
0100
0001
,
0000
0000
0001
0000
1000
0000
0000
0000
0001
0000
0000
0010
0000
0000
0100
0000
,
1100
0000
0000
0110
0000
0000
0011
0000
,
0000
0001
0000
0000
0100
0000
0010
0000
,
0110
0000
0000
1010
0000
0000
1000
0000
,
1001
1000
0100
0010
,
0001
0000
0000
0100
0000
0000
0010
0000
,
0000
0100
0000
0000
0001
0000
1000
0100
,
1000
0000
0001
0010
0000
0010
0100
0000
,
0100
1000
0000
1000
0001
0000
1000
0100
,
0010
0000
0001
0100
0000
0010
1000
0000
,
0100
0000
0010
0001
0000
1000
0100
0000
,
1001
0000
0010
0100
0000
0100
1000
0000
,
1001
0000
0100
0010
0000
0010
1000
0000
,
0001
0010
0100
1000
0001
0100
0010
1000
,
0001
0010
0100
0010
0001
1000
0100
0010
,
0100
1000
0001
0100
0010
0100
0001
1000
,
0001
0000
0100
0000
0001
0000
0010
0000
0001
0010
0001
0000
1000
0100
1000
0000
,
1100
0000
0000
0110
0000
0000
0011
0000
,
0000
1000
0000
0000
1010
0000
1010
0000
,
0100
0000
0000
0001
0000
0000
0010
0000
,
0100
1000
0001
1000
,
0010
0000
0000
0000
;

//---------------dance-single - ----------------
#NOTES:
     dance-single:
     :
     Medium:
     4:
     0.299,0.298,0.109,0.000,0.000:
0000
0000
0000
0000
,
0000
0000
0000
0000
,
0000
0000
0000
0000
,
0000
0000
0000
0000
,
0000
0000
0000
0000
,
1000
0000
0000
0100
0000
0000
0010
0000
,
0001
0000
0000
0100
0000
0000
0001
0000
,
1000
0000
0000
0100
0000
0000
1000
0000
,
0010
0100
0001
1000
,
1100
0000
0000
0010
0000
0000
0100
0000
,
1000
0000
0000
0001
0000
0000
0100
0000
,
0001
0000
0000
1000
0000
0000
0010
0000
,
0100
0000
0000
1000
0000
0000
0100
0000
,
0101
0000
0000
1000
0000
0000
0001
0000
,
0100
0000
0000
0001
0000
0000
1000
0000
,
0100
0000
0000
1000
0000
0010
0000
0100
,
0000
0010
0000
1000
0000
0100
0000
0010
,
0000
0000
0000
0001
0000
0000
1000
0000
,
0010
0000
0000
0100
0000
0000
1000
0000
,
0100
0000
0000
0001
0000
0000
1000
0000
,
0100
0000
0000
1000
0000
0000
0001
0000
,
0100
0010
0100
0001
,
1000
0000
0100
0010
,
0001
0000
0000
1000
0000
0000
0010
0000
,
0100
0001
0010
0100
,
1000
0000
0000
0001
0000
0000
0100
0000
,
0010
1000
0100
0010
,
0001
0000
0000
1000
0000
0000
0010
0000
,
0000
0001
0000
0000
0010
0000
1000
0000
,
0100
1000
0001
0100
,
0001
1000
0010
0100
,
0101
0000
0000
0100
0000
0000
0010
0000
,
1000
0000
0000
1000
0000
0000
0100
0000
,
0010
0000
0000
0010
0000
0000
0001
0000
,
0001
0000
0000
0001
0000
0000
1000
0000
,
0010
0100
0001
1000
,
0100
0000
0000
0100
0000
0000
0010
0000
,
0001
0000
0000
0001
0000
0000
0100
0000
,
1000
0100
0001
1000
,
0100
1000
0010
0000
,
0100
0001
1000
1001
,
0000
0100
0010
0000
,
0001
1000
0010
0110
,
0000
0100
1000
0000
,
0100
0001
1000
0100
,
0010
0000
0000
0001
0000
0000
1000
0000
,
0000
0010
0000
0000
1000
0000
0001
0000
,
1001
0000
0000
0010
0000
0000
0100
0000
,
1100
0000
0000
0010
0000
0000
0001
0000
,
0101
0000
0000
0000
,
1000
0100
0010
0001
,
1000
0000
0000
0010
0000
0000
0100
0000
,
0001
0000
0000
0010
0000
0000
1000
0000
,
0010
0000
0000
0001
0000
0000
1000
0000
,
0010
0000
0000
1000
0000
0000
0001
0000
,
0100
0000
0000
0010
0000
0000
0100
0000
,
0001
0000
0000
1000
0000
0000
0100
0000
,
0010
0000
0000
0001
0000
0000
0100
0000
,
0010
0100
0001
1000
,
0100
0000
0000
1000
0000
0000
0001
0000
,
0100
0000
0000
0010
0000
0000
0100
0000
,
0001
0000
0000
0010
0000
0000
0001
0000
,
1000
0000
0000
0010
0000
0000
0100
0000
,
1000
0000
0000
0100
0000
0000
0001
0000
,
0010
0000
0000
1000
0000
0000
0010
0000
,
0011
0000
0000
0100
0000
0000
0010
0000
,
1010
0000
0101
0000
,
1000
0000
0000
0100
0000
0000
0010
0000
,
0001
0100
0010
0100
,
1000
0000
0000
0100
0000
0000
0001
0000
,
1000
0100
0010
0001
,
1001
0000
0000
1000
0000
0000
0010
0000
,
0000
0100
0000
0000
0001
0000
0010
0000
,
0110
0000
0000
1000
0000
0000
0001
0000
,
0100
0001
1000
0100
,
0010
0000
0000
0001
,
0000
0000
1000
0010
,
0100
0000
0000
0001
0000
0000
1000
0000
,
0000
0100
0000
0000
1000
0000
0001
0000
,
0010
0000
0000
1000
0000
0000
0010
0000
,
0100
0000
0000
1000
0000
0000
0010
0000
,
0100
0000
0000
0001
0000
0000
1000
0000
,
0100
0000
1000
0000
,
0001
0010
0100
1000
,
0010
0100
0001
1000
,
0100
0001
0100
1000
,
0010
0000
0100
0000
0001
0100
0001
0100
,
0001
0000
0000
1000
0000
0000
0100
0000
,
0000
0010
0000
0000
0001
0000
1000
0000
,
1010
0000
0000
0100
0000
0000
0001
0000
,
1001
0000
0010
0000
,
0100
0000
0000
0000
;

//---------------dance-single - ----------------
#NOTES:
     dance-single:
     :
     Easy:
     2:
     0.170,0.231,0.058,0.000,0.000:
0000
0000
0000
0000
,
0000
0000
0000
0000
,
0000
0000
0000
0000
,
0000
0000
0000
0000
,
0000
0000
0000
0000
,
1000
0000
0000
0001
,
1000
0000
0000
1000
,
0001
0000
0010
0000
,
0100
0000
1000
0000
,
0010
0000
0000
0100
,
0010
0000
0000
0010
,
0100
0000
0001
0000
,
1000
0000
0100
0000
,
0010
0000
0000
0001
,
1000
0000
0000
1000
,
0001
0000
1000
0000
,
0010
0000
1000
0000
,
0100
0000
0000
0010
,
0100
0000
0000
1000
,
0001
0000
0100
0000
,
0010
0000
1000
0000
,
0100
0000
0010
0000
,
1001
0000
0000
0000
,
0010
0000
0100
0000
,
1000
0000
0001
0000
,
0100
0000
0000
0000
,
0001
0000
1000
0000
,
0100
0000
0010
0000
,
0100
0000
1000
0000
,
0010
0000
0100
0000
,
0001
1000
0001
0000
,
1001
0000
1000
0000
,
0001
0000
0010
0000
,
0100
0000
0000
0000
,
1000
0000
0010
0000
,
0100
0000
0001
0000
,
1000
0000
0100
0000
,
1000
0001
0000
0001
,
1000
0000
1001
0000
,
0110
0000
0100
0000
,
1000
0000
0010
0000
,
0000
0000
0100
0000
,
0001
0000
0010
0000
,
0000
0000
0001
0000
,
1000
0000
0010
0000
,
0100
0000
0010
0000
,
1000
0000
0100
0000
,
0010
0000
0001
0000
,
1000
0000
0000
0000
,
0000
0000
0000
0000
,
0001
0000
1000
0000
,
1001
0000
0000
0000
,
0010
0000
0100
0000
,
1000
0000
0000
0000
,
0010
0000
0100
0000
,
0001
0000
1000
0000
,
0001
0000
0000
0000
,
0010
0000
0100
0000
,
1000
0000
0010
0000
,
0100
0000
0000
0000
,
0010
0000
1000
0000
,
0100
0000
0000
0000
,
0010
0000
0001
0000
,
0100
0000
0001
0000
,
1000
0000
0000
0000
,
0100
0000
0010
0000
,
0001
0000
1001
0000
,
0000
0000
0010
0000
,
0100
0000
0110
0000
,
0000
0000
0001
0000
,
1000
0000
1001
0000
,
0001
0000
1000
0000
,
0010
0000
0100
0010
,
0100
0000
0000
0000
,
0001
0000
0100
0000
,
0001
0000
0000
0000
,
0000
0000
0000
0000
,
0001
0000
0100
0000
,
0010
0000
1000
0000
,
0100
0000
0000
0000
,
1000
0000
0000
0000
,
0001
0000
0010
0000
,
0100
0000
1000
0000
,
0001
0000
0100
0000
,
0001
0000
1000
0000
,
0100
0000
0010
0000
,
0001
0000
1000
0001
,
1000
0000
0010
0000
,
0100
0000
0010
0100
,
0010
0000
0100
0000
,
0001
0000
1000
0000
,
0001
0000
0000
0000
;

//---------------dance-single - ----------------
#NOTES:
     dance-single:
     :
     Beginner:
     1:
     0.101,0.165,0.000,0.000,0.000: // measure 1
0000
0000
0000
0000
,  // measure 2
0000
0000
0000
0000
,  // measure 3
0000
0000
0000
0000
,  // measure 4
0000
0000
0000
0000
,  // measure 5
0000
0000
0000
0000
,  // measure 6
1000
0000
0000
0000
,  // measure 7
0001
0000
0000
0000
,  // measure 8
1000
0000
0000
0000
,  // measure 9
0001
0000
0000
0000
,  // measure 10
0010
0000
0000
0000
,  // measure 11
0100
0000
0000
0000
,  // measure 12
0010
0000
0000
0000
,  // measure 13
0100
0000
0000
0000
,  // measure 14
1000
0000
0000
0000
,  // measure 15
0010
0000
0000
0000
,  // measure 16
1000
0000
0000
0000
,  // measure 17
0010
0000
0000
0000
,  // measure 18
0100
0000
0000
0000
,  // measure 19
0001
0000
0000
0000
,  // measure 20
0100
0000
0000
0000
,  // measure 21
0001
0000
0000
0000
,  // measure 22
0010
0000
0100
0000
,  // measure 23
0010
0000
0000
0000
,  // measure 24
0001
0000
0000
0000
,  // measure 25
1000
0000
0000
0000
,  // measure 26
0010
0000
0000
0000
,  // measure 27
0100
0000
0000
0000
,  // measure 28
0001
0000
0000
0000
,  // measure 29
1000
0000
0000
0000
,  // measure 30
0100
0000
0100
0000
,  // measure 31
1000
0000
1000
0000
,  // measure 32
0001
0000
0000
0000
,  // measure 33
0100
0000
0000
0000
,  // measure 34
0001
0000
0000
0000
,  // measure 35
1000
0000
0000
0000
,  // measure 36
0010
0000
0000
0000
,  // measure 37
1000
0000
0000
0000
,  // measure 38
0100
0000
0000
0000
,  // measure 39
1000
0000
0001
0000
,  // measure 40
1000
0000
0000
0000
,  // measure 41
0010
0000
0000
0000
,  // measure 42
0100
0000
0010
0000
,  // measure 43
0100
0000
0000
0000
,  // measure 44
0001
0000
1000
0000
,  // measure 45
0001
0000
0000
0000
,  // measure 46
0010
0000
0000
0000
,  // measure 47
0100
0000
0000
0000
,  // measure 48
1000
0000
0000
0000
,  // measure 49
0001
0000
0000
0000
,  // measure 50
0100
0000
0000
0000
,  // measure 51
0010
0000
0000
0000
,  // measure 52
1000
0000
0000
0000
,  // measure 53
0100
0000
0000
0000
,  // measure 54
1000
0000
0000
0000
,  // measure 55
0001
0000
0000
0000
,  // measure 56
0100
0000
0000
0000
,  // measure 57
0010
0000
0000
0000
,  // measure 58
1000
0000
0000
0000
,  // measure 59
0001
0000
1000
0000
,  // measure 60
0001
0000
0000
0000
,  // measure 61
0010
0000
0000
0000
,  // measure 62
0100
0000
0000
0000
,  // measure 63
1000
0000
0000
0000
,  // measure 64
0010
0000
0000
0000
,  // measure 65
0100
0000
0000
0000
,  // measure 66
0001
0000
1000
0000
,  // measure 67
0001
0000
0000
0000
,  // measure 68
0010
0000
0000
0000
,  // measure 69
0000
0000
0000
0000
,  // measure 70
0100
0000
0000
0000
,  // measure 71
0000
0000
0000
0000
,  // measure 72
1000
0000
0001
0000
,  // measure 73
1000
0000
0001
0000
,  // measure 74
1000
0000
0000
0000
,  // measure 75
0010
0000
0000
0000
,  // measure 76
0100
0000
0000
0000
,  // measure 77
0000
0000
0000
0000
,  // measure 78
0000
0000
0000
0000
,  // measure 79
0000
0000
0000
0000
,  // measure 80
0001
0000
0000
0000
,  // measure 81
1000
0000
0000
0000
,  // measure 82
0010
0000
0000
0000
,  // measure 83
0100
0000
0000
0000
,  // measure 84
0001
0000
0010
0000
,  // measure 85
0100
0000
1000
0000
,  // measure 86
0100
0000
0010
0000
,  // measure 87
0001
0000
1000
1000
,  // measure 88
1000
0000
0000
0000
,  // measure 89
0000
0000
0000
0000
,  // measure 90
0001
0000
0000
0000
,  // measure 91
0010
0000
0100
0000
,  // measure 92
1000
0000
0000
0000
;
