#TITLE:Heavenly Star;
#SUBTITLE:;
#ARTIST:Genki Rockets;
#TITLETRANSLIT:;
#SUBTITLETRANSLIT:;
#ARTISTTRANSLIT:;
#CREDIT:Xythar;
#BANNER:Heavenly Star-bn.avi;
#BACKGROUND:Heavenly Star-bg.png;
#LYRICSPATH:;
#CDTITLE:cdtitle.png;
#MUSIC:Heavenly Star.mp3;
#OFFSET:-0.026;
#SAMPLESTART:36.800;
#SAMPLELENGTH:15.796;
#SELECTABLE:YES;
#BPMS:0.000=120.000;
#STOPS:;
#BGCHANGES:-0.125=Heavenly Star.avi=1.000=0=0=1,
99999=-nosongbg-=1.000=0=0=0 // don't automatically add -songbackground-
;

//---------------dance-single - ----------------
#NOTES:
     dance-single:
     :
     Hard:
     6:
     0.357,0.310,0.133,0.044,0.000:
0000
0000
0000
0000
,
0000
0000
0000
0000
,
1000
0000
0000
0001
0000
0001
0000
0010
,
0000
0010
0001
0000
1000
0000
0010
0000
,
1000
0000
0001
0000
0001
1000
0000
0100
,
0000
0100
1000
0000
0000
0000
0000
0000
,
0001
1000
0000
1000
0000
0100
0000
0010
,
0000
0010
0001
0000
0100
0000
0010
0000
,
0100
0000
0001
0000
0001
1000
0000
0100
,
0000
0100
1000
0000
0000
0000
0000
0000
,
0001
0010
0000
0001
0000
1000
0010
1000
,
0000
0001
1000
0000
0100
0000
0100
0000
,
0010
0001
0000
0100
0000
0100
0010
0100
,
0000
0001
1000
0000
0001
0000
1001
0000
,
0100
1000
0000
0010
0000
0010
1000
0010
,
0000
1000
0001
0000
0010
0000
0010
0000
,
1001
0000
0100
0000
1000
0010
1000
0002
,
0000
1000
0010
1003
,
0000
0001
0000
0000
,
1100
0010
0001
0000
0100
0010
0100
0001
,
0000
0001
1000
0100
0000
1000
0010
0000
,
0101
0000
0010
1000
0000
0100
1000
0010
,
0000
0100
0002
0000
0010
0000
1003
0000
,
0110
0001
1000
0001
0000
1000
0010
1000
,
0000
0001
0010
0000
1000
0000
1000
0000
,
0010
0001
0010
0001
0000
0100
0010
0100
,
0000
0001
1000
0000
1100
0000
0001
0000
,
1010
0100
0001
0000
1000
0100
1000
0001
,
0000
0001
1000
0010
0000
1000
0100
1000
,
0020
0000
0100
0000
1030
0100
1000
0010
,
0000
0100
0001
0000
1100
0000
0010
0000
,
1001
0100
0010
0001
0000
1000
0010
1000
,
0000
0001
0010
0000
0100
0000
1000
0000
,
0001
0100
0001
1000
0000
0010
1000
0000
,
0100
0000
0011
0000
0100
1000
0020
0000
,
0100
0000
1030
0100
0000
1000
0010
0100
,
0000
0010
1000
0001
0000
0010
0001
0000
,
1000
0100
1000
0010
0000
0100
0001
1000
,
0000
0100
1000
0010
0000
1000
0100
0000
,
1010
0100
0001
0010
0000
0100
1000
0010
,
0000
0100
0001
0010
0000
1000
0010
0000
,
0001
1000
0010
0100
0000
1000
0100
0001
,
0000
1000
0100
1000
0010
0100
0001
0000
,
1001
0000
0000
0000
;

//---------------dance-single - ----------------
#NOTES:
     dance-single:
     :
     Medium:
     3:
     0.263,0.239,0.056,0.000,0.000: // measure 1
0000
0000
0000
0000
,  // measure 2
0000
0000
0000
0000
,  // measure 3
1000
0000
0000
0001
0000
0001
0000
1000
,  // measure 4
0000
0100
1000
0001
,  // measure 5
1000
0000
0000
0010
0000
0010
0000
1000
,  // measure 6
0000
0001
1000
0000
,  // measure 7
0100
0000
0000
0010
0000
0010
0000
0001
,  // measure 8
0000
0100
0010
0100
,  // measure 9
0001
0000
0000
1000
0000
1000
0000
0010
,  // measure 10
0000
0010
0000
0000
1000
0000
0001
0000
,  // measure 11
1000
0000
0000
0010
0000
0010
0000
1000
,  // measure 12
0000
0001
0001
0000
1000
0000
1000
0000
,  // measure 13
0100
0000
0000
1000
0000
0010
0000
0100
,  // measure 14
0000
0100
0000
0000
0001
0000
1000
0000
,  // measure 15
0001
0000
0000
0010
0000
0010
0000
0001
,  // measure 16
0000
1000
1000
0000
0010
0000
0100
0000
,  // measure 17
0010
0000
1000
0000
,  // measure 18
0001
0100
0010
1000
,  // measure 19
0100
0000
1000
0000
,  // measure 20
1001
0000
0100
0000
0100
0000
0010
0010
,  // measure 21
0000
1000
0000
0001
0000
1000
0000
0001
,  // measure 22
0001
0000
1000
1000
0000
0001
0000
0100
,  // measure 23
0000
0010
0100
0000
0001
0000
1000
0000
,  // measure 24
0100
0000
1000
1000
0000
0001
0000
0100
,  // measure 25
0000
0001
0000
1000
0001
0000
0010
0000
,  // measure 26
0100
0000
1000
1000
0000
0010
0000
0100
,  // measure 27
0000
0100
0000
0001
0001
0000
1000
0000
,  // measure 28
0110
0000
0001
0000
1000
0000
0100
0010
,  // measure 29
0000
0010
0000
0001
0000
0100
0000
0001
,  // measure 30
0001
0000
1000
1000
0000
0001
0000
1000
,  // measure 31
0000
0010
0000
1000
0001
0000
0100
0000
,  // measure 32
1010
0000
0100
0000
1000
0000
0001
0001
,  // measure 33
0000
1000
0000
0100
0000
1000
0000
0010
,  // measure 34
0010
0100
0001
1000
,  // measure 35
0001
0000
0010
0100
,  // measure 36
1000
0000
0000
0010
0000
0100
0000
0001
,  // measure 37
0000
1000
0000
0100
0000
1000
0001
0000
,  // measure 38
1000
0000
0000
0010
0000
0100
0000
0001
,  // measure 39
0000
0100
0000
0010
0000
1000
0100
0000
,  // measure 40
0011
0000
0000
0100
0000
1000
0000
0010
,  // measure 41
0000
0100
0000
0001
0000
1000
0001
0000
,  // measure 42
1000
0000
0000
0010
0000
0100
0000
0001
,  // measure 43
0000
1000
0000
0100
0000
1000
0001
0000
,  // measure 44
1001
0000
0000
0000
;

//---------------dance-single - ----------------
#NOTES:
     dance-single:
     :
     Easy:
     1:
     0.148,0.143,0.033,0.000,0.000: // measure 1
0000
0000
0000
0000
,  // measure 2
0000
0000
0000
0000
,  // measure 3
1000
0000
0001
0000
,  // measure 4
1000
1000
1000
0000
,  // measure 5
0010
0000
0100
0000
,  // measure 6
0001
0001
0001
0000
,  // measure 7
0010
0000
0010
0000
,  // measure 8
0100
0100
0100
0000
,  // measure 9
1000
0000
0001
0000
,  // measure 10
1000
1000
1000
0000
,  // measure 11
0010
0000
0100
0000
,  // measure 12
0001
1000
0001
0000
,  // measure 13
0010
0000
0100
0000
,  // measure 14
1000
0001
1000
0000
,  // measure 15
0010
0000
0100
0000
,  // measure 16
0010
1000
0010
0000
,  // measure 17
0100
0000
0001
0000
,  // measure 18
1000
0000
0000
0000
,  // measure 19
0000
0000
0000
0000
,  // measure 20
1001
0000
0010
0000
,  // measure 21
0100
0000
0001
0000
,  // measure 22
1000
1000
1000
0000
,  // measure 23
0001
0000
1000
0000
,  // measure 24
0010
0010
0000
0100
,  // measure 25
0100
0000
0001
0000
,  // measure 26
0010
0010
0000
0100
,  // measure 27
0100
0000
1000
0000
,  // measure 28
1001
0000
0010
0000
,  // measure 29
0100
0000
0000
0001
,  // measure 30
0001
0000
1000
0000
,  // measure 31
0100
0000
1000
0000
,  // measure 32
0010
0010
0000
0000
,  // measure 33
0100
0000
0001
0000
,  // measure 34
1000
1000
0000
0000
,  // measure 35
0001
0000
0100
0000
,  // measure 36
0010
0000
1000
0000
,  // measure 37
0100
0000
1000
0000
,  // measure 38
0010
0000
0100
0000
,  // measure 39
0001
0000
1000
0000
,  // measure 40
0100
0000
0010
0000
,  // measure 41
0001
0000
0100
0000
,  // measure 42
0010
0000
1000
0000
,  // measure 43
0001
0000
1000
0000
,  // measure 44
1001
0000
0000
0000
;
