#TITLE:Heart;
#SUBTITLE:;
#ARTIST:Do As Infinity;
#TITLETRANSLIT:;
#SUBTITLETRANSLIT:;
#ARTISTTRANSLIT:;
#CREDIT:Xythar;
#BANNER:Heart-bn.avi;
#BACKGROUND:Heart-bg.png;
#LYRICSPATH:Heart.lrc;
#CDTITLE:daiseries.png;
#MUSIC:Heart.mp3;
#OFFSET:-13.162;
#SAMPLESTART:62.600;
#SAMPLELENGTH:20.870;
#SELECTABLE:YES;
#BPMS:0.000=92.000;
#STOPS:;
#BGCHANGES:-18.682=Heart.avi=1.000=1=1=0,
99999=-nosongbg-=1.000=0=0=0 // don't automatically add -songbackground-
;

//---------------dance-single - ----------------
#NOTES:
     dance-single:
     :
     Hard:
     6:
     0.261,0.230,0.044,0.026,0.149:
0000
0000
0000
0000
,
0001
0000
0010
0000
0000
0100
0000
0000
0010
0000
0000
0100
0000
0000
1000
0000
,
0010
0000
0000
0100
0000
0000
0001
0000
0000
0000
1000
0000
0001
0000
0000
0000
,
1000
0000
0010
0000
0000
0100
0000
0000
0001
0000
0000
0100
0000
0000
0010
0000
,
1000
0100
0010
0001
0000
1000
0100
1000
,
0001
0000
0000
1000
0000
0000
1001
0000
0000
0000
1000
0000
0100
0000
0000
0000
,
1000
0000
0000
0010
0000
0000
0100
0000
0000
0000
0001
0000
0010
0000
0001
0000
,
1000
0000
0000
0100
0000
0000
0010
0000
0000
0000
0001
0000
0010
0000
0100
0000
,
1000
0000
0000
0010
0000
0000
0100
0000
0000
0000
1000
0000
0100
0000
0001
0000
,
1000
0100
1000
0001
0000
0010
0100
1000
,
0001
0000
0000
1000
0000
0000
0001
0000
0000
0000
1000
0000
0100
0000
0001
0000
,
0100
0000
0000
0010
0000
0000
0100
0000
0000
0000
1000
0000
0010
0000
0001
0000
,
0010
0000
0000
0100
0000
0000
0010
0000
0000
0000
1000
0000
0001
0000
0100
0000
,
0010
0000
0000
1000
0000
0000
0010
0000
0000
0000
1000
0000
0100
0000
0010
0000
,
0100
0010
0001
0200
0000
0310
0000
1000
,
0001
0100
0001
2000
0000
3100
0000
0010
,
0100
1000
0010
0200
0000
0310
0000
0100
,
0001
0000
0000
0010
0000
0000
0100
0000
0000
0000
1000
0000
0100
0000
1000
0000
,
0010
0100
0001
0101
,
0001
0000
0000
0010
0000
0100
0000
0000
1000
0000
0000
0010
0000
0100
0000
0000
,
0001
0000
0000
1000
0000
0000
0100
0000
0000
0000
1000
0000
0001
0000
0000
0000
,
1000
0010
0100
0001
1000
0000
0100
0000
,
1000
0100
0010
0001
0000
0100
0010
0000
,
0100
0000
0000
0001
0000
1000
0000
0000
0100
0000
0000
0010
0000
0100
0000
0000
,
0001
0000
0000
0100
0000
0000
1000
0000
0000
0000
0001
0000
0100
0000
0000
0000
,
1000
0100
0010
0100
0001
0000
1001
0000
,
1000
0100
0010
0001
0000
0100
0001
0000
,
1000
0000
0000
0010
0000
0100
0000
0000
0001
0000
0000
0010
0000
0100
0000
0000
,
1000
0000
0000
0001
0000
0000
1001
0000
0000
0000
1000
0000
0010
0000
0000
0000
,
0100
0001
1000
0001
0100
0000
0001
0000
,
1000
0100
0010
0001
0000
0010
0100
0000
,
0001
0000
0000
0100
0000
1000
0000
0000
0001
0000
0000
0100
0000
1000
0000
0000
,
0100
0000
0000
0001
0000
0000
1001
0000
0000
0000
1000
0000
0001
0000
0000
0000
,
1000
0010
0100
0010
1000
0000
0001
0000
,
1000
0100
0010
0001
0000
1000
0100
1000
,
0001
0000
0000
0000
;

//---------------dance-single - ----------------
#NOTES:
     dance-single:
     :
     Medium:
     4:
     0.203,0.200,0.026,0.000,0.000:
0000
0000
0000
0000
,
1000
0001
1000
0000
0100
0010
0100
0000
,
0010
0001
1000
0010
,
0100
0001
1000
0000
0100
1000
0001
0000
,
1000
0001
1000
0001
0000
0000
0000
0000
,
0010
0100
1000
0001
,
0100
0000
0000
0000
0000
0000
0010
1000
,
0001
0000
0000
0000
0000
0000
0010
0100
,
1000
0000
0000
0000
0000
0000
0010
0100
,
0001
0000
0001
0000
0001
1000
0001
0000
,
1000
0000
0100
0000
0010
0000
0100
1000
,
0001
0000
0100
0000
0010
0000
1000
0001
,
0010
0000
0100
0000
1000
0001
0100
0001
,
1000
0000
0100
0000
0010
0001
1000
0001
,
0100
0100
0010
0010
,
0100
0100
0001
0001
,
1000
1000
0100
0100
,
0010
0001
1000
0000
,
0001
0000
1000
1001
,
0001
0100
0010
1000
,
0100
0010
0001
0000
1000
0000
0010
0000
,
0100
0001
1000
0000
0100
0000
1000
0000
,
0001
1000
0001
1000
0000
0000
0010
0000
,
0100
0001
1000
0000
0100
1000
0001
0000
,
0100
0000
0010
0000
1000
0100
1000
0000
,
0001
0010
0100
1000
,
0001
1000
0001
1000
0000
0000
0010
0000
,
0100
0001
0010
0000
0100
1000
0010
0000
,
0100
0001
1000
1001
,
1000
0010
0100
0000
0010
1000
0001
0000
,
1000
0001
1000
0001
0000
0000
1001
0000
,
0100
0010
0001
0000
1000
0010
0100
0000
,
0001
0000
1000
0000
0100
0010
0100
0000
,
0010
0001
1000
0010
,
1000
0001
1000
0001
0000
0000
0010
0000
,
0100
0000
0000
0000
;

//---------------dance-single - ----------------
#NOTES:
     dance-single:
     :
     Easy:
     2:
     0.119,0.123,0.026,0.000,0.000: // measure 1
0000
0000
0000
0000
,  // measure 2
1000
0000
0100
0000
,  // measure 3
0010
0001
1000
0000
,  // measure 4
0010
0000
0100
0000
,  // measure 5
0001
0010
0100
0000
,  // measure 6
1000
0000
1001
0000
,  // measure 7
0010
0000
0100
0000
,  // measure 8
0001
0000
0010
0000
,  // measure 9
0100
0000
1000
0000
,  // measure 10
0010
0100
0010
0100
,  // measure 11
0001
0000
0010
0000
,  // measure 12
0100
0000
1000
0000
,  // measure 13
0010
0000
0100
0000
,  // measure 14
0001
1000
0001
1000
,  // measure 15
0100
0000
0010
0000
,  // measure 16
0001
0000
1000
0000
,  // measure 17
0010
0000
0100
0000
,  // measure 18
0001
0000
1000
0000
,  // measure 19
1001
0000
1001
0000
,  // measure 20
0010
0000
0100
0000
,  // measure 21
0001
0000
1000
0100
,  // measure 22
0010
0000
0001
0000
,  // measure 23
0100
0010
1000
0000
,  // measure 24
0001
0010
0100
1000
,  // measure 25
0010
0100
0001
0000
,  // measure 26
1000
0010
0100
0000
,  // measure 27
0010
1000
0100
0000
,  // measure 28
0010
0001
1000
0001
,  // measure 29
1000
0010
0100
0000
,  // measure 30
0001
0100
0010
1000
,  // measure 31
0100
0000
0000
0010
,  // measure 32
0001
1000
0010
0100
,  // measure 33
0010
1000
0100
0000
,  // measure 34
0010
0001
1000
0000
,  // measure 35
0001
0100
0010
0000
,  // measure 36
1000
0000
0000
0000
;

//---------------dance-single - ----------------
#NOTES:
     dance-single:
     :
     Beginner:
     1:
     0.063,0.077,0.009,0.000,0.000: // measure 1
0000
0000
0000
0000
,  // measure 2
1000
0000
0000
0000
,  // measure 3
0001
0000
0000
0000
,  // measure 4
1000
0000
0100
0000
,  // measure 5
0010
0000
0000
0000
,  // measure 6
0001
0000
0000
0000
,  // measure 7
1000
0000
0000
0000
,  // measure 8
0010
0000
0000
0000
,  // measure 9
0100
0000
0000
0000
,  // measure 10
0001
0000
1000
0000
,  // measure 11
0100
0000
0000
0000
,  // measure 12
0010
0000
0000
0000
,  // measure 13
0001
0000
0000
0000
,  // measure 14
1000
0000
0001
0000
,  // measure 15
1000
0000
0000
0000
,  // measure 16
0100
0000
0000
0000
,  // measure 17
0010
0000
0000
0000
,  // measure 18
0001
0000
1000
0000
,  // measure 19
1001
0000
0000
0000
,  // measure 20
0001
0000
0100
0000
,  // measure 21
0010
0000
0000
0000
,  // measure 22
0100
0000
0001
0000
,  // measure 23
1000
0000
0000
0000
,  // measure 24
0100
0000
0010
0000
,  // measure 25
0001
0000
0000
0000
,  // measure 26
1000
0000
0010
0000
,  // measure 27
0100
0000
0000
0000
,  // measure 28
0001
0000
1000
0000
,  // measure 29
0001
0000
0010
0000
,  // measure 30
0100
0000
1000
0000
,  // measure 31
0001
0000
0000
0000
,  // measure 32
1000
0000
0010
0000
,  // measure 33
0100
0000
0001
0000
,  // measure 34
0010
0000
0100
0000
,  // measure 35
1000
0000
0000
0000
,  // measure 36
0001
0000
0000
0000
;
