#TITLE:ハートのエッジに挑もう;
#SUBTITLE:Go to Heart Edge;
#ARTIST:ワグナリアの男性店員;
#TITLETRANSLIT:Heart no Edge ni Idomou;
#SUBTITLETRANSLIT:;
#ARTISTTRANSLIT:Wagnaria no Dansei Ten'in;
#CREDIT:;
#BANNER:Heart no Edge ni Idomou-bn.avi;
#BACKGROUND:Heart no Edge ni Idomou-bg.png;
#LYRICSPATH:Heart no Edge ni Idomou.lrc;
#CDTITLE:WORKING!!.png;
#MUSIC:Heart no Edge ni Idomou.ogg;
#OFFSET:-0.513;
#SAMPLESTART:57.518;
#SAMPLELENGTH:12.000;
#SELECTABLE:YES;
#BPMS:0.000=159.990;
#STOPS:;
#BGCHANGES:0.000=Heart no Edge ni Idomou.avi=1.000=0=0=0,
229.750=Heart no Edge ni Idomou-bg.png=1.000=1=0=0,
99999=-nosongbg-=1.000=0=0=0 // don't automatically add -songbackground-
;

//---------------dance-single - ----------------
#NOTES:
     dance-single:
     :
     Hard:
     8:
     0.474,0.508,0.174,0.204,0.000: // measure 1
0000
0000
0000
0000
,  // measure 2
0000
0000
0000
0000
0000
1000
0010
1000
,  // measure 3
0001
0000
0000
0000
,  // measure 4
0000
0000
0000
0000
0000
0001
0010
0001
,  // measure 5
1000
0000
0000
0000
,  // measure 6
0000
0000
0000
0000
0000
0010
0100
0010
,  // measure 7
1000
0001
0000
0010
0000
0100
0000
1000
,  // measure 8
0000
0001
0100
0000
0110
0000
1000
0100
,  // measure 9
2000
0000
0001
0000
3001
0000
0100
0010
,  // measure 10
0000
0100
0001
0000
0010
0000
0100
1000
,  // measure 11
0002
0000
0100
0000
0013
0000
0100
1000
,  // measure 12
0000
0001
0100
0000
0010
1000
0001
0000
,  // measure 13
0100
0010
0100
0001
0010
0000
0100
1000
,  // measure 14
0000
0001
0100
0010
0100
0001
1000
0000
,  // measure 15
0100
0010
0001
0010
0100
0010
0001
0100
,  // measure 16
0010
1000
0001
1000
0100
1000
0001
0000
,  // measure 17
0100
0010
0100
0010
1000
0000
0001
0100
,  // measure 18
0000
1000
0100
0000
0001
1000
0100
0000
,  // measure 19
0010
0000
0001
0000
0100
0010
1000
0000
,  // measure 20
0001
1000
0100
1000
0000
0010
0100
0000
,  // measure 21
0002
0000
1000
0000
0013
0000
0100
1000
,  // measure 22
0000
0001
0100
0010
0100
0000
0001
0000
,  // measure 23
1100
0000
0001
0010
0100
0000
1000
0010
,  // measure 24
0000
0100
0001
0000
1000
0100
1000
0001
,  // measure 25
2000
0000
0010
0000
3010
0000
0100
0010
,  // measure 26
0000
1000
0000
0001
0020
0000
0130
0000
,  // measure 27
1001
0000
0100
0000
1000
0001
0100
0000
,  // measure 28
1000
0000
0100
0001
0000
1000
0100
1000
,  // measure 29
0020
0000
0100
0000
1030
0000
0001
0010
,  // measure 30
0000
0001
1000
0010
2000
0000
0001
0000
,  // measure 31
3100
0000
0010
0001
0100
0000
1000
0100
,  // measure 32
0000
0001
0010
0001
1000
0100
1000
0001
,  // measure 33
2000
0000
0010
3010
0000
0100
0001
0000
,  // measure 34
0020
0000
0100
0130
0000
1000
0001
1000
,  // measure 35
0010
0100
0011
1100
,  // measure 36
0201
0000
0310
0000
1000
0000
0001
0010
,  // measure 37
0200
0000
1000
0000
0310
0000
0001
0100
,  // measure 38
0000
0010
1000
0001
1000
0100
1000
0010
,  // measure 39
0210
0000
0001
0000
0310
0000
1000
0001
,  // measure 40
0010
0000
0100
2000
0000
0001
3001
0000
,  // measure 41
0102
0000
1000
0000
0013
0000
0100
1000
,  // measure 42
0010
0000
0100
0002
0000
1000
1003
0000
,  // measure 43
0110
0000
0001
1000
0010
0000
0100
0000
,  // measure 44
0010
0000
1000
0001
0000
0010
0100
0000
,  // measure 45
1001
0000
0010
0000
0100
0001
1000
0000
,  // measure 46
0001
0010
0001
0010
0100
1000
0100
1000
,  // measure 47
1001
0000
1010
0000
0101
0000
0010
1000
,  // measure 48
0001
1000
0100
2000
0000
0010
3010
0000
,  // measure 49
0101
0000
1100
0000
1001
0000
0010
1000
,  // measure 50
0001
0010
0001
2000
0000
0001
3001
0000
,  // measure 51
0200
1000
0010
0301
,  // measure 52
0010
0100
1000
0010
0000
0100
0010
0000
,  // measure 53
1100
0002
0100
1003
,  // measure 54
0010
0100
0001
0100
0010
1000
0100
1000
,  // measure 55
0001
0000
0000
0000
,  // measure 56
0000
0000
0000
0000
0000
1000
0100
1000
,  // measure 57
0010
0100
0000
0001
0000
0010
0000
0100
,  // measure 58
0000
1000
0001
0000
0200
0000
0000
0000
,  // measure 59
0000
0000
0300
0000
;

//---------------dance-single - ----------------
#NOTES:
     dance-single:
     :
     Medium:
     6:
     0.387,0.418,0.041,0.143,0.000:
0000
0000
0000
0000
,
0000
0000
0000
0000
0000
1000
0001
1000
,
0001
0000
0000
0000
,
0000
0000
0000
0000
0000
0001
1000
0001
,
1000
0000
0000
0000
,
0000
0000
0000
0000
0000
0010
0100
0010
,
0100
0001
0000
1000
0000
0010
0000
0200
,
0000
0001
0301
1000
,
0010
0000
0100
0000
0010
0000
1000
0001
,
0000
1000
0010
0000
0100
0000
0001
0000
,
0010
0000
0001
0000
0100
0000
0010
1000
,
0000
0001
1000
0000
0001
0010
0001
0000
,
1000
0000
0010
0000
0100
0000
0010
1000
,
0000
0001
0010
0000
0100
0000
1000
0000
,
0001
0000
0100
0000
0010
1000
0010
0000
,
0100
0001
0010
0100
,
1000
0000
0001
0100
0001
0000
1000
0000
,
0100
0000
0010
0001
0010
0000
0001
0000
,
0100
0000
0010
0000
1000
0001
1000
0000
,
0001
0000
0010
0100
0000
1000
0010
0000
,
0200
0000
0010
0000
0310
0000
1000
0001
,
0000
0010
0100
0000
1000
0000
0010
0000
,
0100
0000
0010
0000
1000
0000
0001
0010
,
0000
0100
1000
0000
0001
0000
0100
0000
,
0010
0000
1000
0000
0001
0000
1000
0100
,
0000
0010
0001
0000
0200
0000
0010
0000
,
0310
0000
0100
0000
0001
0000
1000
0100
,
1000
0000
0001
0100
0000
0010
1000
0000
,
0002
0000
0010
0000
0013
0000
0100
1000
,
0000
0001
0100
0000
0010
0000
1000
0000
,
0001
0000
1000
0100
1000
0000
0001
0200
,
0000
0010
0000
0310
0000
1000
0001
0000
,
1001
0000
1000
0100
0000
0001
0100
0000
,
1000
0000
0001
0100
0000
1000
0100
0000
,
0010
0000
1000
0000
0001
0000
0100
0010
,
0100
0000
0000
0000
,
0001
0000
0010
0000
0100
0000
1000
0010
,
0000
0100
0010
0100
0010
0000
1000
0000
,
0002
0000
0100
0000
1003
0000
0001
0100
,
1000
0000
0100
0020
0000
1000
1030
0000
,
2000
0000
0100
0000
3001
0000
1000
0100
,
0001
0000
0100
0020
0000
0001
0031
0000
,
0100
0010
1000
0001
,
0010
0000
0100
1000
0000
0001
1000
0000
,
0001
0100
0010
1000
,
0002
0010
1000
0103
,
2010
0000
0001
0000
3100
0000
0010
0001
,
0100
0000
0010
1000
0000
0001
0001
0000
,
0012
0000
1000
0000
0103
0000
0010
1000
,
0100
0000
0010
0002
0000
1000
1003
0000
,
0010
0000
0100
0001
0100
0000
0010
0000
,
1000
0000
0001
0010
0000
0100
1000
0000
,
0001
0100
0010
1000
,
0001
0010
0001
0000
1000
0100
1000
0000
,
0101
0000
0000
0000
,
0000
0000
0000
0000
0000
0010
1000
0010
,
1000
0001
0000
0010
0000
0100
0000
1000
,
0000
0001
0100
0000
0020
0000
0000
0000
,
0000
0000
0030
0000
;

//---------------dance-single - ----------------
#NOTES:
     dance-single:
     :
     Easy:
     3:
     0.245,0.269,0.010,0.245,0.000:
0000
0000
0000
0000
,
0000
0000
0000
0001
,
1000
0000
0000
0000
,
0000
0000
0000
1000
,
0001
0000
0000
0000
,
0000
0000
0000
1000
,
0010
0000
0000
0000
,
0000
0100
0001
0000
,
2000
0000
3002
0000
,
0203
0000
0320
0000
,
1030
0100
0020
0000
,
0031
0100
0020
0000
,
1030
0001
0010
0001
,
1000
0010
0100
0010
,
1000
0000
0001
0000
,
1000
1000
1000
1000
,
0001
0100
0002
0000
,
1003
0100
2000
0000
,
3001
0000
1000
0000
,
0010
0010
0010
0000
,
0100
0001
0200
0000
,
0310
1000
0020
0000
,
1030
0100
1000
0000
,
0001
0100
0001
0000
,
1000
0100
0020
0000
,
0031
0100
0020
0000
,
1030
0001
0010
0001
,
1000
0000
0001
0000
,
1000
1000
2000
0000
,
3010
0100
0020
0000
,
1030
0100
0010
0001
,
2000
0000
0000
0000
,
3001
0000
0000
1000
,
0001
0000
0000
1000
,
0010
0000
0100
0000
,
0001
1000
0001
0000
,
1001
0000
0010
0000
,
0100
1000
0100
1000
,
0020
0000
0230
0000
,
0001
0001
0301
0000
,
0020
0000
0230
0000
,
1000
1000
1300
0000
,
0010
0000
0100
0000
,
0010
1000
0001
0000
,
0010
0000
0001
0000
,
0100
0010
0010
0000
,
2000
0000
3200
0000
,
0010
0010
0310
0000
,
0002
0000
0203
0000
,
0010
0010
0310
0000
,
1000
0001
0010
0001
,
1000
0000
0010
0000
,
0100
0001
0100
0010
,
1000
1000
1000
1000
,
1000
0000
0000
0000
,
0000
0000
0000
0000
,
0001
0000
0010
0000
,
0100
1000
0200
0000
,
0000
0000
0300
0000
;

//---------------dance-single - ----------------
#NOTES:
     dance-single:
     :
     Beginner:
     1:
     0.155,0.206,0.000,0.000,0.000:
0000
0000
0000
0000
,
0000
0000
0000
0000
,
0001
0000
0000
0000
,
0000
0000
0000
0000
,
1000
0000
0000
0000
,
0000
0000
0000
0000
,
0001
0000
0000
0000
,
0000
0000
0000
1000
,
1000
0000
0010
0000
,
0100
0000
0010
0000
,
1000
1000
1000
0000
,
0001
0001
0001
0000
,
1000
0000
0010
0000
,
0100
0000
0010
0000
,
1000
0000
0001
0000
,
0010
0010
0010
0000
,
0100
0000
1000
0000
,
0010
0000
1000
0000
,
0001
0000
0010
0000
,
0001
0000
0001
0000
,
1000
0000
0010
0000
,
0100
0000
0010
0000
,
1000
0000
0001
0000
,
0010
0000
0001
0000
,
1000
1000
1000
0000
,
0001
0001
0001
0000
,
1000
0000
0010
0000
,
0100
0000
0010
0000
,
0100
0100
0100
0000
,
0010
0010
0010
0000
,
1000
0000
0001
0000
,
0010
0000
0100
0000
,
1000
0000
0000
0000
,
0001
0000
0000
0000
,
1000
0000
0010
0000
,
0100
0100
0100
0000
,
0001
0000
0010
0000
,
0100
0000
1000
0000
,
0001
0001
0001
0000
,
1000
0000
0010
0000
,
1000
1000
1000
0000
,
0100
0000
0010
0000
,
0001
0000
0100
0000
,
0010
0000
1000
0000
,
0001
0000
0010
0000
,
0001
0000
0000
0000
,
1000
1000
1000
0000
,
0010
0000
0100
0000
,
0010
0010
0010
0000
,
0100
0000
0001
0000
,
0010
0000
0100
0000
,
1000
0000
0000
0000
,
0001
0000
0100
0000
,
0010
0000
0000
0000
,
1000
0000
0000
0000
,
0000
0000
0000
0000
,
0001
0000
0000
0000
,
0000
0000
1000
0000
;
