#TITLE:初音ミクのあたまのたいそう;
#SUBTITLE:;
#ARTIST:hapi=> feat. 初音ミク;
#TITLETRANSLIT:Hatsune Miku's Head Exercises;
#SUBTITLETRANSLIT:;
#ARTISTTRANSLIT:hapi=> feat. Hatsune Miku;
#CREDIT:Xythar;
#BANNER:atamataisou.png;
#BACKGROUND:atamataisou-bg.png;
#LYRICSPATH:;
#CDTITLE:blank.png;
#MUSIC:atamataisou.mp3;
#OFFSET:-0.076;
#SAMPLESTART:7.324;
#SAMPLELENGTH:16.000;
#SELECTABLE:YES;
#DISPLAYBPM:120.000;
#BPMS:0.000=120.000,116.000=240.000,444.000=960.000,456.000=240.000,469.000=960.000,485.000=240.000;
#STOPS:116.000=1.500
,242.000=0.500
;
#LASTBEAT:501;
#BGCHANGES:0.000=atamataisou.avi=1.000=1=1=0,
99999=-nosongbg-=1.000=0=0=0 // don't automatically add -songbackground-
;

//---------------dance-single - ----------------
#NOTES:
     dance-single:
     :
     Hard:
     7:
     0.622,0.692,0.114,0.047,0.000:
0000
0000
0000
0000
,
0000
0000
0000
0000
,
0000
0000
0000
0000
,
0000
0000
0000
0000
,
1000
0000
0001
0100
0010
0000
1000
0000
,
0001
0010
0100
0010
0001
0000
0100
0010
,
0100
0000
0001
0000
0010
0000
0100
1000
,
0010
0000
0100
0001
1000
0000
0100
0000
,
0010
0000
0001
0100
1000
0000
0100
0000
,
0001
0010
1000
0010
0001
0000
0100
0010
,
0100
0001
0010
0100
1000
0010
0100
0001
,
1000
0001
1000
0000
,
1000
0100
0010
0001
0000
0001
0100
0010
,
1000
0100
1000
0010
0000
0010
0100
0001
,
0010
0100
1000
0010
0000
0010
0100
0001
,
2000
0100
0001
3010
,
0100
0001
0100
0010
0000
0010
0100
0001
,
1000
0100
0010
0001
0000
0001
0010
0100
,
1000
0010
0100
0001
0000
0001
0100
0010
,
1000
0100
1000
0001
0010
0000
0100
0000
,
1000
0000
0010
0100
0001
0000
0100
0000
,
0010
1000
0001
1000
0100
0000
0010
0001
,
0100
0000
0010
0000
1000
0000
0001
0010
,
0100
0000
1000
0010
0100
0000
0010
0000
,
1000
0000
0100
0010
0001
0000
0100
0000
,
1000
0100
0001
0010
0100
0000
1000
0010
,
0100
0010
1000
0100
0010
0001
0100
0010
,
1000
0000
0001
0000
,
1000
0001
1000
0000
,
0000
0000
0001
0010
,
0100
1000
0010
0100
,
0010
0000
1000
0100
0010
0000
0001
0000
,
0100
0010
0100
0001
,
1000
0100
0000
0010
0001
0000
0100
0000
,
0010
0100
0001
0010
,
0001
0000
0100
0010
0100
0000
0001
0000
,
1000
0000
0100
0000
1000
0001
1000
0000
,
0001
0100
0010
0100
0001
0000
0010
0000
,
0100
1000
0010
0100
,
0001
0000
1000
0100
1000
0000
0010
0000
,
0100
0001
1000
0100
,
1000
0010
0000
0100
0001
0000
0010
0000
,
0100
1000
0010
0100
,
0010
0000
0100
0001
0100
0000
0001
0000
,
1000
0100
0010
0001
0100
0010
0100
0010
,
1000
0001
0010
0100
1000
0000
0100
0000
,
0010
0001
1000
0100
,
0010
0001
0100
0000
,
1001
0000
0010
0000
,
0100
0000
0001
0000
1000
0100
0010
0100
,
1000
0000
0001
0000
0100
0010
0100
0010
,
1000
0000
0001
0010
0100
1000
0010
0100
,
0000
0001
1000
0100
1000
0000
0010
0100
,
0000
0001
1000
0100
0010
0001
0100
0020
,
0000
0000
1030
0000
0001
0100
1000
0100
,
0001
0000
1000
0100
1000
0010
0100
1000
,
0100
0010
0100
0001
0010
0000
0100
0000
,
1000
0000
0001
0000
1000
0100
1000
0100
,
0010
0001
0010
0001
1000
0010
1000
0010
,
0100
0001
0100
0001
1000
0100
0010
0001
,
0100
0010
1000
0001
1000
0000
0000
0000
,
0100
0001
0100
0001
0100
0010
0100
0010
,
0100
1000
0100
1000
0001
1000
0001
1000
,
0001
0100
0001
0100
1000
0100
1000
0100
,
0010
0100
0001
0010
0100
1000
0010
0100
,
0001
0000
0000
0000
,
1000
0000
0001
0000
,
0100
0000
0000
0000
,
1000
0100
1000
0100
0001
0100
0001
0100
,
0010
0100
0010
2000
0000
0000
3001
0000
,
1000
0010
0001
0000
0001
0010
1000
0000
,
0001
1000
0001
0020
0000
0000
0130
0000
,
1000
0001
1000
0001
0010
0000
0000
0000
,
0100
1000
0010
0100
0001
0000
1100
0000
,
0001
0010
0100
1000
0010
0000
0101
0000
,
1000
0100
0010
0001
0100
0000
1010
0000
,
0001
0100
1000
0100
0001
0000
0110
0000
,
1000
0100
0010
0100
1000
0000
0010
0100
,
0001
0010
0100
1000
0010
0000
0101
0000
,
1000
0100
0010
0001
0100
0010
0100
0001
,
0010
0100
1001
0010
,
0100
0001
0010
0001
0100
0000
1010
0000
,
0100
0010
0001
0010
0100
0000
1001
0000
,
0100
0001
1000
0100
1000
0000
0011
0000
,
0100
1000
0001
1000
0010
0000
0101
0000
,
0001
0010
0100
1000
0010
0000
0100
0010
,
0100
0010
1000
0100
0010
0000
1001
0000
,
0100
1000
0010
0100
0001
0010
0100
1000
,
0010
0100
1001
0010
,
0100
0000
0000
0000
,
0001
1000
0100
0000
,
1000
0000
0000
0000
,
0001
0100
1000
0100
,
0001
1000
0100
1000
0000
0001
0010
0100
,
0010
0001
0100
0010
0000
1000
0100
1000
,
0010
0100
0001
0010
0000
0100
1000
0010
,
0100
0010
1000
0100
0000
0010
0001
0100
,
0010
1000
0010
1000
,
0001
1000
0001
1000
0001
0000
0000
0000
,
1000
0100
0010
0100
1000
0000
0001
0000
,
0100
0010
0100
0010
1000
0000
0001
0010
,
0100
1000
0010
0100
0000
1000
0100
1000
,
0100
0000
0001
0100
0000
0001
1000
0001
,
0010
0001
1000
0020
0000
0000
0130
0000
,
1000
0100
0001
0100
1000
0000
0100
0010
,
0100
0010
1000
0010
1000
0010
1000
0100
,
0010
0001
1100
0010
,
0101
1100
1001
0010
,
1000
0100
1000
0010
0100
0001
0010
0001
,
0100
0010
0100
0001
0010
0100
0010
0001
,
0100
1000
0100
0001
0010
1000
0010
0001
,
2000
0000
0000
0000
,
0000
0000
0000
0000
,
0000
0000
0000
0000
,
0000
0000
3001
0100
0001
0100
0010
1000
,
0010
1000
0001
0010
0100
0010
0001
0100
,
0010
0100
0001
1000
0100
1000
0010
0100
,
0001
1000
0002
0000
0000
0000
0000
0000
,
0000
0000
0000
0000
,
0000
0000
0000
0000
,
0000
0000
0000
0000
,
0000
1003
0000
0000
;

//---------------dance-single - ----------------
#NOTES:
     dance-single:
     :
     Medium:
     5:
     0.394,0.447,0.007,0.060,0.000: // measure 1
0000
0000
0000
0000
,  // measure 2
0000
0000
0000
0000
,  // measure 3
0000
0000
0000
0000
,  // measure 4
0000
0000
0000
0000
,  // measure 5
0001
1000
0100
1000
,  // measure 6
0010
0000
0100
0001
0100
0000
0010
0000
,  // measure 7
1000
0100
0010
0100
,  // measure 8
1000
0000
0001
0100
0001
0000
0010
0000
,  // measure 9
1000
0100
1000
0010
,  // measure 10
0100
0000
0001
1000
0001
0000
0010
0000
,  // measure 11
0100
1000
0010
0100
,  // measure 12
0001
1000
0100
0000
,  // measure 13
2000
0100
0001
3100
,  // measure 14
0020
0100
1000
0130
,  // measure 15
0002
1000
0010
1003
,  // measure 16
0001
0100
0010
1000
,  // measure 17
0200
0001
0010
1300
,  // measure 18
0002
0010
1000
0103
,  // measure 19
0020
0001
0100
1030
,  // measure 20
0001
0000
0010
0100
1000
0000
0000
0000
,  // measure 21
0001
0100
0010
1000
,  // measure 22
0100
0000
0010
0001
0010
0000
0100
0000
,  // measure 23
1000
0010
0100
0001
,  // measure 24
1000
0000
0100
1000
0100
0000
1000
0000
,  // measure 25
0010
0100
0001
1000
,  // measure 26
0100
0000
1000
0010
1000
0000
0001
0000
,  // measure 27
0100
0010
1000
0001
,  // measure 28
1000
0000
0001
0000
,  // measure 29
1000
0100
0010
0000
,  // measure 30
0000
0000
0001
1000
,  // measure 31
0001
1000
0001
1000
,  // measure 32
0010
0100
0001
0010
,  // measure 33
0001
0010
0001
0010
,  // measure 34
0001
1000
0000
1000
0010
0000
0100
0000
,  // measure 35
0010
0100
0010
0100
,  // measure 36
0001
1000
0100
0010
,  // measure 37
0001
0100
0010
0100
,  // measure 38
0001
0010
0100
1000
,  // measure 39
0100
1000
0100
1000
,  // measure 40
0010
0100
0001
1000
,  // measure 41
0001
1000
0001
1000
,  // measure 42
0001
0100
0000
0001
1000
0000
0100
0000
,  // measure 43
0010
0001
0100
0010
,  // measure 44
1000
0001
1000
0100
,  // measure 45
1000
0010
0100
0001
,  // measure 46
0010
0100
1000
0000
,  // measure 47
0000
0000
0001
0000
,  // measure 48
0000
0000
1000
0000
,  // measure 49
0001
0000
1000
0000
,  // measure 50
0000
0000
0001
0100
,  // measure 51
0010
1000
0100
1000
,  // measure 52
0010
0000
0100
0000
0001
0000
0000
0010
,  // measure 53
0000
0000
0100
0000
1000
0000
0001
1000
,  // measure 54
0000
0000
0010
0000
0100
0000
0000
0001
,  // measure 55
0000
1000
0100
0010
,  // measure 56
0001
0100
0010
0100
,  // measure 57
0001
0010
0100
1000
,  // measure 58
0001
0000
1000
0010
,  // measure 59
1000
0010
0100
0001
,  // measure 60
0100
0001
0010
0001
,  // measure 61
0010
0001
1000
0000
,  // measure 62
0001
0100
0001
0100
,  // measure 63
0010
1000
0010
1000
,  // measure 64
0001
1000
0001
1000
,  // measure 65
0100
0010
0100
0010
,  // measure 66
0001
0000
0000
0000
,  // measure 67
1000
0000
0001
0000
,  // measure 68
1000
0000
0000
0000
,  // measure 69
0001
0001
0001
0001
,  // measure 70
1000
0000
0000
0100
0000
0000
0010
0000
,  // measure 71
0001
0100
0001
0100
,  // measure 72
0010
0000
0000
1000
0000
0000
0100
0000
,  // measure 73
0010
0010
0010
0000
,  // measure 74
0001
0100
0010
0010
,  // measure 75
1000
0100
0010
0010
,  // measure 76
0001
0100
0010
0010
,  // measure 77
1000
0001
1000
1000
,  // measure 78
0010
0100
0001
0001
,  // measure 79
0010
0100
1000
1000
,  // measure 80
0001
0010
0100
1000
,  // measure 81
0010
0100
0001
0000
,  // measure 82
1000
0100
1000
1000
,  // measure 83
0010
0100
0001
0001
,  // measure 84
0010
0100
1000
1000
,  // measure 85
0010
0100
0001
0001
,  // measure 86
1000
0100
1000
1000
,  // measure 87
0010
0100
0001
0001
,  // measure 88
0010
0100
1000
0010
,  // measure 89
0100
0001
1000
0001
,  // measure 90
1000
0000
0000
0000
,  // measure 91
0001
0000
0000
0000
,  // measure 92
1000
0000
0000
0000
,  // measure 93
0010
0000
0100
0000
,  // measure 94
0001
0010
0001
0010
,  // measure 95
0100
1000
0100
1000
,  // measure 96
0010
0100
0010
0100
,  // measure 97
0001
1000
0001
1000
,  // measure 98
0001
0000
1000
0000
,  // measure 99
0001
0001
0001
0000
,  // measure 100
1000
0100
0010
0001
,  // measure 101
0100
1000
0100
0001
,  // measure 102
0010
0100
1000
0010
,  // measure 103
0100
0001
1000
0100
,  // measure 104
1000
0010
0100
0001
,  // measure 105
0010
1000
0010
0001
,  // measure 106
0100
0010
1000
0100
,  // measure 107
0010
0001
0100
0010
,  // measure 108
0100
0001
1000
0000
,  // measure 109
0001
0010
0100
1000
,  // measure 110
0010
0100
0010
1000
,  // measure 111
0100
0010
0001
1000
,  // measure 112
0002
0000
0000
0000
,  // measure 113
0000
0000
0000
0000
,  // measure 114
0000
0000
0000
0000
,  // measure 115
0003
1000
0100
0010
,  // measure 116
0001
0100
0010
0100
,  // measure 117
0001
0010
0100
1000
,  // measure 118
0000
2002
0000
0000
,  // measure 119
0000
0000
0000
0000
,  // measure 120
0000
0000
0000
0000
,  // measure 121
0000
0000
0000
0000
,  // measure 122
0000
3003
0000
0000
;

//---------------dance-single - ----------------
#NOTES:
     dance-single:
     :
     Easy:
     3:
     0.255,0.315,0.027,0.000,0.000: // measure 1
0000
0000
0000
0000
,  // measure 2
0000
0000
0000
0000
,  // measure 3
0000
0000
0000
0000
,  // measure 4
0000
0000
0000
0000
,  // measure 5
1000
0010
0100
0000
,  // measure 6
0001
1000
0001
0000
,  // measure 7
0010
0000
0100
0000
,  // measure 8
1000
0010
1000
0000
,  // measure 9
0100
0000
0010
0000
,  // measure 10
0001
0100
0010
0100
,  // measure 11
0001
0000
1000
0000
,  // measure 12
0001
0010
0100
0000
,  // measure 13
1000
0010
0100
0000
,  // measure 14
0001
1000
0001
0000
,  // measure 15
0010
0100
1000
0000
,  // measure 16
0010
0100
0001
0100
,  // measure 17
0010
0000
1000
0100
,  // measure 18
0010
0000
0001
1000
,  // measure 19
0001
0000
0100
0010
,  // measure 20
1000
1000
1000
0000
,  // measure 21
0001
0100
0010
0000
,  // measure 22
1000
0100
1000
0000
,  // measure 23
0010
0000
0100
0000
,  // measure 24
0001
0010
0100
0000
,  // measure 25
1000
0000
0010
0000
,  // measure 26
0100
0001
0100
0000
,  // measure 27
0010
1000
0001
1000
,  // measure 28
0100
0000
1000
0000
,  // measure 29
0001
1000
0001
0000
,  // measure 30
0000
0000
1000
0000
,  // measure 31
0010
0000
0100
0000
,  // measure 32
0001
1000
0001
0000
,  // measure 33
1000
0000
0100
0000
,  // measure 34
0010
0000
0001
0000
,  // measure 35
1000
0000
0010
0000
,  // measure 36
1000
0001
1000
0000
,  // measure 37
0100
0000
0010
0000
,  // measure 38
0001
0000
0100
0000
,  // measure 39
0010
0000
1000
0000
,  // measure 40
0001
0000
1000
0000
,  // measure 41
0001
0000
0010
0000
,  // measure 42
0100
0000
1000
0000
,  // measure 43
0010
0000
0100
0000
,  // measure 44
0001
1000
0001
0000
,  // measure 45
1000
0000
0010
0000
,  // measure 46
0100
0000
0001
0000
,  // measure 47
0000
0000
1000
0000
,  // measure 48
0000
0000
0001
0000
,  // measure 49
0001
0000
1000
0000
,  // measure 50
0000
0000
0001
0000
,  // measure 51
0010
0000
0100
1000
,  // measure 52
0100
0000
1000
0000
,  // measure 53
0010
0000
0100
0001
,  // measure 54
0100
0000
0001
0000
,  // measure 55
1000
0000
0001
1000
,  // measure 56
0001
0000
1000
0000
,  // measure 57
0100
0000
0010
0001
,  // measure 58
0010
0000
0100
0000
,  // measure 59
1000
0000
0010
0000
,  // measure 60
0100
0000
0001
0000
,  // measure 61
1000
0000
0001
0000
,  // measure 62
1000
0000
0100
0000
,  // measure 63
1000
0000
0010
0000
,  // measure 64
0100
0000
0010
0000
,  // measure 65
1000
0000
0001
0000
,  // measure 66
1001
0000
0000
0000
,  // measure 67
1001
0000
1001
0000
,  // measure 68
1001
0000
0000
0000
,  // measure 69
1000
0000
0001
0000
,  // measure 70
1000
0000
0010
0000
,  // measure 71
0100
0001
0100
0000
,  // measure 72
0010
0000
1000
0000
,  // measure 73
0100
0010
0100
0000
,  // measure 74
1000
0000
0010
0010
,  // measure 75
0100
0000
0001
0001
,  // measure 76
1000
0000
0001
0001
,  // measure 77
0010
0000
0100
0100
,  // measure 78
1000
0000
0010
0010
,  // measure 79
0100
0000
0001
0001
,  // measure 80
1000
0000
0001
0000
,  // measure 81
1000
0000
0010
0000
,  // measure 82
0100
0000
0001
0001
,  // measure 83
1000
0000
0100
0100
,  // measure 84
0010
0000
0001
0001
,  // measure 85
0100
0000
0010
0010
,  // measure 86
1000
0000
0001
0001
,  // measure 87
1000
0000
1000
1000
,  // measure 88
0001
0000
0100
0000
,  // measure 89
0010
0010
0010
0000
,  // measure 90
1000
0000
0000
0000
,  // measure 91
0001
0000
0000
0000
,  // measure 92
1000
0000
0000
0000
,  // measure 93
0100
0000
0000
0000
,  // measure 94
0010
0000
0001
0000
,  // measure 95
0100
0000
0010
0000
,  // measure 96
1000
0000
0001
0000
,  // measure 97
1000
0000
0100
0000
,  // measure 98
0010
0000
0001
0000
,  // measure 99
1000
0001
1000
0000
,  // measure 100
0010
0000
0100
0000
,  // measure 101
0001
0000
0010
0000
,  // measure 102
0100
0000
1000
0000
,  // measure 103
0001
1000
0001
0000
,  // measure 104
1000
0000
0010
0000
,  // measure 105
0100
0000
0001
0000
,  // measure 106
0010
0000
0100
0000
,  // measure 107
1000
0100
1000
0001
,  // measure 108
1000
0001
1000
0000
,  // measure 109
0010
0000
0100
0000
,  // measure 110
0001
0000
1000
0000
,  // measure 111
0010
0000
0100
0000
,  // measure 112
0001
0000
0000
0000
,  // measure 113
0000
0000
0000
0000
,  // measure 114
0000
0000
0000
0000
,  // measure 115
0000
1000
0000
0100
,  // measure 116
0000
0010
0000
0001
,  // measure 117
0100
0001
0000
1000
,  // measure 118
0000
0001
0000
0000
;
