#TITLE:初音ミクの激唱;
#SUBTITLE:;
#ARTIST:Storyteller feat. 初音ミク;
#TITLETRANSLIT:Hatsune Miku no Gekishou;
#SUBTITLETRANSLIT:;
#ARTISTTRANSLIT:Storyteller feat. Hatsune Miku;
#CREDIT:Xythar;
#BANNER:Hatsune Miku no Gekishou.png;
#BACKGROUND:Hatsune Miku no Gekishou-bg.png;
#LYRICSPATH:;
#CDTITLE:cdtitle.png;
#MUSIC:Hatsune Miku no Gekishou.ogg;
#OFFSET:-0.390;
#SAMPLESTART:25.584;
#SAMPLELENGTH:19.140;
#SELECTABLE:YES;
#BPMS:0.000=200.000;
#STOPS:;
#BGCHANGES:0.000=Hatsune Miku no Gekishou.avi=1.000=1=0=1,
99999=-nosongbg-=1.000=0=0=0 // don't automatically add -songbackground-
;

//---------------dance-single - ----------------
#NOTES:
     dance-single:
     :
     Challenge:
     13:
     0.952,1.000,0.207,0.127,1.000:
0000
0000
0000
0000
,
0000
0000
0000
0000
,
0000
0000
0000
0000
,
0000
0000
0000
0000
,
1000
0000
0001
0000
,
1000
0000
0000
0000
0000
0000
0000
0000
0001
0000
0000
0000
1000
0100
1000
0100
,
0010
0000
0001
0100
,
0010
1000
0010
1000
0001
0000
0100
0000
1000
0000
0100
0000
0010
0000
1000
0000
,
0200
0000
0000
0010
0010
0000
1000
1300
,
0002
0000
0000
0100
0100
0000
0010
0013
,
0200
0000
0000
0001
0001
0000
1000
1300
,
0020
0000
0100
0130
0002
0000
1000
1003
,
0200
0000
0000
0001
0001
0000
0010
0310
,
0002
0000
0000
0100
0100
0000
1000
1003
,
0020
0000
0000
1000
1000
0000
0001
0031
,
0200
0000
0010
0310
2000
0000
0001
3001
,
1010
0100
0001
1001
0000
0000
0110
0001
,
1000
1010
0000
0000
0011
0100
1000
1010
,
0100
0001
1001
0100
0010
0011
1000
0010
,
0101
0000
0000
0000
1000
0100
0010
0001
1000
0100
0010
0001
1000
0100
0010
0001
,
1000
0000
1001
0000
,
0001
0000
0100
0000
0010
0000
1000
0100
,
0000
1000
0010
0100
0001
0000
1000
0000
,
0010
0000
0100
0000
0010
0000
1000
0100
,
0000
0010
0001
1000
0001
0000
0100
0000
,
0010
0000
0000
0000
1000
0000
0000
0000
0001
0000
0000
0010
0000
0000
0100
0000
,
1000
0001
0100
0010
,
1100
0000
0000
0000
0001
0000
0010
0100
1000
0000
0000
0000
0001
0000
0100
0010
,
1000
0000
0000
0000
0100
0000
0010
0001
1000
0000
0000
0000
0100
0000
0000
0000
,
1000
0000
0010
0000
0100
0000
0000
0000
0010
0000
1000
0100
0010
0000
0001
0000
,
1000
0000
0010
0000
1000
0000
0001
0000
0010
0100
1000
0100
0010
0000
0001
0000
,
0100
0000
0000
0000
0010
0000
0000
0000
1000
0000
0100
0010
0001
0000
1000
0000
,
0010
0000
0100
0000
0010
0000
1000
0000
0100
0010
0001
0010
0100
0000
1000
0000
,
1001
0000
0001
0000
0100
0000
0000
0000
0010
0000
1000
0100
0010
0000
0100
0000
,
1000
0000
0001
0000
0100
0000
0010
0000
1000
0001
0010
0001
1000
0000
0010
0000
,
0100
0000
0001
0000
1000
0000
0100
0010
0001
0000
1000
0000
0010
0000
0100
0001
,
1000
0000
0001
0000
0010
0000
0100
1000
0001
0000
1000
0000
0010
0000
0100
0000
,
0001
1000
0010
0100
,
1000
0100
0010
1000
,
0001
0000
0000
1000
0000
0000
0010
0000
0000
0100
0000
0001
,
1000
0001
0010
0100
,
0001
0100
1000
0001
,
0100
0010
1000
0001
1000
0100
0001
0100
,
1000
0001
0010
1100
,
0001
0100
1010
0001
,
0100
0000
0010
1000
0000
0000
0001
0000
0000
0010
0000
0100
,
1000
0001
0010
1100
,
0001
0100
1010
0100
,
0010
1001
1100
0011
,
0110
0000
0001
0000
1000
1000
0001
0100
,
0100
0000
0000
0000
0001
0010
0100
0000
0010
0100
1000
0000
0001
0100
0010
1000
,
0001
0100
0010
1000
,
0002
0000
0100
0000
,
1003
0100
0010
0100
,
2000
0000
0010
0000
,
3001
0100
1000
0100
,
0020
0000
0001
0000
,
1030
0001
0010
0100
,
1000
0010
0100
0001
,
2000
0100
0001
3100
,
0001
0010
0100
1000
,
0020
0001
0100
1030
,
0001
0010
0100
1000
,
0002
0100
1000
0013
,
0100
0000
1000
0000
0001
0100
0010
1000
,
0001
0010
0100
1000
0010
0100
0001
1000
,
0001
0000
0000
0000
,
1000
0100
1000
0001
1000
0001
0100
0001
0100
0010
0100
0010
,
1000
0010
1000
0001
0010
0001
1000
0100
1000
0001
0100
0001
,
1000
0010
0100
0010
1000
0001
0010
0100
0010
0001
1000
0010
,
0100
0010
1000
0001
0010
0100
1000
0001
1000
0010
1000
0001
,
0010
0100
1000
0010
,
0100
0001
0010
0100
1000
0000
0001
0000
,
0100
0000
0010
0000
1000
0000
0100
0010
,
0001
0000
0000
0010
0000
0000
0100
0000
0000
1000
0000
0000
0001
0000
0100
0000
0010
0000
1000
0000
0100
0000
0010
0000
,
0001
1000
0010
0100
0001
1000
0001
0010
0100
1000
0010
0100
,
0001
1000
0100
0010
0001
1000
0010
0100
0001
0100
0010
1000
,
0001
0010
0100
1000
0100
0010
0001
1000
0010
0100
0001
0010
,
0100
0000
0000
0000
1000
0000
0000
0000
0010
0000
0000
0000
0100
0000
0000
0000
0000
0000
0001
0000
0000
0000
0000
0000
0100
0000
0000
0000
0000
0000
0001
0000
0000
0000
0000
0000
1000
0000
0000
0100
0000
0000
1000
0000
0000
0100
0000
0000
,
0010
0001
1000
0010
0100
0010
0001
0010
,
1000
0000
0100
0000
0010
0000
0001
1000
0010
0000
0100
0001
0100
0001
1000
0000
,
0100
0000
0001
0000
0100
0000
1000
0000
0010
0000
0100
0000
0001
0000
0010
0100
,
1000
0001
0100
0010
0001
0010
0100
0001
,
0010
0000
0100
0000
1000
0100
1000
0100
0010
0001
0010
0001
1000
0010
1000
0010
,
0100
0001
0100
0001
1000
0010
0100
0010
1000
0001
0010
0001
1000
0100
0010
0100
,
1000
0001
0100
0001
1000
0100
0010
0100
0010
0001
1000
0001
0100
0010
1000
0010
,
0100
0001
1000
0001
1000
0100
0010
0001
1000
0010
0100
0001
1000
0100
0010
0001
,
1000
0010
0100
0001
1000
0001
0010
0100
0010
0001
1000
0010
0100
1000
0100
0010
,
0100
0001
1000
0001
1000
0100
0010
0001
1000
0010
0100
0010
0100
0001
0010
0100
,
1000
0001
0100
0010
1000
0100
0010
0001
1000
0010
0100
0001
1000
0100
1000
0001
,
0100
0010
0100
0001
1000
0100
1000
0100
0010
0100
0010
0100
0010
0001
0010
0001
,
1000
0001
1000
0001
1000
0100
0010
0100
1000
0100
0010
0100
0001
0100
0010
0100
,
0001
0100
0010
0100
1000
0010
0100
0010
1000
0010
0100
0010
1000
0001
0010
0001
,
1000
0001
0010
0001
1000
0010
0100
1000
0100
0010
0100
1000
0100
0010
1000
0001
,
0010
0100
1000
0010
1000
0100
0010
0001
1000
0100
0010
0001
1000
0010
0100
0001
,
1000
0010
0100
0001
1000
0100
1000
0100
0010
0100
0010
0100
0001
0100
0001
0100
,
0010
0100
0010
0100
1000
0010
1000
0010
0100
0010
0100
0010
0100
1000
0100
1000
,
0100
0010
0100
0010
0100
0001
0100
0001
1000
0100
0010
0001
1000
0010
0100
0001
,
1000
0001
0010
0100
1000
0010
0100
0001
1000
0100
0010
0001
0100
0010
1000
0001
,
0010
0100
1000
0010
0100
0000
0000
0000
0001
0000
0000
0000
1000
0000
0000
0000
,
0010
0100
0002
0000
0100
0000
2003
0000
,
0100
3002
0010
1003
,
0001
0000
0010
0000
0100
0000
1000
0001
0100
0000
0010
0000
1000
0000
0001
0000
,
1000
0100
0010
0100
1000
0000
0001
0000
0100
0000
1000
0000
0100
0000
0001
0000
,
1000
0000
0100
0000
0010
0000
0001
0100
0010
0000
1000
0000
0001
0000
0100
0010
,
0100
0010
1000
0100
0010
0000
0001
0000
1000
0000
0010
0000
1000
0000
0001
0000
,
0010
0100
1001
0100
0011
0100
1001
0010
,
1000
0000
0000
0100
0000
0000
1000
0000
0000
0100
0000
0000
0010
0000
0000
0000
0001
0000
0000
0000
1000
0000
0000
0000
0010
0000
0000
0000
0000
0000
0000
0000
0000
0000
0000
0000
0101
0000
0000
0000
0010
0000
0000
0000
1000
0000
0000
0000
,
0001
0000
0000
1100
0010
0001
0100
0000
0000
1010
0100
0001
,
1000
0000
0000
0011
0100
1000
0001
0000
0000
0110
0001
0010
,
0100
0000
0000
0110
1000
0100
0010
0000
0000
1001
0100
0010
,
0001
0000
0000
0001
0100
0010
1000
0001
0010
0100
0001
0100
,
1000
0010
0100
1000
0100
0010
1000
0001
0010
0100
1000
0001
,
0100
0000
0000
0000
0010
0000
0000
0000
1000
0000
0000
0000
0100
0000
0000
0010
0000
0000
0001
0000
0000
1000
0000
0000
0001
0000
0000
0100
0000
0000
0010
0000
0000
1000
0000
0000
0001
0000
0000
0010
0000
0000
0100
0000
0000
1000
0000
0000
,
0010
0100
0010
1000
0100
0010
0001
0100
0001
0010
0100
1000
0010
1000
0100
0010
,
0001
0100
0001
0010
0100
1000
0001
0100
0010
0100
0001
0010
0100
0010
0001
0100
,
0010
0100
1000
0100
0010
0100
0001
1000
0100
0010
0100
0001
0100
0010
0100
1000
,
0010
0100
0001
0010
0100
0000
0000
0000
0000
0000
0000
0000
0000
0000
0000
0000
,
0000
1000
0000
0000
,
0000
0001
0000
0000
,
0000
0100
0000
0000
,
0000
0010
0000
0000
,
0000
1001
0000
0000
;

//---------------dance-single - ----------------
#NOTES:
     dance-single:
     :
     Hard:
     10:
     0.736,1.000,0.180,0.107,0.413:
0000
0000
0000
0000
,
0000
0000
0000
0000
,
0000
0000
0000
0000
,
0000
0000
0000
0000
,
1000
0000
0010
0000
,
0100
0000
0000
0000
0000
0000
0000
0000
0001
0000
0000
0000
1000
0000
0001
1000
,
0001
0000
1000
0010
,
0100
0001
0100
0000
0001
0000
1000
0000
0100
0000
0010
0000
0001
0000
1000
0000
,
0020
0000
0000
0100
0100
0000
1030
0000
,
0002
0000
0000
0100
0100
0000
0013
0000
,
0200
0000
0000
0001
0001
0000
1300
0000
,
0002
0100
2003
0100
,
3002
0000
0000
0100
0100
0000
1003
0000
,
0020
0000
0000
0001
0001
0000
0130
0000
,
0002
0000
0000
0010
0010
0000
0103
0000
,
0020
0001
2030
0100
,
3001
0100
0010
1001
0000
0000
1000
0100
,
0010
1001
0000
0000
0010
0100
0010
1000
,
0001
0010
0100
1000
0001
1000
0010
0100
,
1001
0000
0000
0000
0001
0100
0010
1000
,
1001
0000
0110
0000
,
1000
0000
0001
0000
0100
0000
0010
0100
,
0000
0001
0010
0001
1000
0000
0100
0000
,
0011
0000
0100
0000
1000
0000
0001
0100
,
0000
0010
1000
0001
1000
0000
0100
0000
,
1001
0000
0000
0000
0001
0000
0000
0000
0100
0000
0000
0010
0000
0000
1000
0000
,
0100
0010
0001
1000
,
0010
0000
0000
0000
0100
0000
0001
0100
0001
0000
0000
0000
1000
0000
0100
0010
,
0100
0000
0000
0000
0010
0000
0001
1000
0001
0000
0000
0000
1000
0000
0000
0000
,
0001
0100
0010
0100
0001
1000
0010
1000
,
0001
1000
0100
0010
0001
1000
0010
1000
,
0001
0010
0100
1000
0010
1000
0001
1000
,
0100
0010
0001
0100
1000
0100
0001
1000
,
0100
1000
0010
0100
1000
0100
0001
0010
,
0100
0001
0100
1000
0010
0100
0001
1000
,
0001
0000
0100
0000
0010
0000
1000
0001
0010
0000
0100
0000
0010
0000
0001
1000
,
0010
0000
0100
0000
0010
0000
1000
0100
0010
0000
0001
0000
1000
0000
0010
0000
,
0100
0001
0010
0001
,
1000
0010
0100
0001
,
0010
0000
0000
0100
0000
0000
1000
0000
0000
0001
0000
0100
,
0010
1000
0100
1000
,
0010
0100
0001
0010
,
0100
1000
0001
1000
0010
1000
0010
0100
,
0001
0010
0100
1001
,
1000
0100
0011
0100
,
1000
0000
0001
1000
0000
0000
0001
0000
0000
0100
0000
0010
,
1000
0100
0010
1001
,
0001
1000
0110
0001
,
0100
1010
0100
0011
,
1001
0001
0100
0010
,
1000
0000
0001
0010
,
0100
1000
0010
0100
,
0010
0000
0000
0000
0000
0000
1000
0100
,
0010
0001
0100
0010
,
0200
0000
0000
0000
0300
0000
0001
0010
,
0100
1000
0010
0100
,
0002
0000
0000
0000
0003
0000
1000
0100
,
0010
0001
0100
0010
,
2000
0000
0000
0000
3001
0000
0010
0100
,
1000
0010
0100
0010
,
1000
0000
0100
0000
0010
0001
0100
0010
,
1000
0001
0010
0100
,
1000
0000
0010
0000
0100
0001
0010
0001
,
1000
0010
0100
0001
,
0010
0000
0001
0000
1000
0010
0100
0001
,
1000
0100
1000
0010
1000
0001
0010
0100
,
1000
0000
0000
0000
,
0001
0000
0001
0100
0000
0100
0010
0000
0010
0100
0000
0100
,
0001
0000
0001
1000
0000
1000
0100
0000
0100
0010
0100
0010
,
0001
0000
0001
1000
0000
1000
0010
0000
0010
0100
0000
0100
,
0010
0000
0010
1000
0000
1000
0001
1000
0010
1000
0001
1000
,
0001
1000
0201
0310
,
1000
0100
0001
0100
1000
0000
0001
0000
,
0100
0000
2010
0000
3001
0000
1000
0010
,
0001
0000
0000
0010
0000
0000
1000
0000
0000
0000
0000
0000
0001
0000
0000
0000
0010
0000
0100
0000
0000
0000
1000
0000
,
0001
0000
1000
0010
0000
0100
0010
0000
0100
0001
1000
0100
,
1000
0000
1000
0001
0000
0010
0001
0000
0100
0010
0000
1000
,
0100
0000
0010
0001
0000
1000
0010
0000
0100
0001
1000
0001
,
1000
0000
0000
0000
0100
0000
0000
0000
0010
0000
0000
0000
0001
0000
0000
0000
0000
0000
0000
0000
0000
0000
0000
0000
1000
0000
0000
0000
0000
0000
0000
0000
0000
0000
0000
0000
0010
0000
0000
0000
0000
0000
0000
0000
0000
0100
0000
0000
,
0000
0001
1001
0000
0100
0000
1010
0000
,
0100
0011
1000
0110
,
0001
2100
0001
0010
,
0001
0000
0100
0000
3100
0000
0010
0001
,
1000
0000
0001
0100
0010
1000
0001
0010
,
0100
1000
0100
1000
0001
0000
1000
0000
0010
0000
0100
0000
0010
0000
1000
0000
,
0100
0010
0100
0010
0001
0000
1000
0000
0010
0000
1000
0000
0001
0000
0010
0000
,
0100
0000
0010
0000
0001
0010
0001
0000
1000
0010
1000
0000
0001
0100
0001
0000
,
1000
0100
1000
0000
0001
0000
0100
0000
0010
0000
0100
0000
0001
0000
1000
0000
,
0001
0010
0001
0010
0100
0000
1000
0000
0010
0000
0100
0000
0010
0000
1000
0000
,
0001
0100
0001
0100
0010
0000
1000
0000
0100
0000
1000
0000
0010
0000
0100
0000
,
0001
1000
0001
1000
0010
0000
0100
0000
0001
0000
0010
0000
0100
0000
1000
0000
,
0010
0100
1000
0100
0010
1000
0001
0100
,
0010
1000
0001
1000
0010
0000
0100
0000
0001
0000
0010
0000
0100
0000
1000
0000
,
0001
0100
0010
0100
0001
0000
1000
0000
0100
0000
0010
0000
0001
0000
1000
0000
,
0001
1000
0010
0000
1000
0001
0010
0000
0100
1000
0001
0000
0100
0001
1000
0000
,
0100
0010
0001
0100
0010
0100
0001
1000
,
0100
0010
0001
0010
0100
0000
1000
0000
0010
0000
1000
0000
0001
0000
0010
0000
,
0100
1000
0001
1000
0100
0000
1000
0000
0010
0000
0100
0000
0001
0000
0010
0000
,
0001
1000
0010
1000
0001
0000
1000
0000
0010
0000
0100
0000
0010
0000
1000
0000
,
0100
0010
0001
0000
1000
0000
0010
0000
,
0100
0001
1000
0000
0001
0000
0010
0000
,
0001
1000
0010
0100
,
0001
0010
0100
0000
1000
0010
0100
0000
,
0010
1001
1000
0010
,
0100
0011
0100
1010
,
0110
0000
1001
0000
0100
0000
1000
0010
,
0100
0000
0001
0010
0100
1000
0010
0100
,
0001
0000
0000
1000
0100
1000
0001
0000
0000
1000
0010
1000
,
0001
0000
0000
0100
0010
0100
0001
0000
0000
0010
0100
1000
,
0100
0000
0000
1000
0010
0100
0001
0000
0000
1000
0100
0010
,
0001
0000
0000
0001
0100
0010
1000
0000
0000
0001
0010
0100
,
1000
0000
0000
0001
0000
0100
0010
0000
1000
0010
0000
1000
,
0100
0000
0010
0001
1000
0001
1000
0010
1000
0001
0010
0001
,
1000
0000
0000
0000
0010
0000
0000
0000
0100
0000
0000
0000
0001
0000
0000
0000
0000
0000
0100
0000
0000
0000
0000
0000
0010
0000
0000
0000
0000
0000
1000
0000
0000
0000
0000
0000
0001
0000
0000
0010
0000
0000
0001
0000
0000
0000
0000
0000
,
1000
0010
1000
0000
0001
0000
0010
0000
0100
0000
1000
0000
0001
0100
0001
0000
,
1000
0100
1000
0000
0001
0010
0001
0010
0001
0010
0001
0000
1000
0010
1000
0010
,
1000
0010
1000
0000
0001
1000
0001
1000
0001
1000
0001
1000
0001
1000
0001
1000
,
0001
1000
0001
1000
0001
0000
0000
0000
0000
0000
0000
0000
0000
0000
0000
0000
,
0000
1000
0000
0000
,
0000
0010
0000
0000
,
0000
0100
0000
0000
,
0000
0001
0000
0000
,
0000
1001
0000
0000
;

//---------------dance-single - ----------------
#NOTES:
     dance-single:
     :
     Medium:
     9:
     0.600,0.693,0.433,0.153,0.000:
0000
0000
0000
0000
,
0000
0000
0000
0000
,
0000
0000
0000
0000
,
0000
0000
0000
0000
,
0001
0000
1000
0000
,
0010
0000
0000
0000
0100
0000
0001
1000
,
0010
0000
0000
0000
0100
0000
0001
0010
,
0100
1000
0001
1000
0010
1000
0001
1000
,
0020
0100
1000
0130
,
0002
0010
1000
0013
,
0200
0001
0010
1300
,
0002
0100
2003
3200
,
0320
1000
0100
0031
,
2000
0100
0001
3010
,
0200
1000
0010
0301
,
2000
0010
3002
0100
,
1003
0100
1000
0001
0000
0000
0100
0010
,
0100
0001
0000
0000
0010
0100
1000
0010
,
0000
0000
0100
0001
0010
0100
1000
0010
,
0200
1000
0010
0301
,
1100
0001
0100
0010
,
1000
0000
0100
0000
1000
0000
0001
0100
,
0000
0001
0010
0001
1000
0000
0010
0000
,
0100
0000
0001
0000
1000
0000
0100
0010
,
0000
0001
0100
0001
1000
0000
0001
0000
,
0020
0000
0100
0000
0031
0000
0100
0010
,
2000
0100
0001
3010
,
1001
0100
0011
0100
,
1010
0100
1001
0110
,
0001
0100
0010
1000
0100
0000
1000
0010
,
0000
1000
0001
0010
0001
0000
1000
0000
,
0001
0100
0010
0000
1000
0000
0001
0010
,
0000
0001
1000
0010
1000
0000
0001
0000
,
1100
0000
0010
0100
0001
0000
1000
0000
,
0011
0000
0100
1000
0010
0000
0100
0000
,
1001
0100
0011
0100
,
1010
0001
0110
1001
,
0100
0000
0000
1000
,
0000
0010
0100
0001
,
1000
0100
0010
0001
,
1000
0000
0000
0001
,
0000
0000
0100
0000
,
0000
0010
1000
0001
,
1100
0010
0100
1001
,
0100
1000
0101
0010
,
1000
0011
0000
0100
,
1001
0100
0001
1100
,
0001
0100
1010
0100
,
0001
0110
1000
0101
,
1001
0000
0000
0000
,
0000
0000
0001
0100
,
0020
0000
1030
0001
,
0020
0000
0130
1000
,
0002
0000
0103
0010
,
2000
0000
3100
0010
,
0002
0000
1003
0010
,
0200
0000
1300
0100
,
0002
0000
0013
0100
,
2000
0000
3010
0100
,
0001
1000
0010
1000
,
0001
0000
0010
0000
0100
0000
1000
0001
,
0100
0010
1000
0001
,
0010
0000
0001
0000
1000
0000
0010
0100
,
0001
1000
0100
1000
,
0010
0000
0100
0000
0001
0000
0010
0100
,
1000
0000
0001
0000
1000
0010
1000
0001
,
1000
0000
0000
0000
,
0101
0010
1000
0001
,
0010
0100
1000
0010
,
0101
0010
1001
0100
,
0011
0100
1010
0001
,
1000
0010
0100
0001
,
1000
0100
0010
0100
1000
0000
0001
0000
,
0100
0000
0010
0000
1000
0000
0001
0010
,
0100
0010
0001
0000
1010
0000
0100
0000
,
0001
1000
0001
0010
,
0100
1001
0001
0100
,
0010
1100
0001
1010
,
0001
0000
0110
0000
1000
0000
0100
0010
,
0001
0100
0010
0000
1000
0001
0010
0000
,
0100
1000
0001
0000
0100
0000
1010
0000
,
1001
0201
0010
1000
,
0310
1000
0100
0010
,
0001
0000
1000
0100
0010
0001
1000
0010
,
1000
0001
0100
0010
0100
0001
0010
0100
,
1000
0001
1000
0010
1000
0001
1000
0100
,
0010
1001
1010
1001
,
0011
0000
0100
1000
0010
0100
1000
0100
,
0010
1000
0001
0010
0100
0001
0100
1000
,
0010
0100
1000
0100
0010
1000
0001
0010
,
0100
1000
0010
0100
0010
1000
0001
0010
,
0100
1000
0010
0100
0001
1000
0010
1000
,
0001
0100
1000
0100
0001
0010
1000
0010
,
0001
1000
0001
0100
0010
1000
0001
1000
,
0010
0101
1010
1100
,
0011
0000
1000
0100
0001
0100
0010
1000
,
0010
0001
1000
0010
0100
1000
0100
0001
,
0010
0001
1000
0100
0001
0100
1000
0010
,
1000
0001
0010
0100
0001
0100
1000
0001
,
0100
0010
1000
0000
0001
0000
0100
0000
,
0010
1000
0001
0000
0010
0000
0100
0000
,
1000
0010
0100
0000
1000
0000
0100
0000
,
0001
0010
0100
0000
1000
0010
0100
0000
,
0001
1000
0010
0100
,
1000
0100
0001
1100
,
0001
1010
0001
0100
,
0010
1001
0100
1010
,
0001
1100
0010
0101
,
0010
0110
1000
0110
,
0001
1010
0100
0011
,
0100
1001
0010
1001
,
1000
0101
1100
0011
,
1010
0011
0101
1010
,
1001
0000
1000
0100
0010
0001
0100
0010
,
1000
0001
0010
0100
1000
0010
0100
0001
,
1000
0001
1000
0100
0001
0100
1000
0010
,
0001
0010
1000
0100
0001
0100
1000
0010
,
0001
0010
1000
0000
0000
0000
0000
0000
,
0000
0001
0000
0000
,
0000
0100
0000
0000
,
0000
0010
0000
0000
,
0000
1000
0000
0000
,
0000
1001
0000
0000
;

//---------------dance-single - ----------------
#NOTES:
     dance-single:
     :
     Easy:
     6:
     0.344,0.489,0.187,0.173,0.000: // measure 1
0000
0000
0000
0000
,  // measure 2
0000
0000
0000
0000
,  // measure 3
0000
0000
0000
0000
,  // measure 4
0000
0000
0000
0000
,  // measure 5
1000
0000
0001
0000
,  // measure 6
1000
0000
0010
0000
,  // measure 7
0100
0000
0001
0000
,  // measure 8
1000
0000
0000
0000
,  // measure 9
0002
0000
0000
0000
,  // measure 10
0203
0000
0000
0000
,  // measure 11
0320
0000
0000
0000
,  // measure 12
2030
0000
3200
0000
,  // measure 13
0320
0000
0000
0000
,  // measure 14
0032
0000
0000
0000
,  // measure 15
2003
0000
0000
0000
,  // measure 16
3020
0000
0130
0000
,  // measure 17
1001
0000
0000
0110
,  // measure 18
0000
0000
0011
0000
,  // measure 19
0000
1100
0000
0000
,  // measure 20
0001
0000
0000
0000
,  // measure 21
1000
0000
0010
0000
,  // measure 22
1000
0000
0100
0000
,  // measure 23
0010
0001
1000
0000
,  // measure 24
0001
0000
0100
0000
,  // measure 25
0010
1000
0001
1000
,  // measure 26
0010
0000
0100
0001
,  // measure 27
1000
0000
0001
0000
,  // measure 28
1001
0000
0110
0000
,  // measure 29
1100
0000
0011
0000
,  // measure 30
1000
0010
0100
0000
,  // measure 31
0001
0010
0100
0000
,  // measure 32
1000
0001
0100
0000
,  // measure 33
0001
1000
0100
0010
,  // measure 34
0001
0000
1000
0010
,  // measure 35
1000
0000
0001
0000
,  // measure 36
1100
0000
0011
0000
,  // measure 37
1010
0000
0101
0000
,  // measure 38
1000
0000
0000
0001
,  // measure 39
0000
1000
0010
0100
,  // measure 40
0001
0010
0100
1000
,  // measure 41
0010
0000
0000
0100
,  // measure 42
0000
0000
0001
0000
,  // measure 43
0000
0010
0100
1000
,  // measure 44
0010
0100
0100
0010
,  // measure 45
1000
1000
0001
0010
,  // measure 46
0100
1000
0000
0001
,  // measure 47
0100
0010
1000
0100
,  // measure 48
1000
0010
0100
0001
,  // measure 49
0010
0001
1000
0010
,  // measure 50
0100
0000
0000
0000
,  // measure 51
0000
0000
0001
0000
,  // measure 52
0010
0000
0000
0000
,  // measure 53
0100
0000
0000
1000
,  // measure 54
0002
0000
0000
0000
,  // measure 55
2003
0000
0000
3010
,  // measure 56
0200
0000
0000
0000
,  // measure 57
0302
0000
0000
0013
,  // measure 58
0200
0000
0000
0300
,  // measure 59
2000
0000
3010
0100
,  // measure 60
0002
0000
0000
0000
,  // measure 61
2003
0000
0000
3010
,  // measure 62
0200
0000
0000
0000
,  // measure 63
0302
0000
0000
0013
,  // measure 64
0200
0000
0000
0000
,  // measure 65
2300
0000
0000
3010
,  // measure 66
0200
0000
0000
0000
,  // measure 67
0301
0000
0000
0000
,  // measure 68
1000
0010
1000
0001
,  // measure 69
1000
0100
0010
0001
,  // measure 70
1000
0010
1000
0001
,  // measure 71
0001
0010
0100
1000
,  // measure 72
0010
0100
0001
0100
,  // measure 73
0010
0010
0010
1000
,  // measure 74
0100
1000
0010
0100
,  // measure 75
0001
0001
0010
0100
,  // measure 76
1000
0001
0100
0010
,  // measure 77
1000
0100
1000
0010
,  // measure 78
0100
0001
0010
0100
,  // measure 79
1000
0001
0000
1000
,  // measure 80
0000
0010
0000
0100
,  // measure 81
0001
1000
0000
0001
,  // measure 82
1000
0020
0000
0000
,  // measure 83
0000
0230
0000
0301
,  // measure 84
0000
1000
0100
0010
,  // measure 85
0001
1000
0010
0100
,  // measure 86
0010
1000
0100
0010
,  // measure 87
0001
1000
0001
1001
,  // measure 88
1001
1001
1000
0010
,  // measure 89
0100
0010
0010
1000
,  // measure 90
0100
0010
0001
0100
,  // measure 91
0010
1000
0001
0010
,  // measure 92
0100
1000
0010
1000
,  // measure 93
0001
0010
0100
1000
,  // measure 94
0010
0100
0001
1000
,  // measure 95
0100
0010
0100
0110
,  // measure 96
0110
0110
0010
0100
,  // measure 97
1000
0010
0100
0010
,  // measure 98
1000
0100
0001
0100
,  // measure 99
1000
0001
0100
0010
,  // measure 100
1000
0001
0000
0000
,  // measure 101
1000
0100
0000
1000
,  // measure 102
0000
0010
0000
0100
,  // measure 103
0001
0010
0000
0100
,  // measure 104
1000
0010
0000
0100
,  // measure 105
0001
0010
0001
1000
,  // measure 106
0010
0200
0000
0000
,  // measure 107
0000
0302
0000
0000
,  // measure 108
0003
1001
0000
0110
,  // measure 109
0000
1100
0000
0101
,  // measure 110
0000
1010
0000
0011
,  // measure 111
0000
1001
0000
0110
,  // measure 112
0000
1000
0010
0100
,  // measure 113
0001
0010
0001
1000
,  // measure 114
0010
0100
0100
0001
,  // measure 115
0001
0010
0010
0100
,  // measure 116
0100
1000
0010
0100
,  // measure 117
0001
1000
0001
1000
,  // measure 118
0001
1001
0000
0000
,  // measure 119
0000
1000
0000
0000
,  // measure 120
0000
0100
0000
0000
,  // measure 121
0000
0010
0000
0000
,  // measure 122
0000
0001
0000
0000
,  // measure 123
0000
1001
0000
0000
;

//---------------dance-single - ----------------
#NOTES:
     dance-single:
     :
     Beginner:
     3:
     0.193,0.326,0.080,0.053,0.000: // measure 1
0000
0000
0000
0000
,  // measure 2
0000
0000
0000
0000
,  // measure 3
0000
0000
0000
0000
,  // measure 4
0000
0000
0000
0000
,  // measure 5
1000
0000
0000
0000
,  // measure 6
0001
0000
0000
0000
,  // measure 7
1000
0000
0000
0000
,  // measure 8
0010
0000
0000
0000
,  // measure 9
2000
0000
0000
0000
,  // measure 10
3200
0000
0000
0000
,  // measure 11
0320
0000
0000
0000
,  // measure 12
0032
0000
0000
0000
,  // measure 13
2003
0000
0000
0000
,  // measure 14
3020
0000
0000
0000
,  // measure 15
0230
0000
0000
0000
,  // measure 16
0302
0000
0000
0000
,  // measure 17
1003
0000
0000
0001
,  // measure 18
0000
0000
1000
0000
,  // measure 19
0000
0010
0000
0000
,  // measure 20
0100
0000
0000
0000
,  // measure 21
0001
0000
0000
0000
,  // measure 22
1000
0000
0000
0000
,  // measure 23
0010
0000
0000
0000
,  // measure 24
1000
0000
0000
0000
,  // measure 25
0001
0000
0000
0000
,  // measure 26
1000
0000
0000
0000
,  // measure 27
0001
0000
0000
0000
,  // measure 28
1000
0000
0010
0000
,  // measure 29
1000
0000
0001
0000
,  // measure 30
1000
0000
0000
0000
,  // measure 31
0001
0000
0000
0000
,  // measure 32
0100
0000
0000
0000
,  // measure 33
0010
0000
0000
0000
,  // measure 34
1000
0000
0000
0000
,  // measure 35
0001
0000
0000
0000
,  // measure 36
0010
0000
0100
0000
,  // measure 37
1000
0000
0001
0000
,  // measure 38
1000
0000
0000
0000
,  // measure 39
0000
0000
0000
0000
,  // measure 40
0010
0000
0000
0000
,  // measure 41
0100
0000
0000
0000
,  // measure 42
0000
0000
0001
0000
,  // measure 43
0000
0000
0000
0000
,  // measure 44
1000
0000
0000
0010
,  // measure 45
0000
0000
0100
0000
,  // measure 46
0000
0001
0000
0000
,  // measure 47
0010
0000
0000
0100
,  // measure 48
0000
0000
1000
0000
,  // measure 49
0000
0001
0000
0000
,  // measure 50
1000
0000
0000
0000
,  // measure 51
0000
0000
0010
0000
,  // measure 52
0100
0000
0000
0000
,  // measure 53
0001
0000
0000
0000
,  // measure 54
0010
0000
0000
0000
,  // measure 55
0100
0000
0000
0000
,  // measure 56
1000
0000
0000
0000
,  // measure 57
0001
0000
0000
0000
,  // measure 58
1000
0000
0000
0000
,  // measure 59
0010
0000
0100
0000
,  // measure 60
0001
0000
0000
0000
,  // measure 61
0010
0000
0000
0000
,  // measure 62
0001
0000
0000
0000
,  // measure 63
1000
0000
0000
0000
,  // measure 64
0010
0000
0000
0000
,  // measure 65
0100
0000
0000
0000
,  // measure 66
0001
0000
0000
0000
,  // measure 67
1000
0000
0000
0000
,  // measure 68
0001
0000
0100
0000
,  // measure 69
0010
0000
1000
0000
,  // measure 70
0001
0000
0010
0000
,  // measure 71
0100
0000
1000
0000
,  // measure 72
0001
0000
1000
0000
,  // measure 73
0010
0010
0010
0000
,  // measure 74
0000
1000
0000
0001
,  // measure 75
0001
0000
1000
0000
,  // measure 76
0001
0000
1000
0000
,  // measure 77
0010
0010
0000
1000
,  // measure 78
0000
0010
0000
0100
,  // measure 79
0100
0100
0000
0001
,  // measure 80
0000
1000
0000
0001
,  // measure 81
0000
1000
0000
0010
,  // measure 82
0000
0100
0000
0000
,  // measure 83
0000
0001
0000
0000
,  // measure 84
0000
0010
0000
0100
,  // measure 85
0000
1000
0000
0010
,  // measure 86
0000
0100
0000
0001
,  // measure 87
0000
1000
1000
1000
,  // measure 88
1000
1000
0000
0001
,  // measure 89
0000
0100
0000
0010
,  // measure 90
0000
1000
0000
0100
,  // measure 91
0000
0010
0000
0001
,  // measure 92
0000
0100
0000
0010
,  // measure 93
0000
1000
0000
0001
,  // measure 94
0000
1001
0000
0001
,  // measure 95
0000
1000
1000
1000
,  // measure 96
1000
0010
0000
0100
,  // measure 97
0000
0010
0000
0100
,  // measure 98
0000
0110
0000
0001
,  // measure 99
0000
1000
0000
0001
,  // measure 100
0000
1000
0000
0000
,  // measure 101
0000
0010
0000
0100
,  // measure 102
0000
0001
0000
0010
,  // measure 103
0000
0100
0000
1000
,  // measure 104
0000
0010
0000
0100
,  // measure 105
0000
0001
0000
1000
,  // measure 106
1000
1000
0000
0000
,  // measure 107
0000
0001
0000
1000
,  // measure 108
0000
1001
0000
1001
,  // measure 109
0000
0110
0000
0110
,  // measure 110
0000
1001
0000
1001
,  // measure 111
0000
0110
0000
0110
,  // measure 112
0000
0001
0000
0010
,  // measure 113
0000
0100
0000
1000
,  // measure 114
0000
0001
0001
0001
,  // measure 115
0000
1000
1000
1000
,  // measure 116
0000
0010
0010
0010
,  // measure 117
0000
0100
0100
0100
,  // measure 118
0000
1001
0000
0000
,  // measure 119
0000
0001
0000
0000
,  // measure 120
0000
0100
0000
0000
,  // measure 121
0000
0001
0000
0000
,  // measure 122
0000
1000
0000
0000
,  // measure 123
0000
1001
0000
0000
;
