#TITLE:走れ! スクーター!;
#SUBTITLE:;
#ARTIST:レトロ本舗;
#TITLETRANSLIT:Hashire! Scooter!;
#SUBTITLETRANSLIT:;
#ARTISTTRANSLIT:Retro Honpo;
#CREDIT:Xythar;
#BANNER:Hashire! Scooter!.png;
#BACKGROUND:Hashire! Scooter!-bg.png;
#LYRICSPATH:;
#CDTITLE:popn.png;
#MUSIC:Hashire! Scooter!.mp3;
#OFFSET:-3.025;
#SAMPLESTART:14.450;
#SAMPLELENGTH:9.220;
#SELECTABLE:YES;
#BPMS:0.000=208.000;
#STOPS:;
#BGCHANGES:;

//---------------dance-single - ----------------
#NOTES:
     dance-single:
     :
     Hard:
     8:
     0.624,0.625,0.293,0.156,0.000:
0000
0000
0000
0000
,
0000
0000
0000
0000
1000
0001
1000
0001
,
0000
0000
1000
0000
0000
0001
0100
0001
,
0100
0001
0100
0000
0010
1000
0010
1000
,
0000
0000
0001
0000
0000
1000
0100
1000
,
0100
1000
0100
0000
0010
0001
0010
0001
,
0000
0000
1000
0000
0000
0010
0100
0010
,
0100
0010
0100
0000
0001
1000
0001
1000
,
0000
0000
0100
0000
0000
0100
0001
0000
,
0010
0100
1000
0001
,
2000
0000
0001
0000
3001
0100
0001
0000
,
0010
0000
0100
1000
0000
1000
0001
0000
,
0200
0000
0010
0000
0310
1000
0010
0000
,
0100
0001
0100
0000
0010
0000
1000
0000
,
0002
0010
0010
1000
,
1003
0000
0100
0010
0000
0010
0100
0000
,
1000
0010
0100
0001
,
1100
0010
0001
0100
,
0020
0000
1000
0000
1030
0001
1000
0000
,
0100
0000
0010
0001
0000
0001
1000
0000
,
0020
0000
0100
0000
0130
0001
0100
0000
,
0010
1000
0010
0000
1000
0000
0001
0000
,
0020
0100
0100
0001
,
0031
0000
1000
0001
0000
0001
1000
0000
,
0010
0100
0001
1000
,
0110
0001
0100
0010
,
1100
1100
0010
0001
,
1000
0010
0000
0100
0000
0001
1000
0000
,
0110
0110
0001
0100
,
0010
1000
0000
0001
0000
1000
0100
0000
,
0011
0011
0100
1000
,
0001
1000
0000
0010
0000
0100
0001
0000
,
1100
1100
0010
0001
,
1000
0010
0000
0101
0000
0000
0000
0000
,
0001
0010
0100
0010
,
1001
0000
0001
0100
0000
0010
1000
0010
,
1000
0001
0100
0001
,
0110
0000
1000
0100
0000
0010
0001
0010
,
0001
1000
0100
1000
,
0010
0000
0100
0001
0000
0001
1000
0000
,
0110
0000
0001
0000
1000
0100
1000
0000
,
0001
0000
0010
0100
0000
0100
1000
0000
,
0010
0100
0001
1000
,
0110
0000
0001
0100
0000
0010
1000
0010
,
1000
0100
1000
0010
,
0101
0000
0010
1000
0000
0100
1000
0100
,
1000
0001
0100
0001
,
0010
0000
0100
1000
0000
1000
0001
0000
,
1100
0000
0010
0000
0100
0001
0100
0000
,
0010
1000
0000
0001
0000
1000
0100
1000
,
0200
0010
0310
0001
,
0200
0010
0310
1000
,
0100
1000
0010
0100
,
0001
0000
1000
0100
0000
0100
1000
0000
,
0010
0000
0100
0001
0000
0001
1000
0000
,
0100
0000
0010
0001
0000
0001
0100
0000
,
0010
0100
0010
0100
0001
0100
0001
0000
,
1000
0100
1000
0100
0010
0100
0010
0000
,
0002
0100
0103
0010
,
2000
0100
3100
0010
,
0001
0000
1000
0100
1000
0000
0001
0100
,
0001
0000
1000
0100
0000
0010
0001
0000
,
1000
0000
0010
0100
0000
0001
1000
0000
,
0100
0000
0010
0001
0000
1000
0100
0000
,
1000
0010
1000
0000
0001
0010
0001
0010
,
0000
0001
1000
0001
1000
0001
1000
0001
,
2000
0000
0010
0000
3010
0100
0001
0000
,
0010
0000
0100
1000
0000
1000
0001
0000
,
0200
0000
0010
0000
0310
1000
0001
0000
,
1000
0000
0100
0000
1000
0001
1000
0000
,
0010
0100
0001
0010
,
0100
0000
1000
0001
0000
0001
1000
0000
,
0010
0100
0001
1100
,
0001
0100
0010
1001
,
0200
0000
1000
0000
1300
0010
0100
0000
,
0001
0000
0010
0100
0000
0100
1000
0000
,
0001
0100
0001
1000
,
0200
0010
0310
0001
,
0200
0010
0310
1000
,
0001
0000
1000
0010
0000
0100
0001
0000
,
1000
0100
1000
0001
,
0110
1000
0110
0001
,
1100
0000
1100
0000
0001
1000
0001
0000
,
0100
0010
0000
1000
0000
0100
0010
0000
,
0101
0000
0101
0000
0010
1000
0010
0000
,
1000
0100
0000
1000
0000
0010
0100
0000
,
1001
0000
1001
0000
0100
0010
0100
0000
,
0010
0001
0000
1000
0000
0001
0100
0000
,
1010
0000
1010
0000
0001
1000
0001
0000
,
0011
1000
0101
0010
,
2002
0000
0003
0000
,
3100
0000
0000
0000
;

//---------------dance-single - ----------------
#NOTES:
     dance-single:
     :
     Medium:
     6:
     0.509,0.542,0.357,0.156,0.000:
0000
0000
0000
0000
,
0000
0000
0000
0000
1000
0001
0000
1001
,
0000
0100
0000
0010
,
0001
0000
0100
0000
0010
0100
0000
0110
,
0000
0001
0000
1000
,
0100
0000
1000
0000
0001
0100
0000
0101
,
0000
0010
0000
1000
,
0010
0000
1000
0000
0001
1000
0000
1100
,
0000
0010
0000
0001
,
1000
0100
1000
0001
,
2000
0010
0010
3010
,
0200
0000
0000
0301
0000
0000
0010
0000
,
0100
1000
1000
0001
,
0001
1000
0010
0100
,
0002
1000
1000
1000
,
0100
0000
0000
0103
0000
0000
0010
0000
,
1000
0100
0100
0010
,
0010
0001
1000
0001
,
2000
0010
0010
3010
,
0100
0000
0001
1000
0000
0000
0100
0000
,
0010
0100
0100
1000
,
0010
1000
0001
0010
,
0200
1000
1000
1300
,
0001
0000
1000
0001
0000
0000
1000
0000
,
0010
0100
0001
1000
,
1001
0001
0010
0100
,
0110
0110
0100
1000
,
0001
1000
0000
0010
0000
0000
0010
0000
,
0101
0101
1000
1000
,
0100
0010
0000
0001
0000
0000
0001
0000
,
1100
1100
0001
0001
,
1000
0001
0000
0100
0000
0000
0010
0000
,
1100
1100
0010
0010
,
0100
0001
0000
1000
0000
0000
0000
0000
,
0100
1000
0001
1000
,
0010
0000
0000
0101
0000
0000
0010
0000
,
1000
0100
0100
0010
,
0001
0000
0000
1100
0000
0000
0001
0000
,
0100
0000
0100
0000
,
0100
0000
0000
0100
0000
0000
0001
0000
,
1001
0000
0100
0000
0000
1000
0000
0000
,
0001
0000
1000
0001
0000
0000
1000
0000
,
0010
0100
0010
0100
,
0101
0000
0000
1001
0000
0000
0100
0000
,
1000
0001
1000
0010
,
1010
0000
0000
0101
0000
0000
0010
0000
,
1000
0000
1000
0000
,
1000
0000
0000
1000
0000
0000
0001
0000
,
1001
0000
0100
0000
0000
0010
0000
0000
,
0001
0000
1000
0001
0000
0000
1000
0000
,
2000
0010
3010
0100
,
0002
1000
1003
0100
,
0020
0100
0130
1000
,
0001
0000
0000
1000
0000
0001
1000
0000
,
0010
0000
0100
0001
,
1000
0100
1000
0001
,
0100
0110
0010
0110
,
0001
1001
1000
1001
,
0002
1000
1003
0100
,
0020
0100
0130
1000
,
0020
0100
0130
0001
,
1000
0000
0000
0100
0000
1000
0001
0000
,
0100
0010
1000
0010
,
0100
0000
0001
1000
,
0100
0100
0100
0100
,
0000
1000
0100
0000
1000
0000
0100
0000
,
2000
0010
0010
3010
,
0100
0000
0001
1000
0000
0000
0100
0000
,
0100
0010
0001
0100
,
0110
0010
1000
0001
,
2000
0100
0100
0100
,
0001
0000
0000
3001
0000
0000
1000
0000
,
0010
0100
0001
0100
,
0101
0001
1000
0100
,
2000
0001
0001
3001
,
0100
0000
0010
0100
0000
0000
0001
0000
,
1000
0100
1000
0001
,
2000
0010
3010
0100
,
0002
1000
1000
1000
,
1003
0000
0000
1001
0000
0000
0100
0000
,
0010
0001
0001
1000
,
1100
0001
0100
0001
,
1001
1001
0001
0001
,
0100
0010
0000
1000
0000
0000
1000
0000
,
1100
1100
0010
0010
,
0001
1000
0000
0010
0000
0000
0010
0000
,
0101
0101
1000
1000
,
0100
0010
0000
0001
0000
0000
0001
0000
,
1100
1100
1001
1001
,
0001
0010
0100
1000
,
0002
0000
0000
0000
,
1003
0000
0000
0000
;

//---------------dance-single - ----------------
#NOTES:
     dance-single:
     :
     Easy:
     4:
     0.372,0.375,0.082,0.183,0.000: // measure 1
0000
0000
0000
0000
,  // measure 2
0000
0000
0000
0000
1000
0000
0000
0001
,  // measure 3
0000
1000
0000
0001
,  // measure 4
0001
0000
0000
0000
0010
0000
0000
0100
,  // measure 5
0000
0010
0000
0100
,  // measure 6
0100
0000
0000
0000
1000
0000
0000
0010
,  // measure 7
0000
0100
0000
0001
,  // measure 8
0001
0000
0000
0000
1000
0000
0000
0100
,  // measure 9
0000
1000
0000
0001
,  // measure 10
0001
0001
0001
1000
,  // measure 11
0002
0000
0100
0103
,  // measure 12
0010
0000
0000
1000
0000
0000
0000
0000
,  // measure 13
0200
0000
1300
0001
,  // measure 14
0200
0000
0310
1000
,  // measure 15
0001
0000
0010
0100
,  // measure 16
1000
0000
0000
0001
0000
0000
1000
0000
,  // measure 17
0100
0000
1000
0001
,  // measure 18
1000
0000
0010
0000
,  // measure 19
0200
0000
0001
0301
,  // measure 20
1000
0000
0000
0100
0000
0000
0000
0000
,  // measure 21
2000
0000
3010
0100
,  // measure 22
0002
0000
1003
0100
,  // measure 23
2000
0000
3001
0001
,  // measure 24
0001
0000
0000
1000
0000
0000
0001
0000
,  // measure 25
1000
0000
0100
1000
,  // measure 26
0001
0000
1000
0000
,  // measure 27
1001
0001
1000
0000
,  // measure 28
0100
0000
0000
1000
0000
0000
0001
0000
,  // measure 29
0110
0100
0010
0000
,  // measure 30
1000
0000
0000
0100
0000
0000
1000
0000
,  // measure 31
1100
0100
1000
0000
,  // measure 32
0010
0000
0000
0100
0000
0000
0001
0000
,  // measure 33
1001
1000
0001
0000
,  // measure 34
0100
0000
0000
1001
0000
0000
0000
0000
,  // measure 35
0100
0000
1000
0000
,  // measure 36
0001
0000
0000
0100
0000
0000
0001
0000
,  // measure 37
1000
0000
0100
0000
,  // measure 38
0010
0000
0000
0001
0000
0000
0100
0000
,  // measure 39
0010
0000
1000
0000
,  // measure 40
0001
0000
0000
1000
0000
0000
0001
0000
,  // measure 41
0001
0000
0100
0000
0000
0010
0000
0000
,  // measure 42
0100
0000
0000
0100
0000
0000
0001
0000
,  // measure 43
1000
0100
1000
0000
,  // measure 44
0001
0000
0000
1000
0000
0000
0001
0000
,  // measure 45
0100
0010
0100
0000
,  // measure 46
0001
0000
0000
1000
0000
0000
0001
0000
,  // measure 47
1000
0000
0100
0000
,  // measure 48
1000
0000
0000
0010
0000
0000
0100
0000
,  // measure 49
0001
0000
0100
0000
0000
0100
0000
0000
,  // measure 50
0010
0000
0000
0010
0000
0000
1000
0000
,  // measure 51
0002
0000
0000
1003
,  // measure 52
0200
0000
0000
1300
,  // measure 53
0020
0000
0000
0130
,  // measure 54
0001
0000
0000
1000
0000
0000
0001
0000
,  // measure 55
1000
0000
0010
0100
,  // measure 56
0010
0000
0100
0001
,  // measure 57
0100
0100
0100
0100
,  // measure 58
0010
0010
0010
0010
,  // measure 59
2000
0000
3100
1000
,  // measure 60
0200
0000
1300
0001
,  // measure 61
2000
0000
3010
0100
,  // measure 62
0010
0000
0100
0001
,  // measure 63
1000
0000
0100
0000
,  // measure 64
1000
0000
0010
0000
,  // measure 65
0100
0000
0100
0100
,  // measure 66
0000
0001
0001
0001
,  // measure 67
2000
0000
0100
3100
,  // measure 68
1000
0000
0000
0010
0000
0000
0100
0000
,  // measure 69
0002
0000
1000
1003
,  // measure 70
0200
0000
0010
0310
,  // measure 71
0001
1000
0001
1000
,  // measure 72
0001
0000
0000
0001
0000
0000
1000
0000
,  // measure 73
0100
0000
1000
0000
,  // measure 74
0010
0100
0010
0000
,  // measure 75
0200
0000
0001
0301
,  // measure 76
1000
0000
0000
0100
0000
0000
1000
0000
,  // measure 77
0002
0000
0100
0103
,  // measure 78
0020
0000
1000
1030
,  // measure 79
0100
0010
0100
0010
,  // measure 80
0100
0000
0000
0100
0000
0000
1000
0000
,  // measure 81
0001
0000
1000
0001
,  // measure 82
1000
0000
0001
0001
,  // measure 83
1001
1000
0001
0000
,  // measure 84
0100
0000
0000
0010
0000
0000
0100
0000
,  // measure 85
0110
0010
0100
0000
,  // measure 86
0001
0000
0000
0001
0000
0000
1000
0000
,  // measure 87
1100
0100
1000
0000
,  // measure 88
0001
0000
0000
0001
0000
0000
0100
0000
,  // measure 89
0101
0001
0100
0000
,  // measure 90
0001
1000
0001
1000
,  // measure 91
0002
0000
0000
0000
,  // measure 92
1003
0000
0000
0000
;

//---------------dance-single - ----------------
#NOTES:
     dance-single:
     :
     Beginner:
     2:
     0.203,0.292,0.156,0.073,0.000: // measure 1
0000
0000
0000
0000
,  // measure 2
0000
0000
1001
0000
,  // measure 3
0000
0000
0000
0000
,  // measure 4
0000
0000
1001
0000
,  // measure 5
0000
0000
0000
0000
,  // measure 6
0000
0000
1001
0000
,  // measure 7
0000
0000
0000
0000
,  // measure 8
0000
0000
1001
0000
,  // measure 9
0000
0000
0001
0000
,  // measure 10
0001
0000
0001
0000
,  // measure 11
1000
0000
0000
0000
,  // measure 12
0100
0000
0000
0000
,  // measure 13
1000
0000
0010
0000
,  // measure 14
0100
0000
0010
0000
,  // measure 15
1000
0000
0000
0000
,  // measure 16
0100
0000
0000
0000
,  // measure 17
0010
0000
0001
0000
,  // measure 18
0100
0000
0010
0000
,  // measure 19
0100
0000
0000
0000
,  // measure 20
0100
0000
0000
0000
,  // measure 21
0001
0000
0010
0000
,  // measure 22
0100
0000
1000
0000
,  // measure 23
0010
0000
0000
0000
,  // measure 24
0010
0000
0000
0000
,  // measure 25
1000
0000
0100
0000
,  // measure 26
1000
0000
0001
0000
,  // measure 27
1001
0000
0001
0000
,  // measure 28
1000
0000
0100
0000
,  // measure 29
0110
0000
0010
0000
,  // measure 30
0001
0000
0100
0000
,  // measure 31
0110
0000
0100
0000
,  // measure 32
0001
0000
1000
0000
,  // measure 33
1001
0000
1001
0000
,  // measure 34
1000
0000
0000
0000
,  // measure 35
0001
0000
0100
0000
,  // measure 36
0010
0000
0000
0000
,  // measure 37
1000
0000
0100
0000
,  // measure 38
0010
0000
0000
0000
,  // measure 39
0001
0000
1000
0000
,  // measure 40
0001
0000
1000
0000
,  // measure 41
0100
0000
0000
0000
,  // measure 42
1000
0000
0000
0000
,  // measure 43
0010
0000
0100
0000
,  // measure 44
0010
0000
1000
0000
,  // measure 45
0001
0000
0010
0000
,  // measure 46
0100
0000
1000
0000
,  // measure 47
0001
0000
0000
0000
,  // measure 48
1000
0000
0000
0000
,  // measure 49
0100
0000
1000
0000
,  // measure 50
0010
0000
0100
0000
,  // measure 51
0002
0000
0000
0000
,  // measure 52
2003
0000
0000
0000
,  // measure 53
3200
0000
0000
0000
,  // measure 54
0320
0000
0000
0000
,  // measure 55
0031
0000
0010
0000
,  // measure 56
0100
0000
1000
0000
,  // measure 57
0010
0000
0010
0000
,  // measure 58
0100
0000
0100
0000
,  // measure 59
0002
0000
0000
0000
,  // measure 60
2003
0000
0000
0000
,  // measure 61
3200
0000
0000
0000
,  // measure 62
0320
0000
0000
0000
,  // measure 63
0031
0000
0100
0000
,  // measure 64
0010
0000
1000
0000
,  // measure 65
0100
0000
0100
0000
,  // measure 66
1000
0000
0000
0000
,  // measure 67
0001
0000
0000
0000
,  // measure 68
0010
0000
0000
0000
,  // measure 69
0100
0000
1000
0000
,  // measure 70
0001
0000
1000
0000
,  // measure 71
0010
0000
0000
0000
,  // measure 72
0010
0000
0000
0000
,  // measure 73
0100
0000
0001
0000
,  // measure 74
0100
0000
0001
0000
,  // measure 75
1000
0000
0000
0000
,  // measure 76
1000
0000
0000
0000
,  // measure 77
0100
0000
0010
0000
,  // measure 78
0001
0000
0100
0000
,  // measure 79
0010
0000
0000
0000
,  // measure 80
0010
0000
0000
0000
,  // measure 81
1000
0000
0100
0000
,  // measure 82
1000
0000
0010
0000
,  // measure 83
1001
0000
0000
0000
,  // measure 84
1001
0000
0000
0000
,  // measure 85
0110
0000
0000
0000
,  // measure 86
0110
0000
0000
0000
,  // measure 87
0100
0000
0000
0000
,  // measure 88
1001
0000
0000
0000
,  // measure 89
0010
0000
0000
0000
,  // measure 90
1001
0000
1001
0000
,  // measure 91
1001
0000
0000
0000
,  // measure 92
1000
0000
0000
0000
;
