#TITLE:Harmony and Lovely;
#SUBTITLE:;
#ARTIST:Ryu☆;
#TITLETRANSLIT:;
#SUBTITLETRANSLIT:;
#ARTISTTRANSLIT:Ryu*;
#CREDIT:Steps and graphics by Xythar (sources - official video, sciucaness on sxc.hu);
#BANNER:Harmony and Lovely.png;
#BACKGROUND:Harmony and Lovely-bg.png;
#LYRICSPATH:;
#CDTITLE:cdtitle.png;
#MUSIC:Harmony and Lovely.mp3;
#OFFSET:-0.342;
#SAMPLESTART:96.320;
#SAMPLELENGTH:14.220;
#SELECTABLE:YES;
#BPMS:0.000=134.965;
#STOPS:116.000=1.333
;
#BGCHANGES:-0.173=Harmony and Lovely.avi=1.000=1=1=0,
245.000=Harmony and Lovely-bg.png=1.000=0=0=1,
99999=-nosongbg-=1.000=0=0=0 // don't automatically add -songbackground-
;

//---------------dance-single - ----------------
#NOTES:
     dance-single:
     :
     Hard:
     7:
     0.369,0.378,0.000,0.263,0.091: // measure 1
0000
0000
0000
0000
,  // measure 2
0000
0000
0000
0000
,  // measure 3
0000
0000
0000
0000
,  // measure 4
0000
0000
0000
0000
,  // measure 5
0000
0000
0000
0000
,  // measure 6
1000
0000
0000
0001
0000
0000
0000
0000
0000
0000
0000
0000
0000
0000
0010
0000
,  // measure 7
0100
0000
0000
0010
0000
0000
0000
0000
0000
0000
0000
0000
0000
0000
0000
0000
,  // measure 8
1000
0100
0010
0001
,  // measure 9
0010
0100
1000
0001
,  // measure 10
1000
0000
0000
0100
0000
0000
0010
0000
0100
0000
0010
0000
0100
0000
0010
0000
,  // measure 11
0001
0000
0000
0100
0000
0000
0010
0000
0000
0000
1000
0000
0100
0000
1000
0000
,  // measure 12
0001
0000
0000
0100
0000
0000
0010
0000
1000
0000
0010
0000
1000
0000
0010
0000
,  // measure 13
1000
0000
0000
0001
0000
0000
0010
0000
0000
0000
0100
0000
0010
0000
0001
0000
,  // measure 14
1000
0100
0010
0100
1000
0001
0100
0001
,  // measure 15
1000
0010
0100
0010
1000
0001
0010
0100
,  // measure 16
1000
0001
0100
0010
,  // measure 17
1000
0001
0010
0100
,  // measure 18
1000
0000
0000
0100
0000
0000
1000
0000
0001
0000
1000
0000
0001
0000
1000
0000
,  // measure 19
0001
0000
0000
0100
0000
0000
0010
0000
0000
0000
1000
0000
0100
0000
0010
0000
,  // measure 20
0100
0000
0000
0010
0000
0000
0001
0000
0100
0000
0001
0000
0100
0000
0001
0000
,  // measure 21
0100
0000
0000
0010
0000
0000
0100
0000
0000
0000
0001
0000
0010
0000
0100
0000
,  // measure 22
1000
0000
0000
0001
0000
0000
0100
0000
0010
0000
0100
0000
0010
0000
0100
0000
,  // measure 23
0010
0000
0000
1000
0000
0000
0010
0000
0000
0000
1000
0000
0100
0000
0010
0000
,  // measure 24
0001
0000
0000
0010
0000
0000
0100
0000
1000
0000
0100
0000
1000
0000
0100
0000
,  // measure 25
1000
0000
0000
0001
0000
0000
0100
0000
0000
0000
0010
0000
0100
0000
0001
0000
,  // measure 26
0010
0100
1000
0100
,  // measure 27
1000
0010
1000
0010
,  // measure 28
1000
0100
0010
0100
,  // measure 29
0010
0001
0100
0010
,  // measure 30
1000
0002
0000
0023
,  // measure 31
0000
0230
0000
0320
,  // measure 32
0000
0230
0000
2300
,  // measure 33
3002
0203
0000
0000
,  // measure 34
0320
0230
0000
0302
,  // measure 35
0000
2003
0000
3200
,  // measure 36
0000
2300
0000
0000
,  // measure 37
0000
3002
0000
0203
,  // measure 38
0000
0300
0010
1000
0010
0000
0100
0001
,  // measure 39
0100
0000
0001
0010
0001
0000
1000
0100
,  // measure 40
1000
0000
0001
1000
0001
0000
1000
0000
,  // measure 41
0100
0000
0010
0001
0100
0010
1000
0100
,  // measure 42
0010
0000
0100
0010
0100
0000
1000
0100
,  // measure 43
1000
0000
0001
0100
0001
0000
0100
0010
,  // measure 44
0100
0000
0001
0010
0001
0000
1000
0010
,  // measure 45
1000
0000
0001
0010
0100
1000
0001
0100
,  // measure 46
0010
2000
0010
3020
,  // measure 47
0100
0230
0001
0302
,  // measure 48
0010
0023
0100
0230
,  // measure 49
2300
3020
0100
1000
,  // measure 50
0230
0302
0010
0203
,  // measure 51
0001
0320
1000
0230
,  // measure 52
0010
0302
0010
0100
,  // measure 53
0010
2003
0001
3200
,  // measure 54
0010
0000
0300
0000
1000
0000
0000
0001
0000
0000
0100
0000
0010
0000
1000
0000
,  // measure 55
0010
0000
1000
0000
0100
0000
0000
0010
0000
0000
0001
0000
0000
0000
0100
0000
,  // measure 56
0001
0000
0010
0000
0100
0000
0000
0010
0000
0000
0001
0000
1000
0000
0100
0000
,  // measure 57
1000
0000
0010
0000
0100
0000
0000
0001
0000
0000
0010
0000
0000
0000
0100
0000
,  // measure 58
0010
0000
0001
0000
1000
0000
0000
0010
0000
0000
1000
0000
0001
0000
0100
0000
,  // measure 59
0010
0000
0100
0000
0001
0000
0000
0010
0000
0000
0100
0000
0000
0000
0010
0000
,  // measure 60
0001
0000
0100
0000
0010
0000
0000
1000
0000
0000
0010
0000
1000
0000
0100
0000
,  // measure 61
0010
0000
0001
0000
1000
0000
0000
0001
0000
0000
0100
0000
0000
0000
0001
0000
,  // measure 62
0010
0100
1000
0000
0000
0000
0000
0000
;

//---------------dance-single - ----------------
#NOTES:
     dance-single:
     :
     Medium:
     5:
     0.301,0.328,0.000,0.132,0.008:
0000
0000
0000
0000
,
0000
0000
0000
0000
,
0000
0000
0000
0000
,
0000
0000
0000
0000
,
0000
0000
0000
0000
,
0001
0000
0000
1000
0000
0000
0000
0000
0000
0000
0000
0000
0000
0000
0001
0000
,
1000
0000
0000
0001
0000
0000
0000
0000
0000
0000
0000
0000
0000
0000
0000
0000
,
1000
0000
0001
0000
,
0100
0000
0010
0000
,
1000
0010
0100
0001
,
1000
0100
0010
0001
,
1000
0100
1000
0001
,
0100
0010
1000
0001
,
1000
0100
1000
0000
0001
0100
0001
0000
,
1000
0010
1000
0000
0001
0010
0001
0000
,
1000
0001
1000
0000
0100
0010
0100
0000
,
1000
0001
0100
0000
0001
1000
0010
0000
,
1000
0000
0100
0000
0010
0100
1000
0000
,
0001
0000
0100
0000
0010
0100
0001
0000
,
1000
0000
0010
0000
1000
0001
0010
0000
,
0100
0000
0001
0000
0100
1000
0001
0000
,
0100
0000
0010
0000
0100
0001
0010
0000
,
0100
0000
0010
0000
0100
1000
0010
0000
,
0100
0000
0001
0000
0100
0010
1000
0000
,
0100
0000
0010
0000
0001
0010
0100
0000
,
1000
0100
1000
0100
,
0001
0100
0001
0100
,
1000
0010
0001
0010
,
1000
0001
0100
0010
,
1000
0002
0000
0023
,
0000
0230
0000
0320
,
0000
0032
0000
2003
,
3020
2030
0000
0000
,
3200
0320
0000
0032
,
0000
0203
0000
0320
,
0000
2030
0000
0000
,
0000
3200
0000
2300
,
0000
3100
0010
0001
,
0010
0100
0010
0001
,
0010
0100
1000
0001
,
0100
0010
0100
0001
,
1000
0100
1000
0001
,
0010
0100
1000
0100
,
1000
0001
0100
0010
,
1000
0100
1000
0001
,
1000
0000
0010
0100
0010
0000
1000
0000
,
0100
0000
0010
0001
0010
0000
0001
0000
,
1000
0000
0010
1000
0010
0000
0100
0000
,
0010
0000
1000
0100
1000
0000
0001
0000
,
0010
0000
0001
0100
0001
0000
0100
0000
,
0010
0000
0100
0010
0100
0000
0001
0000
,
0010
0000
0100
0010
0001
0000
0100
0000
,
0010
0000
1000
0001
0100
0000
0010
0000
,
1000
0000
0100
0000
0010
0000
0001
0010
,
0001
0010
0001
0000
1000
0000
0010
0000
,
0100
0010
1000
0000
0100
0000
1000
0001
,
1000
0001
1000
0000
0001
0000
0100
0000
,
0010
1000
0100
0000
0010
0000
0001
0010
,
0100
0010
0001
0000
0100
0000
0010
0000
,
1000
0100
1000
0000
0001
0010
0100
1000
,
0100
0010
0001
0000
0100
0000
0010
0000
,
1000
0100
1000
0000
0000
0000
0000
0000
;

//---------------dance-single - ----------------
#NOTES:
     dance-single:
     :
     Easy:
     3:
     0.215,0.252,0.016,0.165,0.000:
0000
0000
0000
0000
,
0000
0000
0000
0000
,
0000
0000
0000
0000
,
0000
0000
0000
0000
,
0000
0000
0000
0000
,
1001
0000
0000
0000
,
0110
0000
0000
0000
,
0100
0000
0000
0000
,
1000
0000
0001
0000
,
0100
0010
0000
1000
,
0100
0010
0000
0001
,
0100
0010
0000
0100
,
0001
1000
0000
0000
,
0001
0010
0100
0010
,
0001
0100
0010
1000
,
0001
0000
0010
0000
,
0100
0000
0010
0000
,
0001
1000
0000
0100
,
1000
0010
0000
1000
,
0100
0010
0001
0010
,
0100
1000
0000
0001
,
0100
0010
0000
1000
,
0001
0010
0000
0001
,
1000
0000
1000
0000
,
1000
0001
0100
0001
,
1000
0000
0000
0000
,
0001
0000
0000
0000
,
1000
0001
1000
0001
,
1000
0001
1000
0001
,
1000
0200
0000
0320
,
0000
0230
0000
2300
,
0000
3020
0000
0230
,
0320
0230
0000
0000
,
0320
2030
0000
3002
,
0000
2003
0000
3200
,
0000
2300
0000
0000
,
0000
3020
0000
0230
,
0000
0301
0010
0000
,
0100
0010
0001
0000
,
0100
0010
1000
0001
,
0100
0020
0000
0000
,
1030
0100
0010
0100
,
0010
0001
0100
0010
,
0100
0020
0000
0100
,
0000
0130
0001
0010
,
0100
1000
0000
0001
,
1000
0001
0000
0010
,
0100
0010
0000
0100
,
1000
0020
0100
0100
,
0130
0001
0010
0100
,
0010
0001
1000
0100
,
0010
0200
0000
0010
,
0010
0310
0001
0010
,
0100
1000
0000
0001
,
0000
1000
0000
0001
,
0010
0100
0000
0010
,
0000
0001
0000
0100
,
0010
1000
0100
0010
,
0100
1000
0001
0100
,
0010
0100
0001
1000
,
0010
0100
0010
1000
,
0001
1000
0000
0000
;

//---------------dance-single - ----------------
#NOTES:
     dance-single:
     :
     Beginner:
     1:
     0.118,0.126,0.016,0.000,0.000:
0000
0000
0000
0000
,
0000
0000
0000
0000
,
0000
0000
0000
0000
,
0000
0000
0000
0000
,
0000
0000
0000
0000
,
1001
0000
0000
0000
,
1001
0000
0000
0000
,
0001
0000
0000
0000
,
1000
0000
0000
0000
,
0001
0000
0010
0000
,
0100
0000
0010
0000
,
0001
0000
1000
0000
,
0010
0000
0100
0000
,
0001
0001
0000
0000
,
1000
1000
0000
0000
,
0001
0000
0010
0000
,
0001
0000
1000
0000
,
0010
0000
0100
0000
,
0010
0000
1000
0000
,
0001
0000
1000
0000
,
0100
0000
1000
0000
,
0010
0000
1000
0000
,
0001
0000
0010
0000
,
0100
0000
0010
0000
,
0100
0000
0010
0000
,
0001
0000
0000
0000
,
1000
0000
0000
0000
,
0010
0000
0100
0000
,
0010
0000
0100
0000
,
0010
0000
0000
0000
,
0000
0000
0000
0000
,
0000
1000
0000
0100
,
0000
0010
0000
0000
,
0000
0000
0000
0000
,
0000
0000
0000
0001
,
0000
1000
0000
0000
,
0000
0001
0000
0000
,
0000
0010
0000
0100
,
0000
1000
0000
0100
,
0000
1000
0000
0001
,
0000
1000
0000
0000
,
0000
0010
0000
0100
,
0000
0001
0000
0100
,
0000
0010
0000
0000
,
0000
1000
0000
0001
,
0000
0010
0010
0010
,
0000
0100
0100
0100
,
0000
1000
0000
0001
,
0000
0100
0000
0000
,
0000
0001
0001
0001
,
0000
1000
1000
1000
,
0000
0001
0000
0000
,
0000
0010
0000
0100
,
0000
1000
0000
0100
,
0000
1000
0000
0010
,
0000
0100
0000
0001
,
0000
0100
0000
0010
,
0000
1000
0000
0001
,
0000
0010
0000
0100
,
0000
0010
0000
0001
,
0000
1000
0000
0001
,
0000
1000
0000
0000
;

//---------------dance-single - ----------------
#NOTES:
     dance-single:
     :
     Challenge:
     9:
     0.537,0.654,0.041,0.263,0.560:
0000
0000
0000
0000
,
0000
0000
0000
0000
,
0000
0000
0000
0000
,
0000
0000
0000
0000
,
0000
0000
0000
0000
,
1001
0000
0000
1001
0000
0000
0000
0000
0000
0000
0000
0000
0000
0000
0110
0000
,
0110
0000
0000
0110
0000
0000
0000
0000
0000
0000
0000
0000
0000
0000
0000
0000
,
1000
0100
0010
0001
0100
0010
1000
0001
,
0010
0100
0010
0001
1000
0100
0010
0100
,
1000
0000
0000
0100
0000
0000
0010
0000
0001
0000
0100
0000
0010
0000
1000
0000
,
0100
0000
0000
0010
0000
0000
0001
0000
0000
0000
0100
0000
0010
0000
1000
0000
,
0001
0000
0000
0100
0000
0000
0010
0000
0100
0000
0001
0000
0010
0000
0100
0000
,
1000
0000
0000
0001
0000
0000
1000
0000
0000
0000
0010
0000
0100
0000
0001
0000
,
1000
0000
0001
1000
0000
1000
0001
0000
1000
0000
0100
0000
0010
0000
0100
0000
,
1000
0000
0001
0100
0000
0100
0001
0000
0000
0000
0010
0000
0100
0000
1000
0000
,
0001
0000
0100
0010
0000
0010
0100
0000
0001
0000
0010
0000
0100
0000
0010
0000
,
0001
0000
1000
0010
0000
0010
1000
0000
0000
0000
0001
0000
1000
0000
0100
0000
,
1000
0000
0100
1000
0000
1000
0001
1000
0001
0000
0100
0000
0010
0000
1000
0000
,
0001
0000
0001
0010
0000
0100
0010
0100
0000
0100
1000
0000
0001
0000
1000
0000
,
0001
0000
0001
0100
0000
0100
0010
0100
0010
0000
1000
0000
0100
0000
0010
0000
,
0100
0000
1000
0100
0000
0100
0010
0100
0000
0010
0001
0000
0100
0000
0010
0000
,
0100
0000
0100
0001
0000
0001
1000
0001
1000
0000
0100
1000
0100
0000
0010
0100
,
0010
0000
0010
0001
0000
0001
0100
0001
0000
1000
0100
1000
0100
0000
0010
0000
,
0100
0000
1000
0010
0000
0010
1000
0010
1000
0000
0001
0100
0001
0000
0100
0010
,
0100
0000
0001
0010
0000
0001
1000
0001
0000
1000
0010
1000
0010
0000
0100
0000
,
0001
0100
0000
0100
0001
0000
0010
0000
0100
0010
0000
0010
0100
0000
1000
0000
,
0010
0100
0000
0100
0010
0000
0100
0000
0001
0010
0000
0010
0001
0000
1000
0000
,
0100
1000
0000
1000
0100
0000
0010
0000
0001
1000
0000
1000
0001
0000
0100
0000
,
0010
0100
0000
0100
0010
0000
1000
0000
0100
1000
0000
1000
0100
0000
1000
0000
,
0001
2000
0000
3200
,
0000
0302
0000
0203
,
0000
2300
0000
3020
,
0032
0023
0000
0000
,
2030
3200
0000
0302
,
0000
0023
0000
2030
,
0000
3002
0000
0000
,
0000
0203
0000
0320
,
0000
0230
1000
2300
,
0100
3200
0001
0302
,
0010
0023
1000
2030
,
3200
0302
0100
1000
,
0023
0230
0001
2300
,
0001
3020
1000
0032
,
0010
2003
0010
0001
,
3100
0200
0001
0320
,
1030
0000
0000
0000
0001
0000
0010
0000
0100
0000
0000
1000
0000
0100
0000
0100
,
1000
0000
0001
0000
0100
0000
0010
0000
1000
0000
0000
0100
0000
0010
0000
0010
,
0100
0000
1000
0000
0001
0000
0100
0000
0010
0000
0000
0100
0000
0001
0000
0001
,
1000
0000
0100
0000
1000
0000
0100
0000
0001
0000
0000
0100
0000
0010
0000
0010
,
0100
0000
1000
0000
0001
0000
0100
0000
0010
0000
0000
0100
0000
0001
0000
0001
,
0010
0000
0001
0000
1000
0000
0010
0000
0100
0000
0000
0010
0000
1000
0000
1000
,
0100
0000
0010
0000
0100
0000
1000
0000
0001
0000
0000
1000
0000
0010
0000
0010
,
0100
0000
0001
0000
0100
0000
1000
0000
0100
0000
0000
0001
0000
1000
0000
1000
,
0001
0000
0010
0000
0100
0000
1000
0100
0000
1000
0001
1000
0001
0100
0001
0100
,
0001
0100
0010
0100
0010
0000
0010
0100
0000
0001
0100
0001
0000
1000
0100
1000
,
0100
0000
0010
0000
0001
0000
0100
0001
0000
1000
0100
1000
0100
0010
0100
0010
,
0100
0010
0001
0010
0001
0000
0001
0100
0000
0010
0100
0010
0000
1000
0010
1000
,
0010
0000
1000
0000
0001
0000
0001
0100
0000
0001
1000
0100
0010
0100
1000
0001
,
0100
0001
1000
0100
0010
0000
0010
0100
0000
1000
0001
0100
0000
0001
1000
0100
,
1000
0000
0001
0000
0010
0000
0100
1000
0000
0001
0010
0100
1000
0100
0010
0001
,
0010
0100
1000
0001
0100
0000
0100
0010
0000
1000
0100
1000
0000
0001
0100
0010
,
1000
0001
0000
0000
0000
0000
0000
0000
;
