#TITLE:ハレ晴レユカイ;
#SUBTITLE:;
#ARTIST:平野綾·茅原実里·後藤邑子;
#TITLETRANSLIT:Hare Hare Yukai;
#SUBTITLETRANSLIT:;
#ARTISTTRANSLIT:Aya Hirano, Minori Chihara & Yuuko Gotou;
#CREDIT:;
#BANNER:Hare Hare Yukai.png;
#BACKGROUND:Hare Hare Yukai-bg.png;
#LYRICSPATH:Hare Hare Yukai.lrc;
#CDTITLE:xythar.png;
#MUSIC:Hare Hare Yukai.mp3;
#OFFSET:-2.110;
#SAMPLESTART:31.318;
#SAMPLELENGTH:12.000;
#SELECTABLE:YES;
#BPMS:0.000=172.000;
#STOPS:;
#BGCHANGES:9.000=Hare Hare Yukai.avi=1.000=1=1=0,
181.000=Hare Hare Yukai-bgend.png=1.000=0=0=1,
99999=-nosongbg-=1.000=0=0=0 // don't automatically add -songbackground-
;

//---------------dance-single - ----------------
#NOTES:
     dance-single:
     :
     Easy:
     4:
     0.275,0.302,0.059,0.030,0.000:
0000
0000
0000
0000
,
1001
0000
0000
0000
,
0110
0000
0000
0000
,
1100
0000
0011
0000
,
1000
0010
0100
0001
,
1000
0001
0010
0000
,
0001
1000
0100
0000
,
1000
0010
0100
0001
,
0010
0100
0010
0001
,
1000
0000
0100
0000
,
0010
0000
0001
0000
,
1000
0000
0010
0000
,
0100
0001
0100
0001
,
2000
0000
0001
3001
,
0020
0000
0100
0130
,
1000
0100
0010
0001
,
0100
0010
1000
0000
,
0001
0000
0010
0000
,
0001
0000
0100
0000
,
0010
0001
1000
0000
,
0010
0000
0100
0000
,
0001
0000
1000
0000
,
0100
0010
0100
0000
,
1000
0000
0010
0000
,
0100
0001
0100
0000
,
0001
0010
0100
0000
,
1000
0010
0100
0000
,
0001
1000
0001
1000
,
0001
0000
0000
0000
,
1000
0100
0010
0001
,
0100
0000
0010
0000
,
1000
0010
0100
0001
,
0010
0000
0100
0000
,
1000
0001
1000
0000
,
0010
0100
0010
0000
,
1000
1000
0001
0001
,
0010
0100
1000
0000
,
1000
0000
0001
0000
,
0010
0000
0100
0000
,
1000
0000
0010
0000
,
0100
0001
0010
0000
,
0100
0000
1000
0000
,
0001
0000
1000
0100
,
0010
0001
1000
0001
,
0010
0100
0010
0001
,
1000
0010
0000
0000
;

//---------------dance-single - ----------------
#NOTES:
     dance-single:
     :
     Beginner:
     2:
     0.186,0.233,0.089,0.000,0.000:
0000
0000
0000
0000
,
1000
0000
0000
0000
,
0001
0000
0000
0000
,
0100
0000
0010
0000
,
1000
0000
0100
0000
,
1000
0000
0000
0000
,
0001
0000
0000
0000
,
0010
0000
0100
0000
,
0010
0000
0001
0000
,
0100
0000
0000
0000
,
0010
0000
0000
0000
,
1000
0000
0000
0000
,
0001
0000
0100
0000
,
0110
0000
0000
0000
,
1001
0000
0000
0000
,
0110
0000
0000
0000
,
1001
0000
0000
0000
,
1000
0000
0010
0000
,
0100
0000
0001
0000
,
1000
0000
0000
0000
,
0001
0001
0001
0000
,
0010
0000
0100
0000
,
0010
0000
0001
0000
,
1000
0000
0010
0000
,
0100
0000
0010
0000
,
1000
1000
1000
0000
,
0001
0001
0001
0000
,
0010
0000
0100
0000
,
0110
0000
1001
0000
,
1000
0000
0010
0000
,
0100
0000
0010
0000
,
1000
0000
0100
0000
,
0010
0000
0001
0000
,
0100
0100
0100
0000
,
0010
0010
0010
0000
,
1000
0000
0001
0000
,
1000
0000
0010
0000
,
0100
0000
0001
0000
,
1000
0000
0100
0000
,
0010
0000
0001
0000
,
1000
0000
0010
0000
,
1000
0000
0001
0000
,
0010
0000
0001
0000
,
1000
0000
0010
0000
,
0100
0000
0010
0000
,
1000
0000
0000
0000
;

//---------------dance-single - ----------------
#NOTES:
     dance-single:
     :
     Medium:
     6:
     0.487,0.434,0.118,0.044,0.007:
0000
0000
0000
0000
,
1000
0000
0100
1000
0000
0010
0000
0000
,
0100
0000
0001
0100
0000
0010
0000
0000
,
1000
0000
0000
0001
0000
0010
0100
0010
,
0000
0001
0000
0100
0000
0010
0100
0010
,
1000
0000
0100
0010
0100
0000
0010
0000
,
0001
0000
0100
0001
0100
0000
0001
0000
,
1000
0000
0100
1000
0000
0001
0000
0100
,
0010
0000
0100
0001
0000
1000
0100
1000
,
0000
0000
0001
0000
0010
0100
0000
0010
,
0000
0000
0001
0000
0000
0000
0100
0000
0010
0000
0000
1000
0000
0000
0100
0000
,
1000
0000
0010
0100
0000
0000
0100
0001
,
1000
0000
0100
1000
0000
0001
0100
0001
,
0200
0000
0010
0000
0310
0000
1000
0100
,
2000
0000
0100
0000
3100
0000
0010
0001
,
0010
0000
0100
0010
0100
0000
1000
0010
,
0000
0100
0000
0001
0000
0000
1000
0010
,
1000
0000
0001
0010
0000
0100
0010
0100
,
0000
1000
0100
1000
0000
0001
0100
0000
,
0020
0000
1000
0000
1030
0000
0000
1001
,
0000
1001
0000
1001
0000
0010
0100
0000
,
1000
0000
0000
0001
0100
0000
0001
1000
,
0000
0100
0010
0100
0000
0010
0000
0001
,
0100
0000
0000
0100
0001
0000
1000
0100
,
0000
0010
0100
0010
0000
0000
0001
0010
,
0001
0000
1000
0100
0000
0000
1000
0010
,
1000
0000
0001
0100
0000
0000
0001
0010
,
0100
0000
1000
0010
0000
0100
0000
0001
,
0000
0101
0000
0100
0000
0110
0000
0000
,
1000
0100
0000
0010
0100
0000
0010
0001
,
0000
0100
0001
0100
0000
0001
0000
1000
,
0100
1000
0000
0010
0100
0000
0001
0100
,
0000
0001
1000
0100
0000
0000
1000
0100
,
1000
0000
0100
0010
0000
0000
0001
0010
,
0001
0000
0100
0010
0000
1000
0000
0100
,
1000
0000
0001
0000
1000
0000
0010
0100
,
0010
0000
1000
0010
0000
0000
1000
0100
,
1000
0000
0001
0100
0000
0100
0010
0100
,
0010
0000
1000
0010
0000
0010
1000
0100
,
1000
0000
0001
0010
0000
0010
0000
0001
,
0100
0000
0010
0000
1000
0100
0000
1000
,
0000
0100
0010
0000
0000
0001
0010
0000
,
0000
0100
0010
0001
0010
0000
0011
0000
,
0000
0001
0000
0000
0000
1001
0000
1000
,
0100
0010
0000
0100
0010
0001
0000
1000
,
0000
1001
0000
0000
0000
0000
0000
0000
;

//---------------dance-single - ----------------
#NOTES:
     dance-single:
     :
     Hard:
     8:
     0.565,0.468,0.326,0.089,0.007:
0000
0000
0000
0000
0000
0000
0000
1000
,
0100
0000
0010
0001
0000
0001
0100
0010
,
1000
0000
1000
0001
0000
0100
0010
0100
,
0001
0000
0010
0100
0000
0010
0100
0010
,
0000
0100
0000
0100
0000
1000
0100
0010
,
0001
0000
1000
0100
1000
0001
0000
0001
,
0100
0000
0010
0100
0010
1000
0000
1000
,
0100
0000
1000
0010
0000
0100
0000
0100
,
0001
0000
0001
0010
0000
0100
0010
0100
,
1000
0000
0001
0000
0100
1000
0000
0100
,
0000
0000
0010
0000
0000
0000
1000
0000
0100
0000
0000
0010
0000
0000
0100
0000
,
1000
0000
0001
0100
0000
0001
0010
0001
,
1000
0000
0010
0100
0000
0001
1000
0001
,
2002
0000
0000
0000
3003
0010
0000
0100
,
2200
0000
0000
0000
3300
0010
0000
0001
,
0202
0000
0303
1000
0010
0000
0100
0001
,
0000
0010
0100
1000
0000
0100
1000
0001
,
0100
0010
0100
0001
0000
1000
0100
0010
,
0000
0001
0010
0100
0000
1000
0010
0100
,
0001
0000
1001
0000
1001
0000
0001
0011
,
0000
0110
0000
0100
1100
0000
0001
0000
,
1000
0100
0000
0001
0100
0000
1000
0010
,
0000
0100
0001
0100
0000
0001
0010
0100
,
1000
0010
0000
0010
0100
0000
0100
0001
,
0000
1000
0100
0010
0000
0100
1000
0001
,
0100
0000
0100
0010
0000
0010
1000
0100
,
0001
0000
0001
0100
0000
0100
0010
0001
,
0100
0000
0100
0010
0000
1000
0000
1001
,
0000
1100
0000
0110
0000
0011
0000
0000
,
0001
0010
0000
0100
0010
0000
0001
0100
,
0000
1000
0100
0001
0000
1000
0100
1000
,
0010
0100
0000
0100
0001
0000
0001
1000
,
0000
1000
0100
0010
0000
0001
0100
0010
,
1000
0000
1000
0001
0000
0001
0010
0100
,
1000
0000
1000
0001
0000
0100
0000
0000
,
0110
0000
1001
0000
0110
0000
0001
0010
,
0100
0000
0100
1000
0000
1000
0010
0100
,
0001
0000
0001
1000
0000
1000
0100
0010
,
0001
0000
0001
0100
0000
0100
1000
0100
,
0010
0000
0010
1000
0000
0100
0010
0001
,
0010
0000
0100
0000
1000
0010
0000
0100
,
0000
0001
0101
0000
0000
1000
1100
0000
,
0000
0001
0010
0100
1000
0000
1001
0000
,
0000
0110
0000
0000
0000
0011
0000
1000
,
0100
0010
0000
0100
0010
0001
0000
1100
,
0000
0101
0000
0000
0000
0000
0000
0000
;

//---------------dance-single - ----------------
#NOTES:
     dance-single:
     :
     Challenge:
     11:
     1.000,1.000,0.859,0.000,0.829:
0000
0000
0000
0000
0000
0000
0000
0000
0000
0000
0000
0000
0000
0000
1000
0100
,
1000
0000
0000
0000
0001
0000
0100
0000
0000
0000
0010
0000
1000
0000
0001
0010
,
0001
0000
0000
0000
1000
0000
0100
0000
0000
0000
0010
0000
0001
0000
0100
0001
,
0100
0000
0001
0010
0000
0100
1000
1100
,
0000
0110
0000
0011
0000
1000
0100
0010
,
0011
0000
0000
0001
1000
0000
0001
0100
0001
0000
1000
0000
0010
0000
0100
0010
,
0100
0000
0000
0001
0010
0000
0100
1000
0100
0000
1000
0000
0010
0000
0100
0001
,
0100
0000
0000
0001
1000
0000
0100
0000
1000
0000
0001
0000
0010
0000
0110
0000
,
0000
0000
0011
0000
0000
0000
1000
0100
1000
0000
0001
0000
0101
0000
0100
0000
,
0010
0000
0000
1000
0010
0000
1000
0001
1000
0001
0100
0000
0010
0000
1000
0100
,
1000
0000
0000
0001
0100
0000
0001
1000
0010
1000
0001
0000
0010
0000
0100
0010
,
0001
0000
0000
0100
0010
0000
1000
0100
0010
0100
1000
0000
0001
0000
0010
0000
,
0010
0010
0100
0100
1000
1000
0010
0010
,
0100
0001
0100
0001
0010
0001
1000
0010
1000
0001
1000
0100
1000
0001
0010
0100
,
0010
0001
1000
0010
0100
0010
1000
0001
0010
0100
1000
0100
0010
0001
1000
0100
,
0010
0100
0010
0001
1000
0001
0100
0001
0010
0001
0100
0001
1000
0010
0100
0001
,
1000
0100
1000
0100
0010
0100
0010
0100
0010
0001
0010
0001
0010
0001
0100
0010
,
1000
1000
0100
0011
0000
0001
0100
1010
,
0000
0001
0010
1100
0000
0100
0010
0001
,
1000
0100
1000
0100
1000
0001
0100
0001
0010
0100
0010
0001
0100
0000
0101
0000
,
0000
0000
0011
0000
0000
0000
0110
0000
1100
0000
0001
0100
0010
0100
0001
1000
,
0100
0100
0010
0001
0101
0100
0010
1010
,
1000
0000
1100
0000
0110
0000
0011
0000
0010
0000
0100
0010
0100
0010
0100
1000
,
0001
0001
0010
0100
0110
0010
0001
1001
,
0001
0000
0101
0000
0110
0000
1010
0000
1000
0000
0100
0010
0001
0100
0010
0100
,
0001
0001
1001
1000
0100
0010
0110
0100
,
1000
0010
1010
1000
0001
0100
0101
0001
,
1000
0000
1000
0000
0100
0000
1000
0100
0010
0000
0001
1000
0010
0000
1010
0000
,
0000
0000
0101
0000
0000
0000
1100
0000
0000
0000
0011
0000
0001
0010
0100
0010
,
0001
1000
0010
0100
0110
0010
1000
1001
,
0001
0000
0101
0000
0110
0000
1010
0000
1000
0000
0001
1000
0010
0100
0001
1000
,
0100
0010
0100
1000
1100
0001
0100
0101
,
0001
0000
0011
0000
0110
0000
1100
0000
1000
0000
0010
0100
0001
1000
0100
0010
,
0001
0000
0100
0000
0101
0000
0001
0000
1000
0000
0100
0000
1100
0000
1000
0100
,
0010
0000
0100
0010
0001
0100
0010
0000
1000
0000
0001
0010
0001
0010
0100
0010
,
0100
0000
0100
0000
1000
0000
1000
0000
1000
0100
1000
0100
0010
0100
0010
0100
,
0010
0001
0010
0001
0100
0001
0100
0001
1000
0010
1000
0010
0100
0001
1000
0100
,
0010
0000
0010
0000
0001
0000
0100
0001
0100
0000
0001
0000
1000
0000
0010
0100
,
0010
0000
0100
0000
0001
0000
1000
0100
1000
0000
0100
0000
0010
0000
0001
1000
,
0001
1000
0100
0000
1000
0000
0010
0100
0010
0000
0100
0000
0001
0000
1000
0100
,
0010
0000
0000
0000
0001
0000
0000
0000
1000
0000
0010
0000
0000
0010
0100
0000
,
0000
0001
0100
0000
0101
0000
0000
0000
0000
1000
0100
0000
1100
0000
0000
0000
,
0000
0010
0001
0000
0011
0000
0010
0000
0110
0000
0000
0000
0001
0010
0001
0010
,
0100
0000
1100
0000
1000
0001
0100
0001
1000
0000
1001
0000
0000
0000
1100
0000
,
0110
0011
0000
0101
0110
1010
0000
1001
,
0000
0110
0000
0000
0000
0000
0000
0000
;
