#TITLE:HYPE THE CORE;
#SUBTITLE:;
#ARTIST:DJ CHUCKY;
#TITLETRANSLIT:;
#SUBTITLETRANSLIT:;
#ARTISTTRANSLIT:;
#CREDIT:Steps and graphics by Xythar (source - official video);
#BANNER:HYPE THE CORE.png;
#BACKGROUND:HYPE THE CORE-bg.png;
#LYRICSPATH:;
#CDTITLE:cdtitle.png;
#MUSIC:HYPE THE CORE.mp3;
#OFFSET:-2.083;
#SAMPLESTART:17.210;
#SAMPLELENGTH:10.107;
#SELECTABLE:YES;
#BPMS:0.000=190.000;
#STOPS:;
#BGCHANGES:-4.000=HYPE THE CORE.avi=1.000=1=1=0,
99999=-nosongbg-=1.000=0=0=0 // don't automatically add -songbackground-
;

//---------------dance-single - ----------------
#NOTES:
     dance-single:
     :
     Hard:
     9:
     0.602,0.660,0.183,0.035,0.044: // measure 1
0000
0000
0000
0000
,  // measure 2
0000
0000
0000
0000
,  // measure 3
0000
0000
0000
0000
,  // measure 4
0000
0000
0000
0000
,  // measure 5
1000
0000
0000
0000
,  // measure 6
0000
0000
0000
0000
,  // measure 7
0000
0000
0000
0000
,  // measure 8
0000
0000
0000
0000
,  // measure 9
0001
0010
0100
1000
,  // measure 10
0010
0100
0010
1000
,  // measure 11
0100
0000
0010
0000
0001
0000
0100
0010
,  // measure 12
2000
0000
0000
0000
,  // measure 13
3001
0010
0100
1000
0010
0100
0001
1000
,  // measure 14
0100
0010
0001
0100
0010
1000
0001
0000
,  // measure 15
1000
0010
0100
0001
0010
0100
1000
0010
,  // measure 16
0100
0001
1000
0100
1000
0010
0100
0000
,  // measure 17
0001
0100
1000
0100
0001
0010
1000
0010
,  // measure 18
0001
0100
0010
1000
0100
0010
0001
0000
,  // measure 19
1000
0010
0001
0010
1000
0100
0010
0001
,  // measure 20
0100
1000
0100
0001
1000
0000
0101
0000
,  // measure 21
0001
1000
0100
0001
0100
1000
0100
0001
,  // measure 22
0100
1000
0001
0010
0100
1000
0010
0000
,  // measure 23
1000
0001
0010
1000
0010
0001
0010
1000
,  // measure 24
0010
0001
1000
0100
0010
0001
0100
0000
,  // measure 25
1000
0100
0001
0010
1000
0010
0001
0100
,  // measure 26
1000
0100
0001
0010
1000
0010
0001
0000
,  // measure 27
1000
0100
0001
0100
1000
0010
0001
0010
,  // measure 28
1000
0000
0000
0000
,  // measure 29
0001
0000
0000
0000
0000
0000
1000
0100
,  // measure 30
1000
0000
0010
0100
0000
0001
0010
0100
,  // measure 31
1000
0000
0000
0000
,  // measure 32
0001
0001
1100
0101
,  // measure 33
1000
0000
0010
0000
0100
0001
0000
0001
,  // measure 34
1000
0000
0001
0010
0000
0100
1000
0010
,  // measure 35
0100
0001
1000
0001
,  // measure 36
1000
0000
0100
0000
0010
0000
0001
0000
1000
0000
0000
0000
0000
0000
0001
1000
,  // measure 37
0001
1000
0010
0000
0100
0001
1000
0000
,  // measure 38
1100
0000
0000
0000
0001
0000
0010
0000
0100
0000
0000
0000
0000
0000
1000
0001
,  // measure 39
1000
0010
0100
0000
0001
0010
0100
0000
,  // measure 40
1001
0000
0000
0000
0010
0000
0100
0000
0001
0000
0000
0000
0000
0000
1000
0100
,  // measure 41
1000
0010
0100
0000
0001
1000
0100
0000
,  // measure 42
0011
0000
0000
0000
0100
0000
1000
0000
0001
0000
0000
0000
0000
0000
0100
0001
,  // measure 43
0100
0010
1000
0000
0001
1000
0100
0000
,  // measure 44
1000
0010
0100
0001
0010
0100
1000
0000
,  // measure 45
0001
0100
0010
0100
0001
0010
0100
0010
,  // measure 46
0001
0100
1000
0100
0001
0010
0100
1000
,  // measure 47
0010
0100
0001
0100
0010
1000
0001
1000
,  // measure 48
0100
0001
0100
1000
0010
0100
0001
1000
,  // measure 49
0100
0010
0100
1000
0010
0100
0010
1000
,  // measure 50
0001
0010
1000
0010
0001
1000
0010
0100
,  // measure 51
1000
0100
0001
1000
0100
0010
0001
1000
,  // measure 52
0001
0000
0000
0000
,  // measure 53
1001
0000
0000
0000
0010
0000
0100
0000
0000
0000
1000
0100
1000
0000
0010
0000
,  // measure 54
0100
0000
0000
0000
0100
0000
0010
0000
0000
0000
0010
0000
1000
0000
0001
1000
,  // measure 55
0001
0000
0000
0000
1000
0000
0100
0000
0000
0000
0100
0000
1000
0000
0001
1000
,  // measure 56
0001
0000
0000
0000
0010
0000
0100
0000
0000
0000
1000
0000
0001
1000
0001
1000
,  // measure 57
0001
0000
0100
0010
0010
0100
0001
1000
,  // measure 58
0100
0000
0000
0000
1000
0000
0001
0000
0000
0000
1000
0000
0001
0000
1000
0001
,  // measure 59
1000
0000
0010
0100
0000
0001
0010
0100
,  // measure 60
1000
0000
0000
0000
,  // measure 61
1001
0000
0000
0000
,  // measure 62
0000
0000
0000
0000
,  // measure 63
0000
0000
0000
0000
,  // measure 64
0000
0000
0000
0000
,  // measure 65
1100
1100
0101
0101
,  // measure 66
1010
1010
0011
0011
,  // measure 67
1010
1100
0011
0101
,  // measure 68
2002
0000
3003
0000
,  // measure 69
1000
0010
0100
0001
0010
0100
1000
0010
,  // measure 70
0001
0010
1000
0001
0010
1000
0010
0001
,  // measure 71
1000
0010
0100
1000
0100
0001
1000
0100
,  // measure 72
0001
0100
1000
0010
0100
0001
0010
0000
,  // measure 73
1000
0010
0001
0100
1000
0100
0001
1000
,  // measure 74
0100
0010
0001
0100
0010
1000
0001
0010
,  // measure 75
1000
0010
0001
0100
1000
0100
0001
1000
,  // measure 76
0001
0010
0100
1000
0010
0100
0001
0000
,  // measure 77
1000
0010
0100
0001
0010
1000
0010
0001
,  // measure 78
1000
0100
0010
0001
0100
1000
0100
0001
,  // measure 79
1000
0001
0010
0100
1000
0010
0100
0001
,  // measure 80
1000
0001
0010
0100
1000
0010
0100
0001
,  // measure 81
1000
0010
0100
0010
1000
0100
0010
0001
,  // measure 82
0100
1000
0100
0001
0010
0100
1000
0010
,  // measure 83
0001
0010
1000
0100
0001
0100
1000
0010
,  // measure 84
0100
0001
0010
0100
2000
0000
0000
0000
,  // measure 85
3001
0000
0000
0000
;

//---------------dance-single - ----------------
#NOTES:
     dance-single:
     :
     Medium:
     7:
     0.441,0.513,0.166,0.035,0.000:
0000
0000
0000
0000
,
0000
0000
0000
0000
,
0000
0000
0000
0000
,
0000
0000
0000
0000
,
0001
0000
0000
0000
,
0000
0000
0000
0000
,
0000
0000
0000
0000
,
0000
0000
0000
0000
,
1000
1000
0010
0010
,
0100
0100
0001
0001
,
1000
0100
1000
0010
,
0100
0000
0000
0000
,
0001
0100
0001
0000
0010
0000
0100
0000
,
1000
0010
1000
0000
0001
0000
0110
0000
,
1000
0001
1000
0000
0100
0000
0010
0000
,
0001
0100
0001
0000
0010
0000
1001
0000
,
0100
1000
0100
0000
0010
0000
0001
0000
,
0100
0010
0100
0000
0001
0000
1100
0000
,
0010
0100
0010
0000
1000
0000
0100
0000
,
1000
0010
1000
0000
0001
0000
0000
0000
,
1000
0000
0010
0000
0100
0001
1000
0000
,
0100
0000
0011
0000
0100
1000
0001
0000
,
1000
0000
0100
0000
0010
0001
1000
0000
,
0010
0000
0101
0000
0010
1000
0001
0000
,
0010
0000
0100
0000
1000
0010
0100
0000
,
0001
0000
1100
0000
0010
0100
0001
0000
,
0010
0000
0100
0000
1000
0001
0100
0001
,
1000
0000
0000
0000
,
0001
0000
0000
0000
0000
0000
1000
0100
,
1000
0000
0001
1000
0000
1000
0001
0000
,
0020
0000
0000
0000
,
0230
0000
1000
1300
,
0010
0000
0000
0000
,
1000
0000
0001
1000
0000
1000
0001
1000
,
0002
0000
0000
0000
,
0013
0010
0010
0000
,
1000
0100
1000
0000
0010
0000
0100
0000
,
0001
1000
0100
0000
,
1000
0001
1000
0000
0010
0000
0100
0000
,
0010
0100
0001
0000
,
1000
0100
0010
0000
0001
0000
0100
0000
,
0010
0100
0001
0000
,
0010
0100
1000
0000
0010
0000
0100
0000
,
0001
0000
0100
0000
0010
1000
0001
0000
,
1000
0100
1000
0000
0001
0100
0001
0000
,
1000
0010
1000
0000
0001
0010
0001
0000
,
0100
0010
0100
0000
0001
1000
0001
0000
,
0010
0100
0010
0000
0100
1000
0100
0000
,
1000
0001
1000
0000
0001
0100
0001
0000
,
1000
0100
0010
0000
0001
0100
0010
0000
,
1000
0001
0010
0000
0001
1000
0010
0000
,
0100
0000
0000
0000
,
1000
0000
0001
0100
0000
0001
0010
0001
,
0010
0000
0100
1000
0000
0001
1000
0001
,
1000
0000
0010
0100
0000
0001
1000
0001
,
1000
0000
0100
0010
0000
0010
0100
0000
,
1001
0000
0010
0100
0001
0100
0010
0000
,
1000
0000
0100
0010
0000
0010
0100
1000
,
0100
0000
1000
0001
0000
0001
1000
0001
,
1000
0000
0000
0000
,
0001
0000
0000
0000
,
0000
0000
0000
0000
,
0000
0000
0000
0000
,
0000
0000
0000
0000
,
1000
1100
0001
0101
,
1000
1010
0001
0011
,
0100
0100
1010
0100
,
0011
0000
0000
0000
,
0100
0000
1000
0000
0010
0100
0001
0000
,
0010
0100
1000
0000
0001
1000
0010
0000
,
0100
0000
0001
0000
1000
0100
0010
0000
,
0001
0100
0010
0000
1000
0001
0010
0000
,
0100
0000
1001
0000
0010
0100
0001
0000
,
0100
0010
1000
0000
0001
0010
0100
0000
,
1000
0000
0110
0000
0001
1000
0100
0000
,
1000
0001
0100
0000
0010
1000
0001
0000
,
0010
0000
1100
0000
0010
0100
0001
0000
,
0010
0100
1000
0000
0001
1000
0010
0000
,
0100
0000
0011
0000
0100
1000
0001
0000
,
0100
0010
1000
0000
0001
0010
0100
0000
,
1000
0000
0011
0000
0100
1000
0010
0000
,
0100
0001
0010
0000
0100
1000
0001
0000
,
0100
0000
1001
0000
0001
0010
0100
1000
,
0002
0000
0000
0000
,
1003
0000
0000
0000
;

//---------------dance-single - ----------------
#NOTES:
     dance-single:
     :
     Easy:
     5:
     0.296,0.330,0.052,0.000,0.000:
0000
0000
0000
0000
,
0000
0000
0000
0000
,
0000
0000
0000
0000
,
0000
0000
0000
0000
,
1000
0000
0000
0000
,
0000
0000
0000
0000
,
0000
0000
0000
0000
,
0000
0000
0000
0000
,
1000
0000
1000
0000
,
1000
0000
1000
0000
,
1000
0000
1000
0000
,
1000
0000
0000
0000
,
1000
0001
1000
0001
,
0100
0010
0100
0010
,
1000
0100
1000
0100
,
0010
0001
0010
0001
,
0100
0010
0100
0010
,
1000
0001
1000
0001
,
1000
0010
0100
0001
,
1000
0001
1000
0000
,
0001
0010
0100
1000
,
0010
0100
0010
1000
,
0100
0010
0001
0100
,
0010
1000
0100
1000
,
0010
0100
0010
0100
,
0001
1000
0001
1000
,
0100
0010
0001
0100
,
0010
0000
0000
0000
,
1000
0000
0000
0000
,
0001
0000
0000
0000
,
1000
0000
0000
0000
,
0000
0000
0001
0001
,
0001
0000
0000
0000
,
0010
0000
0010
0010
,
0010
0000
0000
0000
,
1000
0100
1000
0100
,
1000
0010
0100
0001
,
0010
0100
1000
0000
,
0001
0100
0010
1000
,
0100
1000
0010
0000
,
1000
0001
1000
0001
,
1001
0000
1001
0000
,
1000
0010
0100
0010
,
0110
0000
0000
0000
,
1000
0100
0010
0001
,
0100
0010
1000
0100
,
1000
0010
0100
0001
,
0010
1000
0010
0001
,
0100
1000
0100
0001
,
1000
0100
0010
0001
,
0100
0010
1000
0001
,
0010
0000
0000
0000
,
1000
0010
0000
0001
,
0100
0000
0010
1000
,
0100
0000
1000
0001
,
1000
0000
0010
0100
,
0001
0000
1000
0000
,
0001
0000
1000
0100
,
1000
0000
0010
0100
,
0001
0000
0000
0000
,
1000
0000
0000
0000
,
0000
0000
0000
0000
,
0000
0000
0000
0000
,
0000
0000
0000
0000
,
1000
0001
1001
0000
,
0010
0100
0110
0000
,
1000
0001
1000
0001
,
1001
0000
0000
0000
,
1000
0010
0100
0001
,
0010
1000
0010
0001
,
0100
0010
1000
0100
,
1000
0010
0100
0010
,
1000
0100
0001
0100
,
1000
0010
0100
0001
,
0010
0100
1000
0010
,
0100
0010
1000
0100
,
1000
0010
0100
0001
,
0010
0100
1000
0010
,
0100
0001
1000
0100
,
1000
0010
0100
0001
,
1000
0100
1000
0010
,
0100
0001
1000
0100
,
1000
0010
0100
0001
,
1000
0000
0000
0000
,
0001
0000
0000
0000
;

//---------------dance-single - ----------------
#NOTES:
     dance-single:
     :
     Beginner:
     2:
     0.162,0.293,0.044,0.000,0.000:
0000
0000
0000
0000
,
0000
0000
0000
0000
,
0000
0000
0000
0000
,
0000
0000
0000
0000
,
1000
0000
0000
0000
,
0000
0000
0000
0000
,
0000
0000
0000
0000
,
0000
0000
0000
0000
,
0001
0000
0000
0000
,
0001
0000
0000
0000
,
0001
0000
0000
0000
,
0001
0000
0000
0000
,
1000
0000
0100
0000
,
1000
0000
0100
0000
,
1000
0000
0010
0000
,
1000
0000
0010
0000
,
1000
0000
0001
0000
,
1000
0000
0001
0000
,
1000
0000
0001
0000
,
0010
0000
0100
0000
,
1000
0000
0010
0000
,
0100
0000
0010
0000
,
0100
0000
0001
0000
,
0100
0000
0001
0000
,
1000
0000
0100
0000
,
1000
0000
0010
0000
,
0100
0000
0001
0000
,
1000
0000
0000
0000
,
0001
0000
0000
0000
,
1000
0000
0000
0000
,
0100
0000
0000
0000
,
1000
0000
0000
0000
,
0010
0000
0000
0000
,
0100
0000
0000
0000
,
0001
0000
0000
0000
,
0010
0000
0000
0000
,
0100
0000
1000
0000
,
0010
0000
0100
0000
,
0010
0000
1000
0000
,
0100
0000
1000
0000
,
0001
0000
0100
0000
,
0010
0000
1000
0000
,
0100
0000
0010
0000
,
0001
0000
0000
0000
,
1000
0000
0010
0000
,
0100
0000
0001
0000
,
1000
0000
0100
0000
,
1000
0000
0010
0000
,
0100
0000
0001
0000
,
0010
0000
0100
0000
,
1000
0000
0010
0000
,
0100
0000
0000
0000
,
0001
0000
0000
0000
,
1000
0000
0000
0000
,
0100
0000
1000
0000
,
0010
0000
0000
0000
,
0100
0000
0000
0000
,
0001
0000
0000
0000
,
1000
0000
0100
0000
,
0010
0000
0000
0000
,
0001
0000
0000
0000
,
0000
0000
0000
0000
,
0000
0000
0000
0000
,
0000
0000
0000
0000
,
1000
0000
1000
0000
,
1001
0000
1001
0000
,
1001
0000
1001
0000
,
0110
0000
0000
0000
,
1000
0000
0010
0000
,
0100
0000
0001
0000
,
0010
0000
0100
0000
,
1000
0000
0010
0000
,
0100
0000
0001
0000
,
1000
0000
0100
0000
,
1000
0000
0010
0000
,
0100
0000
0001
0000
,
1000
0000
0100
0000
,
0010
0000
0001
0000
,
0100
0000
0010
0000
,
1000
0000
0001
0000
,
1000
0000
0010
0000
,
0100
0000
0010
0000
,
1000
0000
0100
0000
,
0010
0000
0001
0000
,
1000
0000
0000
0000
;
