#TITLE:HORROR FANTASY;
#SUBTITLE:;
#ARTIST:SCREAM TEAM;
#TITLETRANSLIT:;
#SUBTITLETRANSLIT:;
#ARTISTTRANSLIT:;
#CREDIT:Xythar & the_ditz;
#BANNER:HORROR FANTASY BN.png;
#BACKGROUND:HORROR FANTASY BG.png;
#LYRICSPATH:HORROR FANTASY.lrc;
#CDTITLE:DIXY originals.png;
#MUSIC:HORROR FANTASY.mp3;
#OFFSET:-8.553;
#SAMPLESTART:63.521;
#SAMPLELENGTH:12.395;
#SELECTABLE:YES;
#BPMS:0.000=154.990;
#STOPS:;
#BGCHANGES:;

//---------------dance-single - ----------------
#NOTES:
     dance-single:
     :
     Easy:
     3:
     0.230,0.287,0.116,0.019,0.000:
0000
0000
0000
0000
,
0000
0000
0000
0000
,
0001
0000
1000
0000
,
0001
0000
1000
0000
,
0001
0001
0001
0000
,
1000
1000
1000
0000
,
0010
0000
0100
0000
,
0010
0000
0100
0000
,
0010
0010
0010
0000
,
0100
0100
0100
0000
,
0002
0000
0000
0000
,
0000
0000
1003
0000
,
0100
0010
0100
0000
,
1000
0010
0100
0010
,
1000
0001
1000
0000
,
0100
0010
0001
0100
,
0010
0100
0010
0000
,
1000
0010
0100
0001
,
1000
0000
0100
0000
,
0010
0000
0110
0000
,
0001
0000
1000
0000
,
0010
0100
0010
0000
,
0100
0000
0001
0000
,
1000
0100
1000
0010
,
0100
0000
0001
0000
,
1000
0001
1000
0000
,
0010
0000
0100
0000
,
0001
0100
0001
0000
,
1000
0000
0100
0000
,
0010
0000
0001
0000
,
1000
0000
0010
0000
,
0100
0001
0100
0001
,
1000
0000
0100
0000
,
0010
0000
0001
0000
,
1000
0001
1000
0000
,
1001
0000
0100
0010
,
0110
0000
0000
0000
,
1100
0000
0000
0000
,
1000
0100
0010
0001
,
0100
0010
1000
0001
,
1001
0000
0000
0000
,
0101
0000
0000
0000
,
0010
0100
0001
0100
,
0010
1000
0100
0010
,
0110
0000
0000
0000
,
0011
0000
0000
0000
,
0100
0010
0001
0100
,
0010
1000
0001
1000
,
1001
0000
0000
0000
,
1010
0000
0000
0000
,
0100
0010
1000
0100
,
0110
0110
0000
0000
,
0001
0100
0010
0000
,
1000
0100
0010
0001
,
1000
0010
0100
0000
,
0001
0010
0100
1000
,
0001
0100
0010
0000
,
1000
0100
0001
0100
,
1000
0010
0100
0001
,
2000
0000
3001
0000
;

//---------------dance-single - ----------------
#NOTES:
     dance-single:
     :
     Hard:
     8:
     0.508,0.488,0.241,0.087,0.164: // measure 1
0000
0000
0000
0000
,  // measure 2
0000
0000
0000
0000
,  // measure 3
1000
0000
0100
0010
0001
0100
0010
0000
,  // measure 4
0100
0000
0001
0010
0100
1000
0010
0000
,  // measure 5
0100
0100
0010
0010
,  // measure 6
1000
0000
0100
0000
0010
0001
0100
0000
,  // measure 7
0010
0100
0001
0000
1000
0010
0100
0000
,  // measure 8
0010
1000
0100
0000
0010
0001
0100
0000
,  // measure 9
0002
1000
1000
0010
,  // measure 10
0023
0100
0100
0031
,  // measure 11
2001
0000
0000
0000
,  // measure 12
0000
0000
0000
0000
0010
3010
0000
0000
,  // measure 13
1000
0000
0100
0000
0010
0000
0001
0010
0000
0000
0000
0000
0000
0100
0010
0000
,  // measure 14
0001
0000
0100
0000
0010
0000
0100
0001
0000
0001
1000
0000
0100
0000
0010
0000
,  // measure 15
0001
0000
0100
0000
0010
0000
1000
0010
0000
0000
0000
0000
0000
1000
0001
0000
,  // measure 16
0010
0000
0000
0100
0000
0000
1000
0000
0000
0001
0000
0000
0100
0000
0010
0000
,  // measure 17
1000
0000
0001
0000
0100
0000
0010
0100
0000
0000
0000
0000
0000
0001
0100
0000
,  // measure 18
0001
0000
0010
0000
0100
0000
1000
0100
0000
0100
0010
0000
0001
0000
0100
0000
,  // measure 19
0010
0000
0000
1000
0000
0000
0100
0000
0000
0010
0000
0000
0001
0000
1000
0000
,  // measure 20
2001
0000
0000
0000
0100
3100
0000
0000
,  // measure 21
1000
0010
0100
0000
0001
0010
0100
0010
,  // measure 22
0002
0000
0000
1000
0000
0000
1003
0000
0000
0000
0010
0000
0100
0000
0001
0000
,  // measure 23
0000
1000
0100
0010
0100
0010
0001
0100
,  // measure 24
0020
0000
0000
0100
0000
0000
0130
0000
0000
0000
0001
0000
0010
0000
0100
0000
,  // measure 25
1000
0001
0100
0000
0001
1000
0100
0000
,  // measure 26
2000
0000
0000
0001
0000
0000
3001
0000
0000
0000
0100
0000
0010
0000
0100
0000
,  // measure 27
0000
0001
1000
0100
1000
0001
0100
0001
,  // measure 28
2000
0000
0000
0010
0000
0000
3010
0000
0000
0000
0100
0000
0001
0000
0000
0000
,  // measure 29
1000
0100
0010
0000
0011
0000
0110
0000
,  // measure 30
0100
1000
0001
0000
1001
0000
0101
0000
,  // measure 31
0001
0100
0010
0000
0100
0001
1000
0001
,  // measure 32
1000
0000
0100
0000
0010
0000
0001
0010
0000
0010
0100
0000
1000
0000
0010
0000
,  // measure 33
0100
0001
0100
0000
0101
0000
1010
0000
,  // measure 34
1000
0100
1000
0000
1100
0000
0011
0000
,  // measure 35
0001
0010
0100
0000
1000
0010
0100
0000
,  // measure 36
0101
0000
0001
1000
,  // measure 37
1001
0000
1000
0100
0010
0100
1000
0000
,  // measure 38
1100
0000
1000
0010
0100
0010
1000
0000
,  // measure 39
0001
0010
0100
0010
0001
0100
0010
0100
,  // measure 40
0001
1000
0010
0100
,  // measure 41
0101
0000
0001
0100
0010
0100
0001
0000
,  // measure 42
0011
0000
0010
0100
1000
0100
0010
0000
,  // measure 43
0001
0100
0010
0000
1000
0100
0010
0000
,  // measure 44
0011
1100
1010
0101
,  // measure 45
1001
0000
0010
0100
0001
1000
0100
0000
,  // measure 46
1100
0000
1000
0001
0100
0010
1000
0000
,  // measure 47
0001
0100
1000
0000
1000
0100
0001
0000
,  // measure 48
1000
0100
0001
0010
,  // measure 49
1000
0000
0001
0100
0010
1000
0100
0000
,  // measure 50
0110
0000
0001
0010
0100
1000
0010
0000
,  // measure 51
0100
0001
0100
0000
0010
1000
0010
0000
,  // measure 52
1100
0011
0000
0000
,  // measure 53
0100
0000
0010
0000
0001
0000
0100
0001
0000
0000
0000
0000
0000
1000
0010
0000
,  // measure 54
0100
0000
0001
0000
0100
0000
0010
0100
0000
0100
0001
0000
1000
0000
0100
0000
,  // measure 55
0010
0000
0001
0000
1000
0000
0010
0100
0000
0000
0000
0000
0000
0001
0100
0000
,  // measure 56
0010
0000
0000
1000
0000
0000
0100
0000
0000
0010
0000
0000
0001
0000
1000
0000
,  // measure 57
0001
0000
0010
0000
0100
0000
0010
0100
0000
0000
0000
0000
0000
1000
0100
0000
,  // measure 58
1000
0000
0010
0000
0100
0000
0001
0100
0000
0100
0010
0000
1000
0000
0100
0000
,  // measure 59
0010
0000
0000
0001
0000
0000
0100
0000
0000
1000
0000
0000
0100
0000
0001
0000
,  // measure 60
0102
0000
0000
0000
1000
1003
0000
0000
;

//---------------dance-single - ----------------
#NOTES:
     dance-single:
     :
     Medium:
     6:
     0.476,0.488,0.250,0.222,0.000:
0000
0000
0000
0000
,
0000
0000
0000
0000
,
1001
0000
0100
0001
1000
0000
0100
0000
,
0010
0000
0001
0010
0100
0000
1000
0000
,
0001
0100
0001
0000
0010
0001
0010
0000
,
0100
1000
0010
0000
0100
0001
1000
0000
,
1001
0000
0001
0010
0100
0000
1000
0000
,
0010
0000
0100
0001
1000
0000
0100
0000
,
2000
0010
0001
0100
,
3002
0100
1000
0013
,
0220
0000
0000
0000
,
0000
0000
0330
0000
0100
1000
0000
0000
,
0001
1000
0010
0100
0002
0000
0013
0000
,
0100
0010
0001
0000
1000
0000
1001
0000
,
0001
0100
0010
1000
0200
0000
0310
0000
,
0002
0000
0023
0000
0230
0000
1300
0001
,
0100
0010
1000
0001
0020
0000
0130
0000
,
1000
0100
0010
0000
0001
0000
0101
0000
,
0100
0000
0010
0000
1000
0000
0001
0010
,
0110
0000
0000
0000
1000
0001
0000
0000
,
0100
0000
0001
0010
0100
0000
1000
0100
,
0010
0001
0100
1000
,
0100
0001
0100
0000
0010
1000
0100
0000
,
1000
0000
0010
0000
0100
0000
0001
0001
,
0200
0000
0310
1000
0001
0000
0010
0001
,
0100
0000
1000
0000
0100
0000
0001
1000
,
0100
0010
0100
0000
1000
0100
0010
0001
,
1000
0001
0100
0001
,
1000
1000
0001
0001
0010
0000
0110
0000
,
0100
0100
0010
0010
0001
0000
1001
0000
,
1000
0100
1000
0100
1000
0000
0001
0010
,
0200
0000
2300
0000
3001
0010
0100
0000
,
0010
0010
0001
1000
0010
0000
0110
0000
,
0100
0100
0010
1000
0001
0000
1001
0000
,
0001
0010
0001
0010
0001
0000
1000
0000
,
1001
0000
0001
0100
,
0110
0000
0010
1000
0000
0001
0010
0000
,
0110
0000
0100
1000
0000
0001
0100
0000
,
0010
1000
0010
0000
0100
0000
0101
0000
,
0001
0010
0110
1100
,
1001
0000
0001
0100
0000
0010
1000
0000
,
1001
0000
0001
0010
0000
0100
1000
0000
,
0001
0100
0001
0000
0010
0000
0100
0000
,
1000
1001
0001
0010
,
1000
0000
0001
0010
0000
0100
0010
0001
,
1000
0000
0010
0100
0000
0100
0010
1000
,
0001
1000
0001
1000
0100
0000
0110
0000
,
0010
0001
0101
1001
,
0100
0000
0010
0001
0000
0001
0010
0100
,
1000
0000
0001
1000
0000
0010
0100
0000
,
0001
0001
1000
1000
0010
0000
0110
0000
,
1001
2002
0000
3003
,
1000
0100
0010
0001
0200
0000
0310
0000
,
1000
0010
0100
0000
0001
0100
0010
1000
,
0100
0010
0001
1000
0020
0000
0130
0001
,
2000
0000
3200
0000
0320
0000
0031
0010
,
0100
1000
0001
1000
0020
0000
0130
0000
,
0001
0100
0010
0000
1000
0100
1000
0001
,
0010
0000
0100
0000
0001
0000
0100
1000
,
2002
0000
3003
0000
0001
0100
0000
0000
;

//---------------dance-single - ----------------
#NOTES:
     dance-single:
     :
     Challenge:
     9:
     0.637,0.632,0.299,0.106,0.371:
0000
0000
0000
0000
,
0000
0000
0000
0000
,
0100
0001
0010
0100
1000
0100
0001
0100
,
1000
0010
0100
0001
0010
1000
0010
0001
,
1000
1000
0100
0100
0010
0001
0100
1000
,
0100
0100
0010
0010
1000
0100
0001
0100
,
0010
0001
0100
0001
1000
0010
0001
0010
,
1000
0100
0010
0100
0001
0100
1000
0001
,
0200
0000
1000
0000
0010
0000
0301
0100
,
0020
0000
0001
0000
0100
0000
1030
0001
,
2002
0000
0000
0000
,
0000
0000
3003
0000
1000
0001
0000
0000
,
0100
0000
0001
0000
0010
0001
0010
0001
0000
0000
1000
0000
0100
0010
0100
0000
,
1000
0000
0001
0000
1000
0000
0010
0100
0000
0001
0100
0001
0010
0000
0100
1000
,
0001
0000
0001
0000
0100
0001
0100
0001
0000
0000
1000
0000
0010
0000
0100
0001
,
0010
0000
0000
0100
0000
0000
0001
0000
0000
1000
0000
0010
0001
0000
1000
0000
,
0010
0000
0100
0000
0001
1000
0001
1000
0000
0000
0010
0000
0100
0001
1000
0000
,
0100
0000
1000
0000
0001
0000
0010
0001
0000
1000
0001
0100
0010
0000
1000
0010
,
0100
0000
0001
0100
0000
0010
1000
0000
0001
1000
0000
0100
0010
0000
0001
0000
,
2002
0000
0000
0000
3003
0000
0000
1000
0100
0000
0020
0000
0000
0000
0030
0000
,
0001
0001
0100
0100
1000
1000
0100
0001
,
1000
0000
0000
0001
0000
0000
0010
0000
0100
0000
0001
0000
0100
0000
1000
0000
,
0000
0001
0010
0010
1000
1000
0010
0001
,
1000
0000
0000
0001
0000
0000
0100
0000
0000
0010
1000
0010
0100
0000
0001
1000
,
0100
0100
0010
0010
1000
0010
0001
0100
,
0010
0000
0000
1000
0000
0000
0001
0000
0010
0000
1000
0000
0010
0000
0001
0000
,
0000
0100
0010
0010
0001
0010
1000
0100
,
0010
0000
0000
0001
0000
0000
1000
0000
0001
0000
0000
0000
1001
0000
0000
0000
,
1000
0100
0001
0100
1000
0000
1001
0000
,
0001
0010
1000
0010
0001
0000
1001
0000
,
0001
0100
0010
1000
0100
0001
0100
1000
,
0001
0000
0100
0000
0010
0000
1000
0010
0000
0100
0001
0100
0010
0000
1000
0100
,
0010
0001
1000
0100
0010
0000
0011
0000
,
0001
0100
0010
1000
0001
0000
0101
0000
,
0100
0010
0100
0001
1000
0100
0010
0000
,
1001
0000
1010
0101
,
1001
0000
0000
0000
1000
0000
0100
0000
0000
0000
0010
0001
0000
0010
0001
0000
,
1000
0000
0000
0000
0010
0000
0100
0000
0000
0001
0100
0001
1000
0000
0100
0000
,
0010
0001
1000
0010
0110
0000
0101
0000
,
1001
1100
0110
1001
,
0001
0000
0100
0000
0010
0000
1000
0000
0000
0000
0001
1000
0000
0001
1000
0000
,
0100
0000
0010
0000
0001
0000
1000
0000
0000
0100
0010
0100
0010
0000
0001
0000
,
0010
0100
1000
0100
0010
0000
0011
0000
,
1001
0000
1001
0000
1000
0100
0010
0000
,
0011
0000
0000
0000
0001
0000
1000
0000
0000
0000
0010
1000
0000
0010
1000
0000
,
0001
0000
0000
0000
0100
0000
0010
0000
0000
1000
0010
1000
0001
0000
0100
0000
,
0001
1000
0100
0010
0011
0000
1001
0000
,
1100
0101
1010
0011
,
0001
0000
0010
0000
1000
0000
0010
0000
0000
0000
0100
0010
0000
0100
0010
0000
,
0001
0000
1000
0000
0100
0000
0010
0000
0000
0001
0010
0001
1000
0000
0100
0000
,
0010
0010
0001
0001
0100
0000
0110
0000
,
1010
2002
0000
3003
,
0001
0000
0100
0000
0010
1000
0010
1000
0000
0000
0001
0000
0010
0100
0010
0000
,
0001
0000
1000
0000
0100
0000
0010
0001
0000
0100
0001
0100
0010
0000
1000
0010
,
0100
0000
0001
0000
1000
0001
1000
0001
0000
0000
0010
0000
0100
0000
1000
0100
,
0010
0000
0000
0001
0000
0000
0100
0000
0000
1000
0000
0100
0001
0000
0010
0001
,
0010
0000
0100
0000
1000
0100
1000
0100
0000
0000
0010
0000
0001
1000
0001
0000
,
0100
0000
0010
0000
1000
0000
0010
0100
0000
0001
0100
0001
1000
0000
0100
1000
,
0100
0000
0010
0100
0000
0010
0001
0000
1000
0001
0000
0100
0010
0000
1000
0000
,
2002
0000
3003
0000
0100
0010
0000
0000
;

//---------------dance-single - ----------------
#NOTES:
     dance-single:
     :
     Beginner:
     2:
     0.147,0.201,0.116,0.039,0.000:
0000
0000
0000
0000
,
0000
0000
0000
0000
,
1001
0000
0000
0000
,
0000
0000
0000
0000
,
0100
0000
0000
0000
,
0010
0000
0000
0000
,
1000
0000
0000
0000
,
0000
0000
0000
0000
,
0002
0000
0000
0003
,
2000
0000
0000
3000
,
2002
0000
0000
0000
,
0000
0000
3003
0000
,
0001
0000
0001
0000
,
1000
0000
1000
0000
,
0100
0000
0100
0000
,
0010
0000
0000
0001
,
0001
0000
0001
0000
,
1000
0000
1000
0000
,
0010
0000
0000
0100
,
0100
0000
0000
0000
,
0001
0000
0100
0000
,
0001
0000
0000
0000
,
1000
0000
0100
0000
,
1000
0000
0000
0000
,
0001
0000
0010
0000
,
0001
0000
0000
0000
,
1000
0000
0010
0000
,
1000
0000
0000
0000
,
0001
0000
1000
1000
,
1000
0000
0001
0001
,
0001
0000
0100
0000
,
0001
0000
0000
0000
,
1000
0000
0001
0001
,
0001
0000
1000
1000
,
1000
0000
0010
0000
,
1000
0000
0000
0000
,
1001
0000
0000
0000
,
0110
0000
0000
0000
,
0100
0000
0100
0000
,
0001
0000
0001
0000
,
1001
0000
0000
0000
,
0110
0000
0000
0000
,
0010
0000
0010
0000
,
0001
0000
1000
0000
,
1001
0000
0000
0000
,
0110
0000
0000
0000
,
0100
0000
0100
0000
,
0001
0000
0001
0000
,
1001
0000
0000
0000
,
0110
0000
0000
0000
,
0010
0000
0001
0000
,
1001
0000
0000
0000
,
1000
0000
1000
0000
,
0001
0000
0001
0000
,
0100
0000
0100
0000
,
0010
0000
0000
1000
,
1000
0000
1000
0000
,
0001
0000
0001
0000
,
0010
0000
0000
0100
,
0100
0000
0110
0000
;
