#TITLE:HORIZON;
#SUBTITLE:;
#ARTIST:LIA;
#TITLETRANSLIT:;
#SUBTITLETRANSLIT:;
#ARTISTTRANSLIT:;
#CREDIT:Xythar;
#BANNER:HORIZON-bn.avi;
#BACKGROUND:HORIZON-bg.png;
#LYRICSPATH:;
#CDTITLE:Beatmania IIDX.png;
#MUSIC:HORIZON.mp3;
#OFFSET:-1.783;
#SAMPLESTART:75.980;
#SAMPLELENGTH:22.404;
#SELECTABLE:YES;
#BPMS:0.000=171.000;
#STOPS:208.000=1.053
;
#BGCHANGES:-7.875=HORIZON.avi=1.000=1=1=0,
99999=-nosongbg-=1.000=0=0=0 // don't automatically add -songbackground-
;

//---------------dance-single - ----------------
#NOTES:
     dance-single:
     :
     Hard:
     8:
     0.507,0.551,0.115,0.077,0.000:
0000
0000
0000
0000
,
0000
0000
0000
0000
,
0000
0000
0000
0000
,
0000
0000
0000
0000
,
1000
0000
0001
0000
1000
0010
0100
0000
,
0010
1000
0001
1000
0100
0000
0010
0000
,
0001
0000
0100
0000
0010
0100
0001
0000
,
1000
0100
0010
0100
1000
0000
0010
0000
,
0100
0000
0001
0000
0010
0100
0010
0000
,
0001
1000
0010
1000
0001
0000
0100
0000
,
0010
0000
1000
0000
0100
0010
0001
0000
,
0100
0010
1000
0001
1000
0000
0100
0000
,
0011
0000
1100
0000
0010
0100
0001
0000
,
0100
0010
1000
0010
0000
1000
0100
1000
,
0001
0000
0100
0000
0010
1000
0001
0000
,
0010
0100
1000
0010
0000
0100
0001
0100
,
0010
0000
1100
0000
0001
0100
0010
0000
,
1000
0100
0010
0100
1000
0000
0001
0000
,
1000
0000
0001
0100
0001
0100
0010
1000
,
0010
1000
0100
0010
0001
1000
0010
0100
,
0001
0000
0000
0001
0000
0000
1000
0000
,
0100
0000
0000
0100
0000
0000
0001
0000
,
0100
0000
0000
0100
0000
0000
1000
0000
,
0010
0000
0000
0010
0000
0000
1000
0000
,
0100
0000
0000
0200
0000
0000
0010
0000
,
1000
0000
0000
0310
0000
0000
0001
0000
,
0100
0000
0000
0010
0000
0000
0001
0000
,
0010
0000
0000
1000
0000
0000
0001
0000
,
1000
0000
0010
1000
0001
0000
0010
0000
,
0100
1000
0000
1000
0001
0000
0100
0010
,
0100
0000
0001
0100
0001
0000
1000
0100
,
0000
0100
1000
0001
1000
0000
0010
0100
,
0001
0000
1000
0002
0000
0000
0010
0000
,
0013
0000
0000
0100
0000
1000
0001
1000
,
0001
0000
0100
0010
0000
0010
1000
0001
,
1000
0000
0000
0100
0010
0000
0001
0000
,
1001
0000
0010
0000
0100
0000
0010
1000
,
0000
1000
0000
0100
0010
0000
0001
0000
,
2000
0000
0010
0000
3010
0000
0100
0010
,
0000
0100
0000
0001
0010
0000
1000
0010
,
0002
0000
1000
0000
1003
0000
0010
0100
,
0000
0100
0000
0001
1000
0000
0100
0000
,
0020
0000
0001
0000
0031
0000
0100
0010
,
0000
0100
0000
0001
0100
0000
0001
0000
,
1000
0100
1000
0100
1000
0000
0001
0100
,
0000
0010
1000
0001
0010
0000
1000
0000
,
0010
0100
0010
0100
0010
0000
0001
0100
,
0000
0010
0100
0001
1000
0000
0100
0010
,
0001
0100
1000
0100
0001
0000
1000
0100
,
0000
1000
0010
0100
0001
0000
0001
0000
,
1000
0100
0010
0100
1000
0000
0001
0100
,
0000
0001
1000
0100
1000
0000
0010
0000
,
0101
0000
0001
0010
0100
0010
0001
0100
,
0010
0100
0001
1000
0100
1000
0010
0000
,
0101
0000
0010
1000
0100
0001
0100
1000
,
0010
0001
0010
1000
0100
0010
0001
0000
,
1000
0010
0100
1000
0100
0001
1000
0100
,
0001
0100
1000
0010
0100
0001
0010
0000
,
1100
0000
0010
0100
0001
0100
0010
1000
,
0100
0010
0001
1000
0010
0100
0001
1000
,
0001
1000
0200
0000
1000
0000
0310
0000
,
0100
1000
0001
0100
0001
1000
0100
0000
,
0011
0200
0001
0310
,
0001
1000
0010
1000
0001
0010
0001
0000
,
1100
0000
0010
0100
0001
0100
1000
0100
,
0010
1000
0100
0010
0001
1000
0100
0000
,
0011
0000
0100
1000
0010
1000
0001
0100
,
1000
0100
0010
0100
0001
0010
0100
0000
,
1001
0000
0010
0100
0001
0000
1000
0100
,
0010
0001
0000
1000
0000
0010
0100
0000
,
1001
0000
0100
1000
0010
0000
0100
1000
,
0100
0010
0000
1000
0000
0001
0010
0000
,
1100
0000
0001
0010
0100
0000
1000
0010
,
0100
0001
0000
1000
0000
0001
1000
0000
,
0110
0000
0001
0100
0010
0000
1000
0100
,
0010
0001
1000
0000
0010
0100
0001
0100
,
0010
0000
2100
0000
0000
0000
0000
0001
,
0000
0000
3001
0000
0100
0010
0000
0100
,
0001
1000
0200
0000
0000
0000
0000
0010
,
0000
0010
0310
0000
0001
0100
0010
0000
,
1000
0100
0020
0000
0000
0000
0000
0001
,
0000
0000
0130
0000
0000
0000
0000
0001
,
0100
0010
1000
0000
0000
0000
0000
0100
,
0000
1000
0001
0000
1000
0010
0100
0001
,
1000
0100
1000
0000
1000
0000
0000
0000
;

//---------------dance-single - ----------------
#NOTES:
     dance-single:
     :
     Medium:
     6:
     0.384,0.486,0.184,0.046,0.000:
0000
0000
0000
0000
,
0000
0000
0000
0000
,
0000
0000
0000
0000
,
0000
0000
0000
0000
,
0001
0001
0000
1000
,
0010
0000
0100
0000
0001
1000
0100
0000
,
1000
1000
0010
0100
,
0001
0000
0010
0000
0100
1000
0001
0000
,
1000
1000
0010
0100
,
0010
0000
1000
0000
0100
0010
0001
0000
,
1000
0010
0001
0010
,
1000
0000
0100
0000
0010
0001
1000
0000
,
0010
0010
0100
0001
,
2000
0000
0000
3100
0000
0000
0010
0000
,
0001
1000
0010
0100
,
0002
0000
0000
1003
0000
0000
0100
0000
,
0010
0011
0100
1000
,
0020
0000
0000
0130
0000
0000
0001
0000
,
0001
1000
0001
1000
,
0001
1000
0001
1000
0001
1000
0001
1000
,
0001
0000
0000
1000
0000
0000
0000
0000
,
0100
0000
0010
0000
,
0001
0000
0000
0100
0000
0000
0000
0000
,
0010
0000
1000
0000
,
0100
0000
0000
1000
0000
0000
0001
0000
,
1000
0000
0000
0001
0000
0000
1000
0000
,
0001
0000
0000
0000
,
0010
0000
0000
0000
0000
0100
0000
0100
,
0100
0000
0000
0000
0000
1000
0000
0000
,
0001
0000
0000
0000
0000
1000
0000
0010
,
0010
0000
0000
0000
0000
0100
0000
0001
,
0001
0000
0000
0000
0000
0010
0000
0000
,
0100
0000
0000
0000
0000
1000
0000
0000
,
0010
0000
0000
0000
0000
1000
0000
0100
,
0100
0000
0000
0000
0000
1000
0000
0001
,
0001
0000
0100
0010
,
0100
0000
0001
0000
0010
0000
0100
1000
,
0000
0001
0000
0000
1000
0000
0100
0000
,
1000
0000
0010
0000
0100
0000
1000
0100
,
0000
0010
0000
0000
1000
0000
0001
0000
,
1000
0000
0100
0000
0010
0000
0001
1000
,
0000
0001
0000
0000
1000
0000
0100
0000
,
1000
0000
0010
0000
0100
0000
0001
0100
,
0000
1000
0000
0000
0100
0000
0001
0000
,
1000
0000
0100
0000
0010
0000
0001
1000
,
0000
1000
0000
0100
1000
0000
0010
0000
,
0100
0000
1000
0000
0100
0000
0010
1000
,
0000
1000
0000
0100
0010
0000
0001
1000
,
0001
0000
0001
0000
0001
0000
0010
0100
,
0000
0100
0000
0010
0001
0000
0100
0000
,
0010
0000
0010
0000
0010
0000
1000
0100
,
0000
1000
0000
0001
1000
0000
0001
1000
,
0001
1000
0110
0001
,
0110
1000
0001
0100
,
0010
1000
0100
0000
1001
0000
0010
0000
,
1001
0000
0100
0000
0010
0001
1000
0000
,
0010
1000
0100
0000
0011
0000
0100
0000
,
1010
0100
1001
1001
,
0100
0010
0001
0000
1010
0000
0100
0000
,
0011
0000
0100
1000
0001
1000
0100
0000
,
1000
1010
0101
0101
,
0010
1000
0001
0000
1000
0100
1000
0000
,
1000
0101
1010
1010
,
0100
0010
0001
0000
0001
0010
0100
0000
,
1000
1010
0101
0101
,
1000
0100
0010
0000
0010
0100
1000
0000
,
0001
1100
0110
0110
,
0100
1000
0001
1000
0100
0000
1000
0010
,
0100
0010
1000
0000
0100
0000
0010
0000
,
0001
1000
0000
0000
0010
0000
0100
0000
,
0001
1000
0100
0010
,
0100
1000
0000
0001
0000
0100
0010
0000
,
0100
0001
1000
0100
,
1000
0010
0000
0100
0000
0010
1000
0000
,
0001
0010
0100
0100
,
1000
0001
0000
1000
0000
0001
1000
0000
,
0001
1000
0002
0000
0000
0000
0000
1000
,
0000
0000
1000
0000
0000
0000
0000
0100
,
0000
0100
0103
0000
0000
0000
0000
0010
,
0000
1000
1000
0000
0000
0000
0100
0000
,
0010
0000
0002
0000
0000
0000
0000
1000
,
0000
0100
0103
0000
0000
0000
0010
0000
,
1000
0000
0002
0000
0000
0000
0000
0010
,
0000
1000
1003
0000
0100
0000
0010
0000
,
0001
1001
1000
0000
;

//---------------dance-single - ----------------
#NOTES:
     dance-single:
     :
     Easy:
     3:
     0.227,0.292,0.000,0.000,0.000: // measure 1
0000
0000
0000
0000
,  // measure 2
0000
0000
0000
0000
,  // measure 3
0000
0000
0000
0000
,  // measure 4
0000
0000
0000
0000
,  // measure 5
1000
1000
0000
0100
,  // measure 6
0000
0010
0000
0001
,  // measure 7
1000
0010
0000
0100
,  // measure 8
0000
0001
0000
1000
,  // measure 9
0100
1000
0000
0010
,  // measure 10
0000
0100
0000
0001
,  // measure 11
1000
0100
0000
1000
,  // measure 12
0000
0010
0000
0100
,  // measure 13
0001
0001
0000
1000
,  // measure 14
0000
0100
0000
1000
,  // measure 15
0010
0100
0000
0001
,  // measure 16
0000
0010
0000
0100
,  // measure 17
1000
0001
0000
1000
,  // measure 18
0000
0001
0000
1000
,  // measure 19
0100
0010
0100
0010
,  // measure 20
0001
0100
0010
1000
,  // measure 21
0001
0000
0000
0000
,  // measure 22
0001
0000
1000
0000
,  // measure 23
0100
0000
0000
0000
,  // measure 24
1000
0000
0010
0000
,  // measure 25
0100
0000
0000
0000
,  // measure 26
0001
0000
0000
0000
,  // measure 27
1000
0000
0000
0000
,  // measure 28
0100
0000
1000
0000
,  // measure 29
0010
0000
0000
0000
,  // measure 30
0100
0000
0000
0000
,  // measure 31
0001
0000
1000
0000
,  // measure 32
0100
0000
0010
0000
,  // measure 33
0001
0000
0000
0000
,  // measure 34
1000
0000
0000
0000
,  // measure 35
0010
0000
0000
0000
,  // measure 36
0100
0000
0001
0000
,  // measure 37
1000
0000
0100
0000
,  // measure 38
0010
0000
0001
0000
,  // measure 39
1000
0000
0010
0000
,  // measure 40
0100
0000
0001
1000
,  // measure 41
0001
0000
0010
0000
,  // measure 42
0100
0000
1000
0000
,  // measure 43
0010
0100
0001
0000
,  // measure 44
1000
0000
0100
0000
,  // measure 45
1000
0010
0100
0000
,  // measure 46
0001
0000
1000
0000
,  // measure 47
0100
1000
0010
0000
,  // measure 48
0100
0000
0001
1000
,  // measure 49
0100
1000
0001
0000
,  // measure 50
0100
0000
0010
0000
,  // measure 51
1000
0100
0010
0000
,  // measure 52
0001
0000
1000
0000
,  // measure 53
0010
0100
0001
0100
,  // measure 54
0010
1000
0100
1000
,  // measure 55
0001
0010
0100
1000
,  // measure 56
0010
0100
0010
1000
,  // measure 57
0100
0010
0001
1000
,  // measure 58
0001
1000
0010
0100
,  // measure 59
0010
1000
0100
0010
,  // measure 60
0001
1000
0010
0100
,  // measure 61
0001
1000
0000
0001
,  // measure 62
1000
0100
0000
1000
,  // measure 63
0001
0100
0000
0010
,  // measure 64
1000
0001
1000
0100
,  // measure 65
1000
0010
0000
0100
,  // measure 66
0001
1000
0000
0100
,  // measure 67
1000
0010
0000
0100
,  // measure 68
0000
0001
1000
0100
,  // measure 69
0010
0001
0000
0000
,  // measure 70
1000
0010
0000
0100
,  // measure 71
0001
1000
0000
0000
,  // measure 72
0100
0010
0000
0001
,  // measure 73
0100
0010
0000
0100
,  // measure 74
0001
1000
0000
0100
,  // measure 75
0000
0010
0000
0001
,  // measure 76
1000
0010
0100
0001
,  // measure 77
1000
0100
0000
1000
,  // measure 78
0010
0100
0000
0001
,  // measure 79
1000
0100
0000
1000
,  // measure 80
0001
0100
0000
0010
,  // measure 81
0000
1000
0000
0000
,  // measure 82
0100
0010
0000
0001
,  // measure 83
0000
0100
0000
0010
,  // measure 84
0000
1000
0100
0010
,  // measure 85
0001
1000
1000
0000
;

//---------------dance-single - ----------------
#NOTES:
     dance-single:
     :
     Beginner:
     1:
     0.122,0.162,0.000,0.000,0.000: // measure 1
0000
0000
0000
0000
,  // measure 2
0000
0000
0000
0000
,  // measure 3
0000
0000
0000
0000
,  // measure 4
0000
0000
0000
0000
,  // measure 5
0001
0001
0000
0000
,  // measure 6
0000
0000
0000
0000
,  // measure 7
1000
0000
0000
0000
,  // measure 8
0000
0000
0000
0000
,  // measure 9
0100
0000
0000
0000
,  // measure 10
1000
0000
0000
0000
,  // measure 11
0010
0000
0100
0000
,  // measure 12
0001
0000
1000
0000
,  // measure 13
0001
0001
0000
0000
,  // measure 14
1000
0000
0000
0000
,  // measure 15
0001
0000
0000
0000
,  // measure 16
1000
0000
0000
0000
,  // measure 17
0100
0100
0000
0000
,  // measure 18
0010
0000
0000
0000
,  // measure 19
0001
0000
1000
0000
,  // measure 20
0001
0000
1000
0000
,  // measure 21
0000
0000
0000
0000
,  // measure 22
1000
0000
0100
0000
,  // measure 23
1000
0000
0000
0000
,  // measure 24
0010
0000
0100
0000
,  // measure 25
0001
0000
0000
0000
,  // measure 26
1000
0000
0000
0000
,  // measure 27
0100
0000
0000
0000
,  // measure 28
1000
0000
0000
0000
,  // measure 29
0010
0000
0000
0000
,  // measure 30
0000
0000
0100
0000
,  // measure 31
0001
0000
0000
0000
,  // measure 32
0000
0000
1000
0000
,  // measure 33
0100
0000
0000
0000
,  // measure 34
1000
0000
0000
0000
,  // measure 35
0010
0000
0000
0000
,  // measure 36
0100
0000
0000
0000
,  // measure 37
0001
0000
0001
0000
,  // measure 38
0001
0000
0000
0000
,  // measure 39
1000
0000
1000
0000
,  // measure 40
1000
0000
0100
0000
,  // measure 41
0100
0000
0000
0000
,  // measure 42
0010
0000
0000
0000
,  // measure 43
0001
0000
0000
0000
,  // measure 44
1000
0000
0000
0000
,  // measure 45
0001
0000
0000
0000
,  // measure 46
0000
0000
0001
0000
,  // measure 47
0001
0000
1000
0000
,  // measure 48
1000
0000
0100
0000
,  // measure 49
0010
0000
0000
0000
,  // measure 50
0000
0000
0001
0000
,  // measure 51
0100
0000
0010
0000
,  // measure 52
1000
0000
0000
0000
,  // measure 53
0000
1000
0000
0100
,  // measure 54
0000
1000
0000
0010
,  // measure 55
0000
0100
0000
0010
,  // measure 56
0000
1000
0000
0100
,  // measure 57
0000
0010
0000
0001
,  // measure 58
0000
0100
0000
0010
,  // measure 59
0000
0100
0000
0001
,  // measure 60
0000
1000
0000
0001
,  // measure 61
0000
1000
1000
0000
,  // measure 62
0000
0001
0000
0000
,  // measure 63
0000
1000
0000
0010
,  // measure 64
0000
0100
0000
0010
,  // measure 65
0000
1000
0000
0000
,  // measure 66
0000
0100
0000
0000
,  // measure 67
0000
0010
0000
0001
,  // measure 68
0000
1000
0000
0001
,  // measure 69
0000
1000
0000
0000
,  // measure 70
0000
0001
0000
0000
,  // measure 71
0000
1000
0000
0000
,  // measure 72
0000
0010
0000
0100
,  // measure 73
0000
0001
0000
0000
,  // measure 74
0000
0010
0000
0000
,  // measure 75
0000
0100
0000
0000
,  // measure 76
0000
1000
0000
0000
,  // measure 77
0000
0010
0000
0000
,  // measure 78
0000
0100
0000
0001
,  // measure 79
0000
1000
0000
0000
,  // measure 80
0000
0100
0000
1000
,  // measure 81
0000
0001
0000
0000
,  // measure 82
0000
0100
0000
0000
,  // measure 83
0000
0010
0000
0000
,  // measure 84
0000
1000
0000
0001
,  // measure 85
0000
1000
1000
0000
;
