#TITLE:Grateful Journey;
#SUBTITLE:;
#ARTIST:Do as Infinity;
#TITLETRANSLIT:;
#SUBTITLETRANSLIT:;
#ARTISTTRANSLIT:;
#CREDIT:Xythar;
#BANNER:Grateful Journey-bn.png;
#BACKGROUND:Grateful Journey-bg.png;
#LYRICSPATH:;
#CDTITLE:daiseries.png;
#MUSIC:Grateful Journey.mp3;
#OFFSET:-0.339;
#SAMPLESTART:55.179;
#SAMPLELENGTH:21.937;
#SELECTABLE:YES;
#DISPLAYBPM:175.000;
#BPMS:0.000=174.930,243.500=1399.440,251.500=174.930;
#STOPS:251.500=0.343
;
#BGCHANGES:;

//---------------dance-single - ----------------
#NOTES:
     dance-single:
     :
     Hard:
     9:
     0.643,0.659,0.382,0.053,0.000:
0000
0000
0000
0000
,
0000
0000
0000
0000
,
1000
0000
0000
0001
0000
0000
1000
0000
,
0001
0000
1000
0000
0001
0010
0100
0000
,
1000
0000
0010
0000
1000
0001
1000
0000
,
0100
0000
0010
0000
0001
0010
0001
0000
,
0100
0000
0010
0000
0100
0001
1000
0000
,
0100
0000
1000
0000
0010
0100
0001
0000
,
1000
0100
0010
0000
0001
0100
0010
0000
,
1000
0001
0010
0000
0100
1000
0001
0000
,
1000
0010
0100
0000
0001
0010
0100
0000
,
0010
0001
1000
0000
0010
0100
0001
1000
,
0001
0000
0010
0100
1000
0010
0100
0000
,
0001
0000
1000
0100
0010
0100
0010
0000
,
0001
0000
1000
0010
0100
0000
0001
1000
,
0100
0000
0010
0001
1000
0001
0100
0000
,
1001
0000
1000
0100
0011
0000
0001
0100
,
1010
0000
1000
0100
0011
0000
0001
0100
,
1010
0000
0001
0010
0100
1000
0001
0000
,
1000
0010
0100
0001
0010
0100
1000
0000
,
0010
0100
0001
0100
0010
0000
1000
0000
,
0001
0010
0100
0010
0001
0000
1000
0000
,
0010
0100
0001
1000
0100
0000
0010
0001
,
1000
0000
0010
0100
0001
0100
0010
0000
,
1001
0000
0010
0100
1001
0000
0100
0010
,
1001
0000
0010
0100
1001
0000
0100
0010
,
1001
0000
0010
0100
0001
0100
0010
0000
,
1000
0100
1000
0001
1000
0010
0100
0000
,
0001
0010
0100
1000
0000
0001
0100
0010
,
0100
0001
0000
1000
0100
0010
0100
0010
,
0001
0100
0010
1000
0000
0100
0010
0001
,
0010
0100
0000
1000
0010
0100
0010
0100
,
0001
0010
0100
1000
0000
0010
0100
0001
,
0100
0010
0000
0100
0001
1000
0001
1000
,
1001
0000
0010
0011
0000
0100
1000
0000
,
0101
0000
0010
1010
0000
0100
0001
0000
,
1100
0000
0000
0011
0000
0000
1001
0000
,
0101
0000
0000
1010
0000
0000
0110
0000
,
0101
0000
0000
1100
0000
0000
1001
0000
,
0011
0000
0000
0000
0001
0010
0100
1000
,
0012
0000
0100
0000
1003
0000
0010
0100
,
0001
1100
0001
0100
,
1010
0000
0001
0010
0000
0100
1000
0001
,
0100
0000
0010
1000
0001
1000
0100
0000
,
0012
0000
1000
0000
0103
0000
0010
1000
,
0002
0000
0100
0000
1003
0000
0010
0100
,
0001
0000
1000
0100
0000
0100
1000
0000
,
0001
1000
0110
0000
1000
0001
0110
0000
,
0010
1000
0001
1000
0100
0000
0010
0001
,
1000
0000
0010
0100
0001
0100
0010
1000
,
0100
0000
0010
0001
0000
0001
1000
0010
,
1000
0000
0001
0100
0010
1000
0100
0000
,
0021
0000
0100
0000
0031
0000
1000
0010
,
0200
0000
0001
0000
0310
0000
1000
0100
,
0010
0000
0001
0100
0010
0100
0001
0000
,
0100
1000
0101
0000
0100
0001
1100
0000
,
0001
0010
0100
1000
0010
0100
0001
0000
,
1000
0100
0010
0001
0100
0010
1000
0000
,
0001
0100
0010
1000
0000
0100
0020
0000
,
0000
0000
0000
0000
,
0000
0000
0000
0000
,
0000
0000
0000
0000
,
0000
0000
0000
0000
0000
0000
0000
0030
,
1000
0100
0010
0001
1000
0010
0100
0010
,
1000
0100
0010
0000
0001
0100
0010
0100
,
0001
0010
0100
0000
1000
0001
0100
0001
,
1000
0100
0010
0000
0001
1000
0010
1000
,
0001
0010
0100
0000
1000
0010
0100
0010
,
1000
0100
0010
0001
1000
0001
0010
0001
,
1000
0010
0100
0000
0001
0010
0100
1000
,
0010
0100
0010
1000
0001
1000
0100
0010
,
0001
0100
0010
0000
1000
0100
0010
0001
,
0100
0010
0100
0001
0010
0100
1000
0010
,
0100
0001
1000
0001
1000
0100
0010
0001
,
1000
0010
0100
0010
1000
0001
0010
0100
,
1000
0001
1000
0000
0001
0100
0010
1000
,
0100
0010
0100
0010
0001
0100
0010
1000
,
0100
0010
0100
0010
0001
0100
0010
1000
,
0100
0010
0100
0010
0001
0000
0000
1100
,
0000
0000
0101
0000
0010
0000
0000
1001
,
0000
0000
0100
0000
1010
0000
0000
1100
,
0000
0000
0011
0000
1001
0000
0000
0110
,
0000
0101
1001
0000
;

//---------------dance-single - ----------------
#NOTES:
     dance-single:
     :
     Medium:
     6:
     0.473,0.513,0.187,0.160,0.000:
0000
0000
0000
0000
,
0000
0000
0000
0000
,
0001
0000
0000
0001
0000
0000
1000
0000
,
1000
1000
0001
0000
,
1000
0100
0010
0001
,
1000
0010
0100
0001
,
1000
0100
1000
0001
,
0100
0010
0100
0001
,
0010
0100
1000
0010
,
0100
0010
1000
0100
,
0010
0001
1000
0010
,
1000
0000
0001
0000
1000
0100
1000
0100
,
1000
0000
0001
0100
0010
0000
1000
0000
,
1000
0000
0100
0010
0001
0000
0100
0000
,
0100
0000
0010
0100
0001
0000
1000
0000
,
1000
0100
0010
0001
,
1001
0010
0101
0010
,
1100
0001
0110
1000
,
0110
0001
0100
0010
,
1000
0100
0010
0000
0001
0100
0010
0000
,
0100
0000
0001
0000
0001
0000
1000
0100
,
0010
0000
0001
0000
0001
0000
1000
0010
,
0100
0000
0001
0000
1000
0000
0001
1000
,
0001
0000
1000
0000
0001
1000
0001
0000
,
0010
0101
0010
1100
,
0010
1001
0100
0011
,
0100
0000
1000
0100
1000
0000
0001
0000
,
0100
0010
0100
0000
0001
0100
0001
0000
,
1000
0001
1000
0000
0200
0000
0010
0000
,
0320
0001
0032
1000
,
1003
0010
1000
0000
0020
0000
0100
0000
,
0230
0001
0302
1000
,
1003
0100
1000
0000
0002
0000
0010
0000
,
0023
0100
0230
1000
,
1300
0001
1000
0001
0000
0000
1100
0000
,
0001
0100
0001
0100
0000
0000
1010
0000
,
0100
0000
0000
0010
0000
0000
1001
0000
,
0010
0000
0000
0100
0000
0000
1001
0000
,
0100
0000
0000
0010
0000
0000
0011
0000
,
1000
0000
0000
0000
0010
0100
0001
0100
,
0020
1000
1030
0100
,
0010
0000
0100
0000
1000
0000
0001
0100
,
0010
0000
1000
0001
0000
1000
0000
0001
,
0000
0000
0100
0010
1000
0000
0100
0000
,
0020
0001
0031
1000
,
0020
0100
0130
0010
,
1000
0000
0001
1000
0000
1000
0001
0000
,
1000
0100
1000
0000
0001
0100
0001
0000
,
2000
0010
3010
0100
,
0001
0000
1000
0000
0100
0000
0010
0001
,
1000
0000
0010
0100
0000
0001
0000
1000
,
0000
0100
0010
0001
,
2000
0001
3001
0010
,
0200
0010
0310
0001
,
0100
0000
0010
0100
0000
0100
0010
0000
,
1000
0010
1000
0000
0001
0010
0001
0000
,
2000
0100
3100
0010
,
0002
0000
0100
0000
0103
0000
0010
1000
,
0001
0000
0001
1000
0000
1000
0002
0000
,
0000
0000
0000
0000
,
0000
0000
0000
0000
,
0000
0000
0000
0000
,
0000
0000
0000
0000
0000
0000
0000
0003
,
0000
0000
1000
0100
,
0010
0001
1000
0010
,
0100
0010
1000
0100
,
0010
0100
1000
0010
,
0100
0001
1000
0001
,
0100
0010
1000
0100
,
0010
0001
0100
0010
,
0100
0001
0010
0100
,
1000
0001
1000
0001
,
0100
0010
1000
0000
0100
0000
0010
0000
,
0001
0100
0001
0000
0010
0000
0100
0000
,
1000
0001
1000
0000
0010
0000
0100
0000
,
0001
1000
0100
0000
1000
0000
0001
0000
,
0100
0010
1000
0000
0010
0000
0100
0000
,
0001
0010
0100
0000
1000
0000
0010
0000
,
0100
0001
1000
0000
0001
0000
0000
0001
,
0000
0000
0001
0000
1000
0000
0000
1000
,
0000
0000
1000
0000
0101
0000
0000
0101
,
0000
0000
0101
0000
1001
0000
0000
1001
,
0000
1001
1100
0000
;

//---------------dance-single - ----------------
#NOTES:
     dance-single:
     :
     Easy:
     3:
     0.251,0.330,0.169,0.000,0.000:
0000
0000
0000
0000
,
0000
0000
0000
0000
,
1000
0000
0000
0000
,
0001
0000
1001
0000
,
1000
0000
0010
0000
,
0100
0000
0010
0000
,
0100
0000
0001
0000
,
1000
0000
0100
0000
,
1000
0000
0001
0000
,
0100
0000
0010
0000
,
1000
0000
0100
0000
,
0010
0000
0001
0000
,
1000
0001
1000
0000
,
0001
1000
0001
0000
,
1000
0000
0010
0000
,
0100
0001
1000
0000
,
0100
0000
1001
0000
,
0100
0000
1001
0000
,
0100
0000
0001
0000
,
1000
0100
1000
0000
,
0001
0100
0001
0000
,
1000
0000
0100
0000
,
1000
0010
1000
0000
,
0001
0000
0100
0000
,
0001
0000
0110
0000
,
1000
0000
0110
0000
,
0001
0000
0100
0000
,
0010
0100
0010
0000
,
0100
0000
0001
0000
,
0001
0000
1000
0000
,
0100
0000
0100
0000
,
0100
0000
0100
0000
,
0010
0000
0010
0000
,
0010
0000
0010
0000
,
1001
0000
0000
0000
,
0110
0000
0000
0000
,
1001
0000
0001
0000
,
1001
0000
1000
0000
,
1001
0000
0100
0000
,
0010
0000
0000
0000
,
0001
0000
0100
0000
,
0010
0000
0100
0000
,
0001
0000
1000
0000
,
0100
0000
1000
0000
,
0001
0000
0000
0000
,
1000
0000
0000
0000
,
0010
0000
0100
0000
,
1001
0000
1001
0000
,
0100
0000
0010
0000
,
0001
0000
0100
0010
,
0100
0000
0001
0100
,
0001
0000
1000
0000
,
0100
0000
1000
0000
,
0010
0000
0100
0000
,
0001
1000
0001
0000
,
1001
0000
1001
0000
,
1000
0000
0100
0000
,
0010
0000
0001
0000
,
1000
0010
0100
0010
,
0000
0000
0000
0000
,
0000
0000
0000
0000
,
0000
0000
0000
0000
,
0000
0000
0000
0000
,
0000
0000
0100
0001
,
1000
0000
0100
0010
,
0001
0000
0100
0010
,
1000
0000
0100
1000
,
0001
0000
0100
0010
,
1000
0000
0100
0010
,
0001
0000
0100
0010
,
0100
0000
0001
1000
,
0001
0000
0001
0010
,
0100
1000
0010
0100
,
0010
0000
0100
0001
,
1000
0100
0010
0001
,
1000
0000
0001
0100
,
0010
1000
0100
0010
,
0001
1000
0010
0100
,
0001
1000
0001
0000
,
1001
0000
0010
0000
,
0110
0000
0100
0000
,
1001
0000
1000
0000
,
0110
0000
1001
0000
;

//---------------dance-single - ----------------
#NOTES:
     dance-single:
     :
     Beginner:
     1:
     0.145,0.220,0.107,0.000,0.000:
0000
0000
0000
0000
,
0000
0000
0000
0000
,
1000
0000
0000
0000
,
0000
0000
0001
0000
,
1000
0000
0000
0000
,
0100
0000
0000
0000
,
0010
0000
0000
0000
,
0001
0000
0000
0000
,
0100
0000
0000
0000
,
0010
0000
0000
0000
,
0100
0000
0000
0000
,
0001
0000
0000
0000
,
1000
0000
0000
0000
,
0100
0000
0000
0000
,
1000
0000
0000
0000
,
0010
0000
0100
0000
,
1001
0000
0000
0000
,
0110
0000
0000
0000
,
1001
0000
0000
0000
,
0110
0000
0000
0000
,
0001
0000
0000
0000
,
1000
0000
0000
0000
,
0100
0000
1000
0000
,
0010
0000
0000
0000
,
0110
0000
0000
0000
,
1001
0000
0000
0000
,
0110
0000
0000
0000
,
1001
0000
0000
0000
,
0000
0000
0010
0000
,
0010
0000
0010
0000
,
0000
0000
1000
0000
,
1000
0000
1000
0000
,
0000
0000
0100
0000
,
0100
0000
0100
0000
,
0010
0000
0010
0000
,
0001
0000
1000
0000
,
0001
0000
0000
0000
,
1000
0000
0000
0000
,
1001
0000
0000
0000
,
0010
0000
0000
0000
,
0100
0000
0001
0000
,
1000
0000
0000
0000
,
0100
0000
0010
0000
,
0001
0000
0000
0000
,
1000
0000
0000
0000
,
0001
0000
0000
0000
,
1000
0000
0001
0000
,
1000
0000
1000
0000
,
0001
0000
0000
0000
,
0010
0000
0000
0000
,
0100
0000
1000
0000
,
0001
0000
0000
0000
,
1000
0000
0000
0000
,
1000
0000
0000
0000
,
0010
0000
0000
0000
,
0100
0000
0001
0000
,
1000
0000
0000
0000
,
0001
0000
0000
0000
,
0010
0000
0000
0000
,
0100
0000
0000
0000
,
0000
0000
0000
0000
,
0000
0000
0000
0000
,
0000
0000
0000
0000
,
0000
0000
1000
0000
,
0010
0000
0100
0000
,
0000
0000
0100
0000
,
0001
0000
1000
0000
,
0000
0000
0100
0000
,
0010
0000
0001
0000
,
0000
0000
1000
0000
,
0010
0000
0100
0000
,
0000
0000
0001
0000
,
0010
0000
0100
0000
,
1000
0000
0010
0000
,
0100
0000
0010
0000
,
1000
0000
0100
0000
,
0010
0000
0001
0000
,
1000
0000
0010
0000
,
0100
0000
0001
0000
,
0000
0000
1001
0000
,
0000
0000
0110
0000
,
0000
0000
1001
0000
,
0000
0000
0001
0000
;

//---------------dance-single - ----------------
#NOTES:
     dance-single:
     :
     Challenge:
     11:
     0.830,0.989,0.133,0.053,0.342: // measure 1
0000
0000
0000
0000
,  // measure 2
0000
0000
0000
0000
,  // measure 3
1000
0100
0100
1000
0010
0010
1000
0001
,  // measure 4
0001
0000
0001
1000
0001
0000
0010
0100
0010
0100
1000
0100
1000
0000
0001
0000
,  // measure 5
1000
0100
0010
0001
0100
0010
0100
0001
,  // measure 6
0010
0100
1000
0010
0100
0001
1000
0001
,  // measure 7
0010
1000
0010
0001
0100
0010
1000
0100
,  // measure 8
0001
0100
1000
0010
0100
0001
1000
0001
,  // measure 9
0010
0100
1000
0010
1000
0100
1000
0010
,  // measure 10
1000
0001
0100
0010
1000
0100
0010
0001
,  // measure 11
0100
1000
0100
0001
0010
1000
0010
0001
,  // measure 12
1000
0000
0100
0000
0010
0000
0001
0100
0001
0000
1000
0001
1000
0001
1000
0001
,  // measure 13
1000
0100
1000
0010
0100
0001
1000
0000
,  // measure 14
0001
0010
0001
1000
0010
0100
0001
0000
,  // measure 15
1000
0010
0100
0001
0010
0100
1000
0000
,  // measure 16
0001
0100
0010
1000
0100
0010
0001
0000
,  // measure 17
1100
0000
0000
0000
0100
1000
0100
1000
0001
0000
M000
0000
0100
0001
0100
0001
,  // measure 18
1000
0000
000M
0000
0010
1000
0010
1000
0001
0000
M000
0000
0010
0001
0010
0001
,  // measure 19
1000
000M
0010
0100
0001
0100
0010
0000
,  // measure 20
1000
0100
0010
0001
0100
0010
1000
0000
,  // measure 21
1001
0000
0001
0010
0100
1000
0001
0000
,  // measure 22
0101
0000
0010
1000
0001
1000
0100
0000
,  // measure 23
0011
0000
0100
1000
0001
1000
0010
0000
,  // measure 24
0100
0001
1000
0000
0001
0010
0100
0000
,  // measure 25
1001
0000
0000
0000
1000
0100
1000
0100
0010
0000
0M00
0000
0001
0100
0001
0100
,  // measure 26
0010
0000
0M00
0000
1000
0001
1000
0001
0010
0000
000M
0000
0100
0010
0100
0010
,  // measure 27
0001
00M0
1000
0010
0100
0001
1000
0000
,  // measure 28
0001
0010
0001
0000
0100
0000
0010
0100
0010
0000
0100
0000
0100
0000
0100
0000
,  // measure 29
0001
0010
0100
0010
0001
0100
0010
0100
,  // measure 30
0001
1000
0100
1000
0001
1000
0010
1000
,  // measure 31
0001
0010
0100
1000
0010
0100
0001
0100
,  // measure 32
0010
1000
0100
0010
0100
1000
0010
0100
,  // measure 33
0001
1000
0001
1000
0100
0001
0100
1000
,  // measure 34
0010
0100
0001
0010
1000
0010
0001
0000
,  // measure 35
1100
0000
1000
0000
0001
0000
0101
0000
0000
0000
0M0M
0000
0010
1000
0010
1000
,  // measure 36
0001
0010
0100
1001
0000
0000
0010
0100
,  // measure 37
0002
0000
0000
0200
0000
0000
1313
0000
,  // measure 38
2000
0000
0000
0200
0000
0000
3311
0000
,  // measure 39
0002
0000
0000
2000
0000
0000
0110
0000
,  // measure 40
3113
0000
0000
0000
0000
MMMM
0000
0000
0001
0010
0001
0010
0100
0010
0100
1000
,  // measure 41
0100
1000
0010
0100
0010
1000
0100
0010
,  // measure 42
0001
0100
1000
0100
0010
1000
0100
0010
,  // measure 43
0001
1000
0010
0100
1000
0100
0001
0010
,  // measure 44
0100
0001
0100
1000
0001
0100
0010
1000
,  // measure 45
0100
0010
0001
0100
0010
0100
0001
0010
,  // measure 46
1000
0010
0100
1000
0010
0100
1000
0100
,  // measure 47
0001
0010
0100
1000
0010
0100
0001
1000
,  // measure 48
0001
0000
0010
0000
11MM
0000
0000
0001
0100
0000
0010
0000
1000
0010
010M
0010
,  // measure 49
1000
0100
0001
0100
1000
0010
0001
0010
,  // measure 50
1000
0100
0001
0100
1000
0010
0001
0010
,  // measure 51
0100
0001
0010
0001
0100
0001
0010
0001
,  // measure 52
1000
0010
1000
0100
1000
0010
1000
0100
,  // measure 53
1000
0010
0100
0001
1000
0100
0010
0001
,  // measure 54
0001
0010
0100
1000
0001
0100
0010
1000
,  // measure 55
1000
0100
0010
0001
1000
0010
0100
0001
,  // measure 56
1000
0100
0010
0000
0001
0010
0M00
0010
0001
0100
0001
0100
0010
0100
0010
1000
,  // measure 57
0001
1000
0100
1000
0001
1000
0010
0100
,  // measure 58
0010
1000
0100
0010
0001
0100
0010
1000
,  // measure 59
0001
0010
0100
0010
0100
1000
0M00
0000
0100
0010
0001
0100
0010
0000
0000
0000
,  // measure 60
0000
MMMM
0000
0000
,  // measure 61
0000
MMMM
0000
0000
,  // measure 62
MMM0
M00M
M00M
MMM0
0000
0MM0
M00M
MMMM
,  // measure 63
M00M
M00M
0000
MMMM
0MM0
0MM0
MMMM
0000
,  // measure 64
1000
0100
0010
0001
0100
0010
0100
0001
1000
0000
0100
0000
0010
0000
0001
0000
,  // measure 65
0100
0010
0100
0010
1000
0001
0010
0100
,  // measure 66
1000
0100
1000
0100
1000
0010
0100
0001
,  // measure 67
0010
0100
0010
0100
1000
0001
0100
0010
,  // measure 68
0100
0001
0100
0001
1000
0100
0010
0001
,  // measure 69
1000
0010
1000
0010
0100
0001
0100
0010
,  // measure 70
1000
0001
1000
0001
0010
0100
0010
0001
,  // measure 71
0100
0010
0100
0010
1000
0001
1000
0100
,  // measure 72
0010
0001
0010
0001
1000
0010
0100
0001
,  // measure 73
0010
0100
01M0
0100
1000
0001
0100
0001
,  // measure 74
1000
0100
M100
0100
0010
0001
0100
0010
,  // measure 75
1000
0001
M001
0001
0010
1000
0010
0001
,  // measure 76
0100
0010
0M10
0010
1000
0001
0010
0100
,  // measure 77
1000
0010
M010
0010
0100
0001
0100
0010
,  // measure 78
1000
0001
M001
0001
1000
0010
0100
0001
,  // measure 79
1000
0000
0100
1000
0100
1000
0001
1000
0001
0M00
1000
0010
1000
0000
1001
0000
,  // measure 80
1000
0100
0010
0100
1000
0000
0001
0100
0010
M000
0010
0100
0001
0000
1100
0000
,  // measure 81
0010
0001
0100
0010
0100
0000
0001
1000
0100
0000
0010
0001
0010
0100
1000
0000
,  // measure 82
0010
0100
0001
0010
0100
0000
1000
0010
0100
0000
0001
0100
0001
1000
0100
00M0
,  // measure 83
1000
0001
0100
0001
1000
0M00
0001
0010
0100
0000
0000
0000
0000
0000
0000
0000
;
