#TITLE:Golden Palms;
#SUBTITLE:;
#ARTIST:Dirty Androids;
#TITLETRANSLIT:;
#SUBTITLETRANSLIT:;
#ARTISTTRANSLIT:;
#CREDIT:Xythar;
#BANNER:Golden Palms.png;
#BACKGROUND:Golden Palms-bg.png;
#LYRICSPATH:;
#CDTITLE:cdtitle.png;
#MUSIC:Golden Palms.ogg;
#OFFSET:-0.367;
#SAMPLESTART:37.278;
#SAMPLELENGTH:14.760;
#SELECTABLE:YES;
#BPMS:0.000=130.000;
#STOPS:;
#BGCHANGES:;

//---------------dance-single - ----------------
#NOTES:
     dance-single:
     :
     Hard:
     8:
     0.513,0.564,0.176,0.248,0.072:
0000
0000
0000
0000
,
0000
0000
0000
0000
,
0000
0000
0000
0000
,
0000
0000
0000
0000
,
0001
0000
0100
0000
0001
0010
0000
1000
,
0010
0000
0001
0100
0010
0000
1100
0000
,
0001
0000
1000
0000
0001
0010
0000
0001
,
0100
0000
1000
0100
0001
0000
0110
0000
,
1000
0000
0100
0000
0010
0001
0000
0100
,
0010
0000
0001
0010
1000
0000
0011
0000
,
0100
0000
1000
0000
0001
0100
0000
0010
,
1000
0000
0000
0000
1000
0000
0000
0001
0000
0001
0000
0000
1000
0000
0001
0000
,
0010
0000
1000
0000
0010
0001
0000
0100
,
0010
1000
0100
1000
0010
0100
0101
0000
,
1100
0000
0001
0000
0100
0010
0000
1000
,
0100
0001
0100
1000
0001
0100
0110
0000
,
1010
0000
0001
0000
1000
0100
0000
0001
,
0100
1000
0010
0100
0001
1000
1010
0000
,
0101
0000
0010
0000
1000
0001
0000
1000
,
0010
0100
1000
0100
0001
0001
0010
0100
,
1000
0000
0010
0000
0100
0001
1000
0001
,
0020
1000
0100
0031
,
1000
0000
0010
0000
0100
0001
0010
0001
,
2000
0001
0100
3010
,
0100
0000
0001
0000
0010
0100
1000
0010
,
0200
1000
0010
0301
,
0020
0000
1000
0000
0100
0000
0031
0100
,
0002
0000
0100
0000
1000
1000
1003
0000
,
0200
0010
0310
0000
0002
1000
1003
0000
,
0020
0100
0130
0000
0002
0010
0013
0000
,
0200
1000
1300
0000
0002
0100
0103
0000
,
0020
0100
0130
0001
1000
0001
1000
1000
,
0002
0100
0103
0010
2000
0001
3001
1000
,
0200
0010
0310
1000
0020
0001
0001
0031
,
0100
0020
1000
1030
0100
0002
0100
0103
,
1000
0010
0100
1000
0100
0001
1000
0000
,
1001
0000
0000
0001
0100
0000
0000
0001
0010
0000
0000
0001
1000
0000
0010
0000
,
0100
1000
0100
0010
0100
1000
0101
0000
,
1001
0000
0000
1000
0010
0000
0000
1000
0100
0000
0000
1000
0001
0000
0100
0000
,
1000
0000
0100
0010
0000
0000
0100
0001
0100
0000
0010
0000
1100
0000
0000
0000
,
0011
0000
0000
0100
1000
0000
0000
0001
0100
0000
0020
0000
1000
0000
1030
0000
,
0100
0001
0100
0010
0100
0001
1100
0000
,
0101
0000
0000
0001
0100
0000
0000
1000
0100
0000
0001
0000
1000
0000
0001
0000
,
0010
1000
0010
0010
0001
0100
0010
1000
,
0001
0010
0100
2000
0000
3010
0100
0002
,
0000
1003
0100
1000
0010
0010
0100
0001
,
0010
1000
0010
0002
0000
1003
0010
0200
,
0000
1300
0100
0001
0010
0010
0100
1000
,
0001
0100
0010
0001
0010
1000
0100
0001
,
0100
0100
1000
1000
0010
0100
1001
0000
,
0100
0010
0001
0100
1000
0100
0001
0010
,
1000
0010
0001
0100
0010
1000
0002
0000
,
0003
0000
0000
0000
;

//---------------dance-single - ----------------
#NOTES:
     dance-single:
     :
     Medium:
     6:
     0.422,0.483,0.227,0.165,0.000: // measure 1
0000
0000
0000
0000
,  // measure 2
0000
0000
0000
0000
,  // measure 3
0000
0000
0000
0000
,  // measure 4
0000
0000
0000
0000
,  // measure 5
1000
0000
0001
0000
0100
0010
0000
1000
,  // measure 6
0100
0000
1000
0001
1000
0000
0020
0000
,  // measure 7
0130
0000
0001
0000
0010
0100
0000
1000
,  // measure 8
0010
0000
0100
0010
0100
0000
0001
0000
,  // measure 9
1000
0000
0100
0000
1000
0010
0000
0100
,  // measure 10
0001
0000
0010
0100
0010
0000
0002
0000
,  // measure 11
1003
0000
0010
0000
0100
0010
0000
1000
,  // measure 12
0100
0000
0100
0000
0010
0001
1000
0000
,  // measure 13
0010
0000
0001
0000
1000
0010
0000
1000
,  // measure 14
0001
0000
0010
0100
0010
0000
1001
0000
,  // measure 15
0100
0000
1000
0000
0001
0100
0000
0010
,  // measure 16
1000
0000
0001
1000
0001
0000
0110
0000
,  // measure 17
0001
0000
0010
0000
0100
1000
0000
0001
,  // measure 18
0100
0000
0010
1000
0010
0000
1001
0000
,  // measure 19
1000
0000
0100
0000
0010
0001
0000
1000
,  // measure 20
0010
0000
0100
0010
0100
0001
0100
0001
,  // measure 21
1000
0000
0001
0000
0010
0000
0100
2000
,  // measure 22
0000
0000
0000
3002
0000
0000
0103
0000
,  // measure 23
0010
0000
1000
0000
0001
0000
1000
0200
,  // measure 24
0000
0000
1300
0020
0000
0130
0001
0000
,  // measure 25
0010
0000
0100
0000
1000
0000
0001
0200
,  // measure 26
0000
0000
0310
2000
0000
0000
3001
0020
,  // measure 27
0000
0000
0130
2000
0000
0000
3010
0200
,  // measure 28
0000
0301
1000
0001
1000
1000
1000
0000
,  // measure 29
0001
0100
0001
0000
1000
0100
1000
0000
,  // measure 30
0001
0010
0001
0000
1000
0010
1000
0000
,  // measure 31
0010
0100
0010
0000
0100
0001
1000
0000
,  // measure 32
0100
1000
0001
1000
0001
0001
1000
0000
,  // measure 33
0001
0100
0020
0000
1030
0100
0020
0000
,  // measure 34
0130
1000
0002
0000
1003
0001
0100
0001
,  // measure 35
1000
1000
0010
0010
,  // measure 36
0200
1000
0010
0301
,  // measure 37
1100
1100
1100
0101
,  // measure 38
1000
1000
1000
0010
,  // measure 39
0101
0101
0101
1100
,  // measure 40
0001
0001
0000
1000
0001
1000
0010
0000
,  // measure 41
0110
0000
1001
0000
0110
0010
0000
0100
,  // measure 42
0001
1100
0101
0010
,  // measure 43
1010
0000
0011
0000
1010
1010
0000
0001
,  // measure 44
0010
0001
1000
1000
1000
0001
0100
0001
,  // measure 45
1000
0000
0100
0000
0010
0001
1000
0001
,  // measure 46
0000
0100
0010
0100
0010
0000
1001
0000
,  // measure 47
0100
0000
1000
0000
0001
0100
0010
0100
,  // measure 48
0000
0001
0010
0001
1000
0000
0010
0000
,  // measure 49
0100
0000
0001
0000
1000
0100
1000
0001
,  // measure 50
0000
0100
0010
0100
0010
0000
1001
0000
,  // measure 51
0100
0000
1000
0000
0001
0100
0010
1000
,  // measure 52
0000
0001
0010
0001
1000
0100
0020
0000
,  // measure 53
0030
0000
0000
0000
;

//---------------dance-single - ----------------
#NOTES:
     dance-single:
     :
     Easy:
     3:
     0.248,0.242,0.000,0.134,0.000: // measure 1
0000
0000
0000
0000
,  // measure 2
0000
0000
0000
0000
,  // measure 3
0000
0000
0000
0000
,  // measure 4
0000
0000
0000
0000
,  // measure 5
1000
0000
1000
0000
,  // measure 6
1000
0001
0001
0001
,  // measure 7
1000
0000
1000
0000
,  // measure 8
1000
0010
0010
0010
,  // measure 9
1000
0000
1000
0000
,  // measure 10
1000
0100
0100
0100
,  // measure 11
1000
0000
1000
0000
,  // measure 12
0001
0001
0001
0001
,  // measure 13
1000
0010
1000
0000
,  // measure 14
1000
0100
1000
0001
,  // measure 15
1000
0010
1000
0000
,  // measure 16
1000
0001
1000
1000
,  // measure 17
0001
0100
0001
0000
,  // measure 18
0001
0010
0001
1000
,  // measure 19
1000
0010
1000
0000
,  // measure 20
0100
0010
0100
0000
,  // measure 21
1000
0001
1000
0001
,  // measure 22
2000
0000
0000
0000
,  // measure 23
3010
0100
0010
0100
,  // measure 24
0020
0000
0000
0000
,  // measure 25
0130
0001
0100
0001
,  // measure 26
0200
0000
0000
0000
,  // measure 27
0320
0000
0000
0000
,  // measure 28
2030
0000
0000
0000
,  // measure 29
3001
1000
0001
0100
,  // measure 30
0010
1000
0200
0000
,  // measure 31
1300
0010
1000
0001
,  // measure 32
2000
0000
3001
1000
,  // measure 33
0010
0100
0010
1000
,  // measure 34
0002
0000
1003
0100
,  // measure 35
1000
1000
0001
0001
,  // measure 36
1000
1000
0001
1000
,  // measure 37
0010
0010
0010
0010
,  // measure 38
0100
0000
0001
0000
,  // measure 39
1000
1000
1000
1000
,  // measure 40
0001
1000
0001
0001
,  // measure 41
0010
0100
0010
0100
,  // measure 42
0001
0001
1000
1000
,  // measure 43
0001
0100
0001
0100
,  // measure 44
0010
0010
1000
1000
,  // measure 45
0001
0100
0010
1000
,  // measure 46
0200
0000
1300
0010
,  // measure 47
0100
0001
0010
0001
,  // measure 48
2000
0000
3010
0100
,  // measure 49
0010
1000
0100
1000
,  // measure 50
0002
0000
1003
0010
,  // measure 51
1000
0001
0010
0001
,  // measure 52
2000
0000
3001
0002
,  // measure 53
0003
0000
0000
0000
;
