#TITLE:Get Out;
#SUBTITLE:;
#ARTIST:AYAKA IKIO;
#TITLETRANSLIT:;
#SUBTITLETRANSLIT:;
#ARTISTTRANSLIT:;
#CREDIT:Xythar;
#BANNER:Get Out.png;
#BACKGROUND:Get Out-bg.png;
#LYRICSPATH:;
#CDTITLE:cdtitle.png;
#MUSIC:Get Out.ogg;
#OFFSET:-0.274;
#SAMPLESTART:73.658;
#SAMPLELENGTH:14.720;
#SELECTABLE:YES;
#BPMS:0.000=130.000;
#STOPS:;
#BGCHANGES:-1.250=Get Out.avi=1.000=1=1=0,
256.000=Get Out-bg.png=1.000=0=0=1,
99999=-nosongbg-=1.000=0=0=0 // don't automatically add -songbackground-
;

//---------------dance-single - ----------------
#NOTES:
     dance-single:
     :
     Hard:
     8:
     0.564,0.564,0.076,0.529,0.261:
0000
0000
0000
0000
,
0000
0000
0000
0000
,
0000
0000
0000
0000
,
0000
0000
0000
0000
,
1000
0000
0000
0001
0000
0000
0200
0000
0000
0000
0010
0000
0000
0310
0000
0000
,
1000
0000
0000
0001
0000
0000
0020
0000
0000
0000
0100
0000
0000
0130
0000
0000
,
1000
0000
0000
0010
0000
0000
0200
0000
0000
0000
1000
0000
0000
1300
0000
0000
,
0100
0000
0000
0001
0000
0000
1000
0000
0000
0000
0001
0000
1000
0000
0010
0000
,
0100
0001
0010
0001
0100
0010
1000
0100
,
2000
0000
3020
0000
0230
0000
0301
0010
,
0001
0100
1000
0100
0001
1000
0100
1000
,
0020
0000
0230
0000
0301
1000
0100
1000
,
0001
0100
0001
0010
0001
1000
0010
1000
,
0002
0000
0203
0000
0320
0000
1030
0100
,
0010
0001
0100
1000
0100
0001
1000
0100
,
2000
0000
3020
0000
0130
0001
1000
0001
,
0010
0000
0000
0100
1000
0000
0001
0000
0100
0000
0000
0010
1000
0000
0001
0000
,
0010
0000
0000
0001
0100
0000
0010
0000
1000
0000
0001
0000
1000
0000
0100
0000
,
1000
0000
0000
0010
0100
0000
0010
0000
1000
0000
0000
0001
0100
0000
0001
0000
,
0010
0000
0000
0100
1000
0000
0001
0000
1000
0000
0010
0000
1000
0000
0001
0000
,
0010
0000
0000
1000
0010
0000
0001
0000
0100
0000
0000
1000
0100
0000
0001
0000
,
1000
0000
0000
0010
0100
0000
0010
0000
1000
0000
0100
0000
1000
0000
0001
0000
,
0021
0000
0130
0000
1000
0010
0100
0010
,
1000
0000
0001
0010
1000
0010
0001
0000
,
1010
0000
0000
0100
0001
0000
1000
0000
0100
0000
0000
0010
0001
0000
1000
0000
,
0010
0000
0000
0100
0001
0000
1000
0000
0100
0000
1000
0000
0010
0000
0000
0000
,
0101
0000
0000
1000
0001
0000
0100
0000
1000
0000
0000
0100
0010
0000
1000
0000
,
0100
0000
0000
0010
0001
0000
0100
0000
0010
0000
0100
0000
0001
0000
0010
0000
,
0100
0000
0000
1000
0010
0000
0100
0000
0001
0000
0000
0010
0100
0000
1000
0000
,
0001
0000
0000
0100
0010
0000
0100
0000
0001
0000
0010
0000
0001
0000
1000
0000
,
1020
0000
0130
0000
0001
1000
0100
0000
,
0001
0000
0100
1000
0010
1000
0001
0000
,
0102
0000
0000
0010
0000
0000
0013
0000
0000
0000
0100
0000
0000
1000
0000
0000
,
0200
0000
0000
0010
0000
0000
0310
0000
0000
0000
0001
0000
0000
1000
0000
0000
,
0002
0000
0000
0100
0000
0000
0203
0000
0000
0000
0010
0000
0000
0310
0000
0000
,
2000
0000
0000
0100
0000
0000
3100
0000
0010
0000
0001
0000
1000
0000
0001
0000
,
2000
0000
0000
0010
0000
0000
0010
0000
0000
0000
0001
0000
0000
0001
0000
0000
,
3200
0000
0000
1000
0000
0000
1000
0000
0000
0000
0010
0000
0000
0010
0000
0000
,
2300
0000
0000
0010
0000
0000
3002
0000
0000
0000
0100
0000
0000
1000
0000
0000
,
0203
0000
0000
1000
0000
0000
1300
0000
0100
0000
0001
0000
0100
0000
0001
0000
,
1000
0100
0010
0001
0100
0010
0100
0010
,
0200
0302
0023
0230
,
1300
0010
0100
0010
1000
0100
0010
0001
,
0200
2300
3200
0302
,
0013
0100
1000
0010
0100
0010
1000
0100
,
0020
0032
2003
3020
,
0130
0001
0010
0100
1000
0010
0100
0010
,
2000
3200
0320
0032
,
1003
0010
0100
1000
0100
0010
0100
0001
,
0020
1000
0100
0032
,
1003
0010
0100
0010
1000
0100
0010
0001
,
0100
2100
3001
0210
,
0301
0010
0100
1000
0010
0001
0010
1000
,
0100
0021
0230
2300
,
3001
0100
1000
0100
0001
1000
0100
1000
,
0010
0021
0100
1030
,
0001
0000
0001
0000
1000
0010
0000
0100
0000
0100
0002
0000
1000
0000
1003
0000
,
0100
0000
0100
0000
0010
0100
0000
1000
0000
1000
0020
0000
0100
0000
0130
0000
,
0001
0000
0001
0000
1000
0100
0000
1000
0000
1000
0020
0000
0100
0000
0130
0000
,
0001
0000
1000
0000
0001
0010
0000
0001
0000
1000
0010
0000
0100
0000
0001
0000
,
1000
0000
1000
0000
0001
0100
0000
0010
0000
0010
2000
0000
0001
0000
3001
0000
,
0100
0000
0010
0000
0100
0001
0000
1000
0000
0001
0010
0000
0100
0000
1000
0000
,
0002
0000
0000
2003
0000
0000
3020
0000
0000
2030
0000
0000
3002
0000
0000
0023
,
0000
0000
0032
0000
0000
2003
0000
0000
3002
0000
0000
2003
0000
0000
3010
0000
;

//---------------dance-single - ----------------
#NOTES:
     dance-single:
     :
     Medium:
     6:
     0.443,0.430,0.101,0.395,0.000:
0000
0000
0000
0000
,
0000
0000
0000
0000
,
0000
0000
0000
0000
,
0000
0000
0000
0000
,
1000
0000
0000
0001
0000
0000
1000
0000
,
0010
0000
0000
0100
0000
0000
0010
0000
,
1000
0000
0000
0001
0000
0000
1000
0000
,
0100
0000
0010
0000
0001
0000
1000
0001
,
0100
0000
0010
0000
1000
0001
0010
0000
,
0001
1000
0010
0000
2100
0000
3001
0000
,
0100
0000
0010
0000
0100
0001
0100
0000
,
0001
1000
0100
0000
0021
0000
0130
0000
,
1000
0000
0010
0000
0001
0010
1000
0000
,
0001
0100
1000
0000
0102
0000
1003
0000
,
0100
0000
0010
0000
0001
0100
0010
0000
,
0100
0001
0010
0000
2100
0000
3010
0000
,
0100
0000
0100
0001
1000
0000
1000
0001
,
0010
0000
0010
0001
1000
0010
1000
0000
,
0001
0000
0001
0100
0010
0000
0010
1000
,
0001
0000
0001
1000
0100
1000
0010
0000
,
0010
0000
0100
0001
1000
0000
1000
0001
,
0010
0000
1000
0010
0001
0010
1000
0000
,
0020
0000
0001
0000
0031
0100
0010
0000
,
1100
0000
0001
0100
1000
0100
0001
0000
,
1000
0000
1000
0001
0010
0000
0010
0001
,
0100
0000
0100
0010
1000
0001
1000
0000
,
0001
0000
0001
0100
0010
0000
0010
1000
,
0001
0000
0001
1000
0100
1000
0001
0000
,
0100
0000
0100
0010
1000
0000
1000
0100
,
0001
0000
0001
0100
1000
0100
0001
0000
,
0200
0000
1000
0000
1300
0001
0010
0000
,
0001
0000
1000
0010
0100
0010
1000
0000
,
0021
0000
0130
0000
1000
0010
0100
0000
,
0102
0000
1003
0000
1000
0001
0010
0000
,
2100
0000
3010
0000
0100
0001
1000
0000
,
0210
0000
0301
0000
1000
0010
1000
0010
,
0200
0000
0301
0000
0010
0100
1000
0000
,
0102
0000
1003
0000
0001
0100
0010
0000
,
1200
0000
0310
0000
1000
0010
0001
0000
,
0201
0000
0310
0000
0001
0010
1000
0000
,
0001
0010
0001
0010
0100
0000
1000
0000
,
0002
0203
0320
2030
,
3001
0100
0001
0100
0010
0000
1000
0000
,
0200
0320
0032
2003
,
3010
0100
0010
0100
0001
0000
1000
0000
,
0002
0203
0320
2030
,
3001
1000
0001
1000
0010
0000
0100
0000
,
0002
2003
3200
0320
,
0031
0100
0001
0100
0010
0000
1000
0000
,
0002
0023
0230
2300
,
3010
0100
0010
0100
0001
0000
1000
0000
,
0200
0320
0032
2003
,
3001
0100
0001
0100
0010
0000
1000
0000
,
0002
2003
3020
0230
,
0301
0010
0001
0010
0100
0000
1000
0000
,
0020
0230
0302
2003
,
3001
0000
0100
0000
0010
1000
0001
0000
,
1000
0000
0100
0000
0010
0001
1000
0001
,
1000
0000
0010
0000
0100
0001
1000
0000
,
0100
0000
0010
0000
0001
0100
0010
0100
,
0001
0000
1000
0000
0100
1000
0001
0000
,
0100
0000
0010
0000
1000
0001
0010
0001
,
2000
0001
0010
0100
,
0001
0010
0100
0001
,
3000
0000
0000
0000
;

//---------------dance-single - ----------------
#NOTES:
     dance-single:
     :
     Easy:
     3:
     0.263,0.242,0.059,0.286,0.000: // measure 1
0000
0000
0000
0000
,  // measure 2
0000
0000
0000
0000
,  // measure 3
0000
0000
0000
0000
,  // measure 4
0000
0000
0000
0000
,  // measure 5
1000
0000
0001
1000
,  // measure 6
0001
0000
0010
0100
,  // measure 7
0010
0000
1000
0001
,  // measure 8
1000
0000
0010
0000
,  // measure 9
0100
0001
1000
0001
,  // measure 10
0020
0000
0230
0000
,  // measure 11
1300
0010
0100
0010
,  // measure 12
2000
0000
3002
0000
,  // measure 13
1003
0010
0100
0010
,  // measure 14
2000
0000
3200
0000
,  // measure 15
0310
0001
1000
0001
,  // measure 16
2000
0000
3020
0000
,  // measure 17
0130
0100
0100
0100
,  // measure 18
0100
0100
0100
0100
,  // measure 19
0001
0001
0001
0001
,  // measure 20
0001
0001
0001
0001
,  // measure 21
1000
1000
1000
1000
,  // measure 22
1000
1000
1000
1000
,  // measure 23
0010
0010
0100
0100
,  // measure 24
0010
0010
1000
1000
,  // measure 25
0001
0001
0001
0001
,  // measure 26
0001
0001
0001
0001
,  // measure 27
1000
1000
1000
1000
,  // measure 28
1000
1000
1000
1000
,  // measure 29
0010
0010
0010
0010
,  // measure 30
0010
0010
0010
0010
,  // measure 31
0100
0100
0001
0001
,  // measure 32
0100
0100
0001
0001
,  // measure 33
2000
0000
0000
0000
,  // measure 34
3020
0000
0000
0000
,  // measure 35
0230
0000
0000
0000
,  // measure 36
0302
0000
0000
0000
,  // measure 37
0023
0000
0000
0000
,  // measure 38
0230
0000
0000
0000
,  // measure 39
2300
0000
0000
0000
,  // measure 40
3020
0000
0000
0000
,  // measure 41
0130
0001
1000
0001
,  // measure 42
2000
0000
3020
0000
,  // measure 43
0130
0001
0010
0001
,  // measure 44
2000
0000
3020
0000
,  // measure 45
0130
0001
1000
0001
,  // measure 46
0020
0000
0230
0000
,  // measure 47
1300
0010
0100
0001
,  // measure 48
2000
0000
3002
0000
,  // measure 49
1003
0010
0100
0010
,  // measure 50
2000
0000
3200
0000
,  // measure 51
0310
0001
1000
0001
,  // measure 52
2000
0000
3020
0000
,  // measure 53
0130
0001
1000
0001
,  // measure 54
0020
0000
0230
0000
,  // measure 55
1300
0010
0100
0010
,  // measure 56
2000
0000
3002
0000
,  // measure 57
1003
1000
1001
0000
,  // measure 58
0010
0010
0110
0000
,  // measure 59
0001
1000
1001
0000
,  // measure 60
1000
0001
1001
0000
,  // measure 61
0010
0100
0110
0000
,  // measure 62
0100
0010
0110
0000
,  // measure 63
1000
0001
1000
0001
,  // measure 64
2002
0000
0000
0000
,  // measure 65
3003
0000
0000
0000
;

//---------------dance-single - ----------------
#NOTES:
     dance-single:
     :
     Beginner:
     1:
     0.156,0.188,0.000,0.092,0.000: // measure 1
0000
0000
0000
0000
,  // measure 2
0000
0000
0000
0000
,  // measure 3
0000
0000
0000
0000
,  // measure 4
0000
0000
0000
0000
,  // measure 5
2000
0000
0000
0000
,  // measure 6
0000
0000
0000
0000
,  // measure 7
3002
0000
0000
0000
,  // measure 8
0000
0000
0000
0000
,  // measure 9
1003
0000
1000
0000
,  // measure 10
0010
0010
0010
0000
,  // measure 11
0100
0000
0100
0000
,  // measure 12
0001
0001
0001
0000
,  // measure 13
1000
0000
0001
0000
,  // measure 14
1000
1000
1000
0000
,  // measure 15
0010
0000
0100
0000
,  // measure 16
0010
0010
0010
0000
,  // measure 17
1000
0000
1000
0000
,  // measure 18
1000
0000
1000
1000
,  // measure 19
1000
0000
0001
0000
,  // measure 20
0001
0000
0001
0001
,  // measure 21
0001
0000
0001
0000
,  // measure 22
0001
0000
0001
0001
,  // measure 23
0001
0000
1000
0000
,  // measure 24
0001
0000
1000
0000
,  // measure 25
0010
0000
0010
0000
,  // measure 26
0010
0000
0010
0010
,  // measure 27
0010
0000
0100
0000
,  // measure 28
0100
0000
0100
0100
,  // measure 29
0100
0000
0010
0000
,  // measure 30
0100
0000
0010
0010
,  // measure 31
0010
0000
0100
0000
,  // measure 32
0010
0000
0100
0000
,  // measure 33
0002
0000
0000
0000
,  // measure 34
2003
0000
0000
0000
,  // measure 35
3002
0000
0000
0000
,  // measure 36
2003
0000
0000
0000
,  // measure 37
3020
0000
0000
0000
,  // measure 38
0230
0000
0000
0000
,  // measure 39
0320
0000
0000
0000
,  // measure 40
0230
0000
0000
0000
,  // measure 41
1300
0000
0001
0000
,  // measure 42
1000
0000
0001
0000
,  // measure 43
0010
0000
0001
0000
,  // measure 44
0010
0000
0001
0000
,  // measure 45
1000
0000
0010
0000
,  // measure 46
1000
0000
0010
0000
,  // measure 47
1000
0000
0100
0000
,  // measure 48
1000
0000
0100
0000
,  // measure 49
1000
0000
0001
0000
,  // measure 50
1000
0000
0010
0000
,  // measure 51
1000
0000
0001
0000
,  // measure 52
1000
0000
0100
0000
,  // measure 53
1000
0000
0010
0000
,  // measure 54
0100
0000
0001
0000
,  // measure 55
0010
0000
0100
0000
,  // measure 56
1000
0000
0010
0000
,  // measure 57
1000
1000
1000
0000
,  // measure 58
0001
0001
0001
0000
,  // measure 59
1000
1000
1000
0000
,  // measure 60
0010
0010
0010
0000
,  // measure 61
1000
1000
1000
0000
,  // measure 62
0100
0100
0100
0000
,  // measure 63
2000
0000
0000
0000
,  // measure 64
0000
0000
0000
0000
,  // measure 65
3000
0000
0000
0000
;
