#TITLE:GOOD BYE 夏男;
#SUBTITLE:;
#ARTIST:松浦亜弥;
#TITLETRANSLIT:GOOD BYE NATSUO;
#SUBTITLETRANSLIT:;
#ARTISTTRANSLIT:Aya Matsuura;
#CREDIT:Xythar;
#BANNER:GOOD BYE NATSUO-bn.avi;
#BACKGROUND:GOOD BYE NATSUO-bg.png;
#LYRICSPATH:GOOD BYE NATSUO.lrc;
#CDTITLE:CDTitle.png;
#MUSIC:GOOD BYE NATSUO.mp3;
#OFFSET:-0.017;
#SAMPLESTART:21.020;
#SAMPLELENGTH:15.000;
#SELECTABLE:YES;
#LASTBEAT:340;
#BPMS:0.000=160.000;
#STOPS:;
#BGCHANGES:-0.056=GOOD BYE NATSUO.avi=1.000=1=1=0,
99999=-nosongbg-=1.000=0=0=0 // don't automatically add -songbackground-
;

//---------------dance-single - ----------------
#NOTES:
     dance-single:
     :
     Hard:
     8:
     0.508,0.537,0.366,0.039,0.016: // measure 1
0000
0000
0000
0000
,  // measure 2
0000
0000
0000
0000
,  // measure 3
0000
0000
0000
0000
,  // measure 4
0000
0000
0000
0000
,  // measure 5
0000
0000
0000
0000
,  // measure 6
0000
0000
0000
0000
,  // measure 7
0000
0000
0000
0000
,  // measure 8
0000
0000
0000
0000
,  // measure 9
0000
0000
0000
0000
,  // measure 10
0000
0000
0000
0000
,  // measure 11
1001
0100
0010
0001
,  // measure 12
0110
1000
0100
0010
,  // measure 13
0101
0010
1000
0001
,  // measure 14
1000
0100
1000
0100
0010
0001
1000
0000
,  // measure 15
0001
0100
0001
0000
0000
1001
0000
0010
,  // measure 16
0100
0001
0100
0010
0000
1000
0100
1000
,  // measure 17
0001
0100
0010
1100
,  // measure 18
0001
0100
0010
1000
0000
0000
0001
0000
,  // measure 19
1000
0100
1000
0000
0000
0101
0000
0001
,  // measure 20
1000
0100
1000
0001
0000
1000
0100
0011
,  // measure 21
0000
0001
0100
1010
0000
0001
0010
1100
,  // measure 22
0000
1000
0010
0101
0000
0001
1000
0010
,  // measure 23
2000
0100
0001
3010
,  // measure 24
1000
0100
0010
0001
0100
0010
1000
0001
,  // measure 25
1000
0010
0100
0001
0000
1000
0100
1000
,  // measure 26
0000
0101
0000
0010
0000
1000
0001
1000
,  // measure 27
0001
0100
0010
1000
0100
0010
0001
0100
,  // measure 28
0010
1000
0100
0010
0001
1000
0000
0000
,  // measure 29
0010
0100
0001
0010
0000
0100
1000
0010
,  // measure 30
0000
0100
0001
0010
0000
0000
1001
0000
,  // measure 31
0100
1000
0010
0100
0001
0010
0100
1000
,  // measure 32
0010
0000
0100
0000
0010
0000
1000
0000
0001
0000
1000
0000
,  // measure 33
0001
0000
0001
0000
0000
1000
0010
1000
,  // measure 34
0000
0001
0010
0001
1000
0100
1000
0010
,  // measure 35
0000
0100
0001
0100
0000
0001
0010
0001
,  // measure 36
0000
1000
0010
0100
0001
0010
0100
0000
,  // measure 37
1100
0000
0011
0000
0000
1000
0100
1000
,  // measure 38
0010
0100
0000
0001
1000
0010
1000
0001
,  // measure 39
0000
1000
0100
1000
0000
0001
0100
0001
,  // measure 40
0000
1000
0100
0010
0001
0100
0010
0000
,  // measure 41
1000
0100
0010
0100
1000
0000
0101
0000
,  // measure 42
1000
0010
0100
0010
1000
0000
0011
0000
,  // measure 43
0100
1000
0010
0000
0100
0001
0010
0000
,  // measure 44
0100
0100
0000
0011
0000
1010
0000
1000
,  // measure 45
0100
1000
0010
0100
0001
0000
1100
0000
,  // measure 46
0001
0100
0010
1000
0100
0000
0011
0000
,  // measure 47
0100
0000
1000
0000
0010
0100
0001
0000
,  // measure 48
1001
0000
0000
0001
1000
0000
0000
0001
,  // measure 49
1000
0100
0011
1100
,  // measure 50
0001
1000
0001
0000
0000
1000
0000
0010
,  // measure 51
0100
0001
0100
0010
0000
1000
0100
1000
,  // measure 52
0001
1100
0010
0100
,  // measure 53
0001
1000
0001
0010
0000
0000
1001
0000
,  // measure 54
0100
0010
0100
0000
0000
1000
0000
0001
,  // measure 55
0100
0010
0100
0001
0000
0010
0100
1001
,  // measure 56
0000
0100
0010
1001
0000
1000
0001
0110
,  // measure 57
0000
0001
1000
0110
0000
1000
0100
1000
,  // measure 58
0002
0100
1000
0013
,  // measure 59
0100
1000
0010
0100
0001
0010
0100
1000
,  // measure 60
0001
0100
0001
0000
0000
1100
0000
0001
,  // measure 61
1000
0100
1000
0001
0000
0100
0010
1000
,  // measure 62
0000
0001
1000
0010
,  // measure 63
0100
0100
0100
0001
0000
0000
1100
0000
,  // measure 64
0001
0010
0001
0000
1000
0000
0010
0000
,  // measure 65
0100
0001
1000
0001
0000
1000
0100
0011
,  // measure 66
0000
0100
0010
1001
0000
0001
0100
1010
,  // measure 67
0000
0010
0100
1001
0000
0001
1000
0010
,  // measure 68
0200
1000
0010
0301
,  // measure 69
1000
0100
0010
0001
0100
0010
1000
0001
,  // measure 70
0110
0000
1000
0110
0000
0001
0010
1100
,  // measure 71
0000
1000
0010
0101
0000
0000
0001
1000
,  // measure 72
0020
0001
0100
1030
,  // measure 73
0001
0100
0010
1000
0100
0010
0001
0100
,  // measure 74
0001
0000
1000
0100
1000
0010
1000
0000
,  // measure 75
0101
0000
0010
1000
0001
1000
0100
0000
,  // measure 76
0011
0000
0100
1000
0010
1000
0100
0000
,  // measure 77
0101
0000
0100
1000
0010
0100
0001
0000
,  // measure 78
1100
0000
0001
0100
0010
1000
0100
0000
,  // measure 79
0011
0000
0100
1000
0010
0100
0001
0000
,  // measure 80
1010
0000
0100
0001
0010
0100
1000
0000
,  // measure 81
0102
0000
0000
1003
,  // measure 82
0110
0000
0000
0000
;

//---------------dance-single - ----------------
#NOTES:
     dance-single:
     :
     Medium:
     6:
     0.410,0.410,0.203,0.031,0.016: // measure 1
0000
0000
0000
0000
,  // measure 2
0000
0000
0000
0000
,  // measure 3
0000
0000
0000
0000
,  // measure 4
0000
0000
0000
0000
,  // measure 5
0000
0000
0000
0000
,  // measure 6
0000
0000
0000
0000
,  // measure 7
0000
0000
0000
0000
,  // measure 8
0000
0000
0000
0000
,  // measure 9
0000
0000
0000
0000
,  // measure 10
0000
0000
0000
0000
,  // measure 11
1100
0000
0001
0100
,  // measure 12
1010
0000
0100
0010
,  // measure 13
1001
0000
0010
0000
,  // measure 14
0100
0001
0100
0001
1000
0000
0101
0000
,  // measure 15
0010
1000
0010
0000
0000
0100
0000
0001
,  // measure 16
1000
0000
0100
0010
0000
0001
1000
0001
,  // measure 17
0000
0000
1000
0000
0000
0010
0000
0100
,  // measure 18
0001
0100
0001
1000
0000
0000
0101
0000
,  // measure 19
1000
0100
1000
0000
0000
0001
0000
1000
,  // measure 20
0010
0000
0100
0001
0000
1000
0100
1000
,  // measure 21
0000
0001
0100
0001
0000
1000
0010
1000
,  // measure 22
0000
0001
0010
0001
0000
1000
0100
1000
,  // measure 23
0020
0100
1000
0130
,  // measure 24
0001
1000
0100
1000
0001
0000
0110
0000
,  // measure 25
1000
0100
1000
0010
0000
0100
0000
0001
,  // measure 26
0000
1000
0000
0001
0000
0010
0000
0000
,  // measure 27
0100
0000
1000
0010
0000
0100
0001
0000
,  // measure 28
0010
0100
0000
1000
0001
1000
0000
0000
,  // measure 29
0001
0100
0001
0010
0000
0100
0000
1000
,  // measure 30
0000
0010
0000
1001
0000
0000
0000
0000
,  // measure 31
0100
0000
1000
0010
0000
0100
0001
0000
,  // measure 32
1000
0000
0100
0000
1000
0000
0001
0000
1000
0000
0010
0000
,  // measure 33
0100
0000
0100
0000
0000
0001
0000
1000
,  // measure 34
0000
0010
0000
0100
0001
0000
1000
0100
,  // measure 35
0000
1000
0100
1000
0000
0001
0100
0001
,  // measure 36
0000
1000
0010
1000
0001
0000
0110
0000
,  // measure 37
0001
0000
0001
0000
0000
1000
0000
0001
,  // measure 38
0100
0001
0000
1000
0100
0000
0000
0010
,  // measure 39
0000
0001
0100
0001
0000
1000
0010
1000
,  // measure 40
0000
0001
0010
0001
1000
0000
0101
0000
,  // measure 41
0010
0010
0100
1001
,  // measure 42
0100
0010
0100
0010
0000
0001
0000
0000
,  // measure 43
1000
0000
0000
0010
0100
0000
0001
0000
,  // measure 44
1000
0100
0000
0010
0000
0001
0000
0100
,  // measure 45
0010
1000
0001
0110
,  // measure 46
0001
0100
0001
1000
0000
0001
1000
0000
,  // measure 47
0100
0000
0000
0010
0001
0000
1000
0000
,  // measure 48
0001
0000
0000
1000
0001
0000
0000
1000
,  // measure 49
0001
0001
1000
1000
,  // measure 50
0001
0100
0001
0000
0000
1000
0000
0010
,  // measure 51
0100
0000
0001
1000
0000
0100
1000
0100
,  // measure 52
0000
1000
0010
0100
,  // measure 53
0001
1000
0001
1000
0000
0000
0011
0000
,  // measure 54
0100
1000
0100
0000
0000
1000
0000
0010
,  // measure 55
0100
0000
0001
1000
0000
0001
0100
0001
,  // measure 56
0000
1000
0100
1000
0000
0001
0010
0001
,  // measure 57
0000
1000
0010
1000
0000
0001
0100
0010
,  // measure 58
0200
0001
0010
0301
,  // measure 59
1000
0100
1000
0000
0101
0000
1010
0000
,  // measure 60
0001
0010
0001
0000
0000
1000
0000
0010
,  // measure 61
0100
0000
0001
1000
0000
0100
1000
0001
,  // measure 62
0000
1000
0010
0100
,  // measure 63
0001
1000
0001
1000
0000
0000
0011
0000
,  // measure 64
0100
1000
0100
0000
0000
1000
0000
0010
,  // measure 65
0100
0000
0001
1000
0000
0100
1000
0100
,  // measure 66
0000
0010
0001
0010
0000
0001
0100
0001
,  // measure 67
0000
1000
0010
1000
0000
0001
1000
0100
,  // measure 68
2000
0010
0100
3001
,  // measure 69
1000
0100
1000
0000
0101
0000
1100
0000
,  // measure 70
0001
0000
1000
0010
0000
0100
0001
0100
,  // measure 71
0000
0001
1000
0001
0000
1000
0100
1000
,  // measure 72
0002
0100
0010
0103
,  // measure 73
0001
0100
0001
0000
1010
0000
0011
0000
,  // measure 74
0100
1000
0010
0100
,  // measure 75
1001
0010
0100
1000
,  // measure 76
0101
0010
1000
0001
,  // measure 77
1100
0010
0100
0001
,  // measure 78
0110
1000
0100
0010
,  // measure 79
0101
0010
1000
0001
,  // measure 80
1100
0010
0100
0001
,  // measure 81
0110
0000
0000
0001
,  // measure 82
1000
0000
0000
0000
;

//---------------dance-single - ----------------
#NOTES:
     dance-single:
     :
     Easy:
     4:
     0.241,0.316,0.101,0.055,0.000: // measure 1
0000
0000
0000
0000
,  // measure 2
0000
0000
0000
0000
,  // measure 3
0000
0000
0000
0000
,  // measure 4
0000
0000
0000
0000
,  // measure 5
0000
0000
0000
0000
,  // measure 6
0000
0000
0000
0000
,  // measure 7
0000
0000
0000
0000
,  // measure 8
0000
0000
0000
0000
,  // measure 9
0000
0000
0000
0000
,  // measure 10
0000
0000
0000
0000
,  // measure 11
1000
0000
0010
0100
,  // measure 12
0001
0000
1000
0100
,  // measure 13
1000
0000
0010
0100
,  // measure 14
0001
0000
0000
0000
,  // measure 15
1000
1001
0000
0010
,  // measure 16
0100
0001
0010
0001
,  // measure 17
0100
0000
0000
0001
,  // measure 18
1000
0000
0010
0000
,  // measure 19
0010
0110
0000
0001
,  // measure 20
0100
0000
0000
0001
0000
0000
0000
1000
,  // measure 21
0000
0000
0000
0010
0000
0000
0000
0100
,  // measure 22
0000
0000
0000
0001
0000
0000
0000
0000
,  // measure 23
2000
0000
0000
0000
,  // measure 24
0002
0000
3000
0000
,  // measure 25
0103
1000
0010
0000
,  // measure 26
0100
0001
0010
0000
,  // measure 27
1000
0100
1000
0010
,  // measure 28
0100
0001
0010
0000
,  // measure 29
0100
1000
0010
0000
,  // measure 30
0100
0001
0010
0000
,  // measure 31
0100
1000
0010
0100
,  // measure 32
0001
0000
0000
0000
,  // measure 33
1000
1001
0000
0100
,  // measure 34
0010
0001
0100
0010
,  // measure 35
0000
1000
0000
0000
0000
0001
0000
0000
,  // measure 36
0000
1000
0000
0000
0001
0000
1001
0000
,  // measure 37
0000
0110
0000
0001
,  // measure 38
1000
0100
1000
0010
,  // measure 39
0000
0100
0000
0000
0000
0010
0000
0000
,  // measure 40
0000
0100
0000
0000
0010
0000
0010
0000
,  // measure 41
1000
0001
1000
1001
,  // measure 42
0001
0100
0001
0010
,  // measure 43
0100
0000
1000
0000
,  // measure 44
0001
0000
0000
0000
,  // measure 45
1000
0010
1000
1001
,  // measure 46
0001
0100
0001
0000
,  // measure 47
0010
0000
0001
0000
,  // measure 48
1000
0000
0001
0000
,  // measure 49
1000
0001
1000
1001
,  // measure 50
0001
0001
0000
0100
,  // measure 51
0010
1000
0100
1000
,  // measure 52
0010
0000
0000
0100
,  // measure 53
0001
0000
0000
1000
0000
0000
1001
0000
,  // measure 54
0001
0100
0000
0010
,  // measure 55
1000
0000
0000
0100
0000
0000
0000
1000
,  // measure 56
0000
0000
0000
0001
0000
0000
0000
0100
,  // measure 57
0000
0000
0000
0010
0000
0000
0000
0000
,  // measure 58
2000
0000
0000
0000
,  // measure 59
0002
0000
3000
0000
,  // measure 60
0103
0110
0000
0001
,  // measure 61
0100
0010
1000
0100
,  // measure 62
1000
0000
0000
0001
,  // measure 63
0001
0000
0000
1001
0000
0000
0110
0000
,  // measure 64
0100
0100
0000
0001
,  // measure 65
1000
0000
0000
0100
0000
0000
0000
0010
,  // measure 66
0000
0000
0000
0001
0000
0000
0000
0100
,  // measure 67
0000
0000
0000
0010
0000
0000
0000
0000
,  // measure 68
2000
0000
0010
0000
,  // measure 69
3002
0000
0100
0000
,  // measure 70
0013
0000
0000
0100
0000
0000
0000
1000
,  // measure 71
0000
0000
0000
0010
0000
0000
0000
0000
,  // measure 72
2001
0001
0001
3010
,  // measure 73
0100
0001
1000
0001
,  // measure 74
1000
0100
1000
0001
,  // measure 75
1000
0010
1000
0001
,  // measure 76
0010
0100
1000
0010
,  // measure 77
0100
0001
1000
0001
,  // measure 78
0100
0010
0100
0001
,  // measure 79
1000
0100
1000
0010
,  // measure 80
0100
0001
1000
0100
,  // measure 81
1000
0000
0000
0001
,  // measure 82
0001
0000
0000
0000
;

//---------------dance-single - ----------------
#NOTES:
     dance-single:
     :
     Beginner:
     2:
     0.141,0.189,0.000,0.000,0.000: // measure 1
0000
0000
0000
0000
,  // measure 2
0000
0000
0000
0000
,  // measure 3
0000
0000
0000
0000
,  // measure 4
0000
0000
0000
0000
,  // measure 5
0000
0000
0000
0000
,  // measure 6
0000
0000
0000
0000
,  // measure 7
0000
0000
0000
0000
,  // measure 8
0000
0000
0000
0000
,  // measure 9
0000
0000
0000
0000
,  // measure 10
0000
0000
0000
0000
,  // measure 11
1000
0000
0000
0000
,  // measure 12
0001
0000
0000
0000
,  // measure 13
1000
0000
0000
0000
,  // measure 14
0001
0000
0000
0000
,  // measure 15
1000
1000
0000
0000
,  // measure 16
0010
0000
0100
0000
,  // measure 17
0001
0000
0000
0000
,  // measure 18
1000
0000
0010
0000
,  // measure 19
0100
0100
0000
0000
,  // measure 20
0001
0000
0010
0000
,  // measure 21
0100
0000
1000
0000
,  // measure 22
0010
0000
0100
0000
,  // measure 23
0001
0000
0000
0000
,  // measure 24
1000
0000
0000
0000
,  // measure 25
0001
0000
0000
0000
,  // measure 26
1000
0000
0010
0000
,  // measure 27
0100
0000
0100
0000
,  // measure 28
0100
0000
0001
0001
,  // measure 29
0001
0000
0000
0000
,  // measure 30
1000
0000
0000
0000
,  // measure 31
0010
0000
0010
0000
,  // measure 32
0100
0000
0000
0000
,  // measure 33
0001
0001
0000
1000
,  // measure 34
1000
0000
0010
0000
,  // measure 35
0100
0000
0001
0000
,  // measure 36
1000
0000
0001
0001
,  // measure 37
0001
0000
0000
0000
,  // measure 38
0010
0000
0100
0000
,  // measure 39
1000
0000
0010
0000
,  // measure 40
0100
0000
0001
0001
,  // measure 41
0001
0000
0000
0000
,  // measure 42
1000
0000
0000
0000
,  // measure 43
0010
0000
0100
0000
,  // measure 44
0001
0001
0001
0000
,  // measure 45
1000
1000
1000
0000
,  // measure 46
0010
0000
0010
0000
,  // measure 47
0100
0000
0001
0000
,  // measure 48
1000
0000
0001
0000
,  // measure 49
1000
1000
1000
1000
,  // measure 50
1000
0000
0000
0000
,  // measure 51
0001
0000
0100
0000
,  // measure 52
0010
0000
0000
0000
,  // measure 53
1000
0000
0001
0000
,  // measure 54
1000
1000
0000
0000
,  // measure 55
0010
0000
0100
0000
,  // measure 56
0001
0000
0010
0000
,  // measure 57
0100
0000
1000
0000
,  // measure 58
0001
0000
0000
0000
,  // measure 59
1000
0000
0000
0000
,  // measure 60
0010
0010
0000
0000
,  // measure 61
0100
0000
0001
0000
,  // measure 62
0010
0000
0000
0000
,  // measure 63
0100
0000
0000
0000
,  // measure 64
1000
1000
0000
0000
,  // measure 65
0001
0000
0100
0000
,  // measure 66
0010
0000
1000
0000
,  // measure 67
0100
0000
1000
0000
,  // measure 68
0001
0000
0000
0000
,  // measure 69
1000
0000
0000
0000
,  // measure 70
0010
0000
0100
0000
,  // measure 71
0001
0000
0010
0000
,  // measure 72
0100
0000
0000
0000
,  // measure 73
1000
0000
0000
0000
,  // measure 74
0001
0000
0100
0000
,  // measure 75
0010
0000
1000
0000
,  // measure 76
0100
0000
1000
0000
,  // measure 77
0001
0000
0010
0000
,  // measure 78
0100
0000
1000
0000
,  // measure 79
0010
0000
0100
0000
,  // measure 80
0001
0000
1000
0000
,  // measure 81
0001
0000
0000
1000
,  // measure 82
1000
0000
0000
0000
;
