#TITLE:GO MY WAY;
#SUBTITLE:;
#ARTIST:hitomi;
#TITLETRANSLIT:;
#SUBTITLETRANSLIT:;
#ARTISTTRANSLIT:;
#CREDIT:Xythar;
#BANNER:GO MY WAY.png;
#BACKGROUND:GO MY WAY-bg.png;
#LYRICSPATH:;
#CDTITLE:cdtitle.png;
#MUSIC:GO MY WAY.ogg;
#OFFSET:-4.700;
#SAMPLESTART:49.670;
#SAMPLELENGTH:25.403;
#SELECTABLE:YES;
#BPMS:0.000=174.780;
#STOPS:;
#BGCHANGES:-13.708=GO MY WAY.avi=1.000=1=1=0,
99999=-nosongbg-=1.000=0=0=0 // don't automatically add -songbackground-
;

//---------------dance-single - ----------------
#NOTES:
     dance-single:
     :
     Hard:
     8:
     0.500,0.459,0.219,0.044,0.000: // measure 1
0000
0000
0000
0000
,  // measure 2
1001
0000
0000
0000
1000
0001
0000
0100
,  // measure 3
0000
0100
0000
0010
1000
0000
0100
0010
,  // measure 4
0100
0000
0000
0000
0010
0001
0000
1000
,  // measure 5
0000
1000
0000
0001
0100
0000
0010
1000
,  // measure 6
0010
0000
0100
0001
0000
0001
1000
0000
,  // measure 7
0000
0100
0000
0010
0001
0010
0001
0000
,  // measure 8
1000
0010
0100
0000
0001
0000
1000
0001
,  // measure 9
0000
0001
1000
0001
1000
0100
1000
0000
,  // measure 10
0001
0000
1000
0010
1000
0000
0001
0010
,  // measure 11
0001
0000
0100
0010
0000
0010
1000
0010
,  // measure 12
1000
0000
0100
1000
0100
0000
0010
0001
,  // measure 13
0100
0000
0010
0100
0000
0100
0001
1000
,  // measure 14
0001
0000
0010
0100
1000
0000
0010
0100
,  // measure 15
0001
0000
0100
0010
0000
0010
0000
1000
,  // measure 16
0100
0000
0010
0000
0101
0000
0010
1000
,  // measure 17
0001
0000
1000
0100
0000
0100
1000
0001
,  // measure 18
1000
0000
0000
0000
0011
0000
0000
0100
,  // measure 19
0000
1000
0000
0001
0000
1000
0001
1000
,  // measure 20
0001
0000
0000
0000
1010
0000
0000
0100
,  // measure 21
0000
0001
0000
1000
0000
0001
1000
0001
,  // measure 22
1000
0000
0000
0000
1100
0000
0010
0001
,  // measure 23
0000
1000
0010
0100
0000
0001
0100
0010
,  // measure 24
1000
0000
0100
0000
0010
0001
0010
0100
,  // measure 25
1000
0000
0010
0100
0000
0001
0100
0001
,  // measure 26
0100
0000
0010
1000
0001
1000
0100
1000
,  // measure 27
0001
0000
0100
0010
0000
1100
0000
0000
,  // measure 28
0000
0000
0010
0001
1000
0001
0100
0001
,  // measure 29
1000
0000
0100
0010
0000
0101
0000
0000
,  // measure 30
0000
0000
0010
0100
1000
0100
0010
0100
,  // measure 31
0001
0000
1000
0100
0000
0011
0000
0100
,  // measure 32
1000
0000
0001
0000
1000
0100
1000
0000
,  // measure 33
1010
0101
1001
0100
,  // measure 34
0010
0000
0001
1000
0100
1000
0001
0100
,  // measure 35
0000
0010
1000
0001
0000
0000
1000
0000
,  // measure 36
0020
0000
0000
0100
0000
0000
0130
0000
,  // measure 37
0001
0100
0000
0010
0000
1000
0100
1000
,  // measure 38
0001
0000
1000
0010
0100
0010
1000
0100
,  // measure 39
0000
0010
0001
1000
0000
0100
1000
0001
,  // measure 40
0100
0000
0000
1010
0000
0100
0001
0000
,  // measure 41
2000
0000
0000
3100
0000
0000
0011
0000
,  // measure 42
0101
0000
0010
1000
0001
1000
0100
1000
,  // measure 43
0000
0010
0100
0001
0000
1000
0010
0000
,  // measure 44
0200
0000
0000
0301
0000
1000
0100
0000
,  // measure 45
1000
0001
0000
0110
0000
1000
0001
0000
,  // measure 46
0010
0000
0100
1000
0000
0001
0100
0000
,  // measure 47
1010
0000
0100
0001
0000
1000
0100
0000
,  // measure 48
0011
0000
0100
1000
0001
0000
0100
0010
,  // measure 49
1000
0000
0010
0100
0001
0000
1000
0000
,  // measure 50
0100
0010
0001
0100
0010
1000
0010
0100
,  // measure 51
0001
1000
0100
0010
,  // measure 52
0000
0000
0000
0000
0001
0100
0000
1010
,  // measure 53
0000
0000
0000
0000
1000
0100
0000
0011
,  // measure 54
0000
0000
0000
0000
0100
1000
0000
1001
,  // measure 55
0000
0010
0000
0100
0000
0001
0000
1000
,  // measure 56
0001
0000
0010
0100
0000
1000
0001
0000
,  // measure 57
0100
0010
0000
1000
0001
1000
0100
0000
,  // measure 58
1000
0010
0100
0001
1000
0000
0100
1000
,  // measure 59
0000
0001
0000
0001
0000
1000
0001
1000
,  // measure 60
0002
0000
0000
0000
,  // measure 61
0003
0000
0000
0000
;

//---------------dance-single - ----------------
#NOTES:
     dance-single:
     :
     Medium:
     5:
     0.339,0.426,0.109,0.131,0.000: // measure 1
0000
0000
0000
0000
,  // measure 2
1000
0000
0000
0000
0001
0000
0000
0100
,  // measure 3
0000
0000
0000
0000
1000
0000
0000
0100
,  // measure 4
0000
0000
0000
0000
0001
0000
0000
1000
,  // measure 5
0000
1001
0000
0100
,  // measure 6
0010
0000
0000
0001
0000
0000
1000
0000
,  // measure 7
0000
0001
0000
0000
1000
0000
0001
0000
,  // measure 8
1000
0000
0000
0000
0100
0000
0000
0010
,  // measure 9
0000
0001
0000
1000
0000
1000
0001
0000
,  // measure 10
0100
0000
0000
0000
0010
0000
0000
0100
,  // measure 11
0000
0001
0000
1000
0000
0000
0001
1000
,  // measure 12
0001
0000
0000
0010
0000
0000
0100
0000
,  // measure 13
1000
0000
0001
0100
,  // measure 14
0010
0000
0000
0000
0001
0000
0000
0010
,  // measure 15
0000
1000
0000
0100
0000
0000
0000
0000
,  // measure 16
0001
0100
1000
0010
,  // measure 17
0100
0000
0000
0001
0000
0000
1000
0001
,  // measure 18
2000
0000
0000
0000
3020
0000
0000
0100
,  // measure 19
0000
0100
0000
0130
0000
0000
0001
0000
,  // measure 20
2000
0000
0000
0000
3200
0000
0000
0010
,  // measure 21
0000
0010
0000
0310
0000
0000
1000
0000
,  // measure 22
0020
0000
0000
0000
0032
0000
0000
1000
,  // measure 23
0000
1000
0000
1003
0000
0000
0010
0000
,  // measure 24
0100
0001
0100
0010
,  // measure 25
1000
0000
0000
0100
0000
1000
0001
0000
,  // measure 26
1000
0000
0000
0010
0000
0100
0000
0000
,  // measure 27
0001
0000
0000
0010
0000
0100
0000
0000
,  // measure 28
1000
0000
0000
0001
0000
0100
0000
0000
,  // measure 29
0010
0000
0000
1000
0000
0100
0000
0000
,  // measure 30
0011
0000
0000
0100
0000
1000
0000
0000
,  // measure 31
0101
0000
0000
0010
0000
1000
0000
0000
,  // measure 32
0001
0010
0100
1000
,  // measure 33
0001
1000
1001
0000
,  // measure 34
0010
0000
0000
0100
0000
0001
0000
1000
,  // measure 35
0000
0100
0000
1000
0000
0000
0001
0000
,  // measure 36
0200
0000
0000
0010
0000
0310
0000
0000
,  // measure 37
0100
0000
0000
0001
0000
1000
0000
0000
,  // measure 38
0001
0000
0100
0000
1000
0000
0000
1000
,  // measure 39
0000
0100
0000
0001
0000
1000
0001
0000
,  // measure 40
0010
0000
0000
0100
0000
0000
1000
0000
,  // measure 41
0001
0000
0000
1001
0000
0000
0010
0000
,  // measure 42
0100
0000
0001
0000
0100
0000
0000
0010
,  // measure 43
0000
1000
0001
1000
0000
0000
0001
0000
,  // measure 44
0020
0000
0000
0100
0000
0130
0000
0000
,  // measure 45
1000
0100
0000
1000
0000
0010
0000
0000
,  // measure 46
0100
0000
0001
1000
0000
0000
0100
0000
,  // measure 47
1000
0000
0001
1000
0000
0000
0010
0000
,  // measure 48
0101
0010
1100
0010
,  // measure 49
0001
1001
1100
0010
,  // measure 50
0100
0000
0001
1000
0000
1000
0001
0000
,  // measure 51
1001
0010
0100
0001
,  // measure 52
1000
0000
0000
0000
0010
0100
0000
0001
,  // measure 53
0000
0001
0000
1000
0000
0000
0100
0000
,  // measure 54
1000
0000
0000
0000
0001
0100
0000
0010
,  // measure 55
0000
0010
0000
1000
0000
0000
0100
0000
,  // measure 56
2000
0000
0000
3001
0000
0000
0200
0000
,  // measure 57
0000
1300
0000
0000
0200
0000
0301
0000
,  // measure 58
1000
0001
1000
0000
0010
0000
0000
0100
,  // measure 59
0000
0001
0000
1000
0000
0000
0001
0000
,  // measure 60
2000
0000
0000
0000
,  // measure 61
3000
0000
0000
0000
;

//---------------dance-single - ----------------
#NOTES:
     dance-single:
     :
     Easy:
     3:
     0.181,0.262,0.011,0.011,0.000: // measure 1
0000
0000
0000
0000
,  // measure 2
1000
0000
0000
0000
,  // measure 3
0001
0000
0000
0000
,  // measure 4
1000
0000
0000
0000
,  // measure 5
0001
0000
0000
0000
,  // measure 6
1000
0000
0010
0000
,  // measure 7
0100
0000
0001
0000
,  // measure 8
1000
0001
1000
0000
,  // measure 9
0100
0000
0010
0000
,  // measure 10
0001
0000
0000
0000
,  // measure 11
0100
0000
0010
0000
,  // measure 12
1000
0000
0000
0000
,  // measure 13
0100
0000
1000
0000
,  // measure 14
0001
0000
0100
0000
,  // measure 15
0010
0000
0000
0000
,  // measure 16
0100
0001
0100
0000
,  // measure 17
0001
0000
1000
0000
,  // measure 18
0001
0000
0000
0000
,  // measure 19
0010
0000
0100
0000
,  // measure 20
1000
0000
0000
0000
,  // measure 21
0010
0000
0100
0000
,  // measure 22
0001
0000
0000
0000
,  // measure 23
1000
0000
0100
0000
,  // measure 24
1000
0001
1000
0000
,  // measure 25
0001
1000
0001
0000
,  // measure 26
1000
0000
0010
0100
,  // measure 27
0001
0000
1000
0000
,  // measure 28
0100
0000
0010
0001
,  // measure 29
1000
0000
0010
0000
,  // measure 30
0100
0000
0001
1000
,  // measure 31
0100
0000
1000
0000
,  // measure 32
0001
0010
0100
0000
,  // measure 33
1000
0001
1001
0000
,  // measure 34
1000
0001
1000
0000
,  // measure 35
0100
0000
0010
0000
,  // measure 36
0001
0000
0000
0000
,  // measure 37
1000
0000
0010
0000
,  // measure 38
0100
0001
0100
0000
,  // measure 39
0010
0000
1000
0000
,  // measure 40
0001
0000
0000
0000
,  // measure 41
0010
0000
0000
0000
,  // measure 42
0100
0000
1000
0000
,  // measure 43
0001
1000
0001
0000
,  // measure 44
1000
0000
0000
0000
,  // measure 45
0010
0000
0000
0000
,  // measure 46
0100
0000
0001
0000
,  // measure 47
1000
0000
0100
0000
,  // measure 48
1000
0000
0010
0000
,  // measure 49
0100
0000
0001
0000
,  // measure 50
0010
0100
0010
0100
,  // measure 51
0010
0000
0000
0000
,  // measure 52
0001
0000
1000
0000
,  // measure 53
0001
0000
0000
0000
,  // measure 54
0100
0000
0010
0000
,  // measure 55
1000
0000
0000
0000
,  // measure 56
0100
0000
1000
0000
,  // measure 57
0001
0000
1000
0000
,  // measure 58
0100
1000
0100
0000
,  // measure 59
0010
0000
0001
0000
,  // measure 60
0200
0000
0000
0000
,  // measure 61
0300
0000
0000
0000
;
