#TITLE:GLAMOROUS SKY;
#SUBTITLE:;
#ARTIST:NANA starring MIKA NAKASHIMA;
#TITLETRANSLIT:;
#SUBTITLETRANSLIT:;
#ARTISTTRANSLIT:;
#CREDIT:Xythar;
#BANNER:GLAMOROUS SKY-bn.avi;
#BACKGROUND:GLAMOROUS SKY-bg.png;
#LYRICSPATH:GLAMOROUS SKY.lrc;
#CDTITLE:NANA.png;
#MUSIC:GLAMOROUS SKY.mp3;
#OFFSET:-3.105;
#SAMPLESTART:73.067;
#SAMPLELENGTH:12.763;
#SELECTABLE:YES;
#BPMS:0.000=150.020;
#STOPS:;
#BGCHANGES:-9.150=GLAMOROUS SKY.avi=1.000=1=0=1,
264.000=GLAMOROUS SKY-bg.png=1.000=1=0=1,
99999=-nosongbg-=1.000=0=0=0 // don't automatically add -songbackground-
;

//---------------dance-single - ----------------
#NOTES:
     dance-single:
     :
     Hard:
     7:
     0.448,0.470,0.199,0.069,0.000:
0000
0000
0000
0000
,
0000
0000
0000
0000
,
0000
0000
0000
0000
,
0000
0000
0000
0000
,
1000
0000
0000
0010
0000
0000
0100
0000
,
0001
0000
0000
0010
0000
0000
0100
0000
,
1001
0000
0000
1010
0000
0000
0011
0000
,
0000
0100
0000
0000
1000
0010
0100
0000
,
0011
0000
0000
1100
0000
0000
1001
0000
,
0000
0010
0000
0000
0100
0001
0100
0001
,
1000
0000
1001
0000
0001
0010
0100
0010
,
0001
0000
1000
0010
0100
0000
0001
0010
,
0100
0000
1010
0000
0100
0001
1000
0001
,
0010
0000
0100
1000
0001
0000
0100
0001
,
0010
0000
1100
0000
0010
0100
0001
0100
,
0010
0000
1000
0100
0000
1000
0010
0100
,
0001
0000
0010
0100
0000
0100
0010
0000
,
1001
0000
0001
0101
0000
1000
0100
0010
,
0001
1000
0010
0000
0100
0001
0100
0001
,
1000
0000
0100
1000
0010
0000
0100
0001
,
0010
0000
1001
0000
0001
1000
0010
1000
,
0001
0010
0100
1000
0010
0100
0001
1000
,
0100
0000
0110
0000
0001
0100
0010
1000
,
0000
1000
0001
1000
0100
0000
0001
0000
,
0100
1000
0100
1000
0100
1000
0001
1001
,
0000
0100
0010
1001
0000
0001
0010
0100
,
1000
0010
1000
0010
1000
0001
1000
1001
,
0000
0001
0100
1000
0100
0001
0000
2100
,
0000
0001
3001
0000
0010
0100
1000
0010
,
0000
0100
0001
0000
1000
0100
1000
0010
,
0100
0000
0001
1000
0000
0100
1000
0020
,
0000
0100
0000
1030
0000
0100
0010
0001
,
1000
0000
0010
0100
0000
0001
1000
0100
,
0000
1000
0001
0100
0000
0010
1000
0001
,
1000
0000
0100
0000
1000
0001
1000
0000
,
0010
0100
0001
0100
0010
0100
0000
1002
,
0000
0100
0103
0000
0001
0010
0100
1000
,
0000
0010
0100
0001
1000
0000
0100
0000
,
1000
0010
0100
0001
0000
0010
0100
2000
,
0000
0010
0000
3001
0000
0100
0010
0100
,
0001
0000
0010
0100
1000
0000
0010
0100
,
0001
0000
1000
0100
0000
1000
0010
0100
,
0001
1000
0001
0000
,
1100
0000
1100
0000
0001
0100
0000
2010
,
0000
0100
3100
0010
0001
0100
0010
0100
,
0000
0100
0001
0010
0100
1000
0010
0100
,
0001
1000
0100
1000
0000
0010
0100
0001
,
0010
0100
1000
0010
0000
0100
0001
0000
,
1000
0100
1000
0010
0000
0100
0001
1000
,
0000
0010
1000
0001
0000
0010
0100
1000
,
0010
0100
0001
0100
0000
0001
1000
0100
,
0000
1000
0010
1000
0010
0100
0000
2001
,
0000
0100
3100
0010
0001
0010
0001
1000
,
0000
0010
0100
0001
0100
0010
1000
0100
,
0010
0000
0100
1000
0000
0010
0100
0001
,
0000
0100
0010
1000
0000
0001
1000
0100
,
1000
0010
0100
0001
0000
0010
0100
1000
,
0000
0010
0100
0001
0000
1000
0100
1000
,
0010
0010
0010
0010
,
1000
0001
1000
0001
0100
0010
0000
0000
,
1001
0000
0000
0100
0000
0000
1000
0000
,
0010
0000
2000
0000
,
0000
0002
0000
0000
0000
0000
0000
0000
,
0000
0000
0000
0000
,
3003
0000
0000
0000
;

//---------------dance-single - ----------------
#NOTES:
     dance-single:
     :
     Medium:
     6:
     0.372,0.387,0.164,0.121,0.000:
0000
0000
0000
0000
,
0000
0000
0000
0000
,
0000
0000
0000
0000
,
0000
0000
0000
0000
,
0001
0000
0000
1000
,
0100
0000
1000
0000
,
0102
0000
0000
0010
0000
0000
0013
0000
,
0000
1000
0000
0000
0100
1000
0100
0000
,
2001
0000
0000
0010
0000
0000
3010
0000
,
0000
0100
0000
0000
0001
1000
0001
0000
,
1000
0000
0100
0000
1000
0000
0010
0100
,
0000
0001
0000
1000
0000
0100
0000
0010
,
0001
0000
0100
0000
0010
0000
1000
0001
,
0000
0100
0000
0010
0000
0100
0000
0001
,
1000
0000
0000
0100
0000
0000
1000
0000
,
0010
0000
0100
0010
0000
0000
1000
0000
,
0001
0000
0000
0100
0000
0000
0010
0000
,
1001
0000
0000
1100
0000
0001
0100
0000
,
0010
0000
1000
0000
0100
0000
0010
0001
,
0000
1000
0000
0010
0000
0100
0000
0001
,
1000
0000
0100
0000
0010
0000
0001
0100
,
0000
0010
0100
0010
0000
1000
0000
0100
,
0010
0000
0001
1000
0000
1000
0001
0100
,
0000
0010
0000
1000
0100
0000
1000
0000
,
1001
0000
1001
0000
1001
0000
0010
0100
,
0000
0001
0000
1100
0000
0010
0000
0000
,
0110
0000
0110
0000
0110
0000
0001
1000
,
0000
0001
1000
0001
1000
0001
0000
2000
,
0000
0100
3100
0000
0000
1000
0001
2000
,
0000
0010
3010
0000
0100
0000
0001
0000
,
0010
0000
0100
1000
0000
1000
0100
0000
,
1000
0000
0010
0100
0000
0100
0010
0000
,
1000
0000
0100
0010
0000
0001
0100
0001
,
0100
0000
0010
1000
0000
0100
0010
0100
,
0010
0000
0001
1000
0000
1000
0001
0000
,
1000
0000
1001
0000
1001
0000
0000
0020
,
0000
0100
0130
0000
0000
0001
0010
0002
,
0000
1000
1003
0000
0100
0000
1000
0000
,
0010
0000
0100
0001
0000
0001
0100
0000
,
0010
0000
1000
0100
0000
0100
1000
0000
,
0010
0000
0100
0001
0000
0001
1000
0001
,
1000
0000
0100
0010
0000
0001
0010
0001
,
0010
0000
0100
1000
0000
1000
0001
0000
,
1001
0000
1001
0000
0010
0100
0000
0002
,
0000
0100
0103
0000
0010
1000
0010
2000
,
0000
0001
3001
0000
1000
0100
1000
0000
,
0020
0000
0100
0130
0000
0001
1000
0000
,
0100
0000
0010
0001
0000
0100
0010
0000
,
1000
0000
0001
0010
0000
0001
1000
0001
,
1000
0000
0010
0100
0000
0001
1000
0001
,
1000
0000
0100
0010
0000
0010
0100
0000
,
1001
0000
1001
0000
0010
0100
0000
0002
,
0000
1000
1003
0000
1000
0010
1000
0020
,
0000
0100
0130
0000
0001
0100
0001
0000
,
0020
0000
0100
0130
0000
0001
1000
0000
,
0100
0000
0010
0001
0000
0100
0010
0000
,
1000
0000
0010
0100
0000
0001
1000
0001
,
1000
0000
0100
0010
0000
0001
1000
0001
,
1000
0000
1000
0001
0000
0001
1000
0000
,
1100
1100
0001
0001
,
0100
0000
0000
0000
,
0010
0000
2000
0000
,
0000
0002
0000
0000
0000
0000
0000
0000
,
0000
0000
0000
0000
,
3003
0000
0000
0000
;

//---------------dance-single - ----------------
#NOTES:
     dance-single:
     :
     Easy:
     3:
     0.205,0.233,0.078,0.043,0.000: // measure 1
0000
0000
0000
0000
,  // measure 2
0000
0000
0000
0000
,  // measure 3
0000
0000
0000
0000
,  // measure 4
0000
0000
0000
0000
,  // measure 5
1000
0000
0000
0000
,  // measure 6
0001
0000
0000
0000
,  // measure 7
1001
0000
0000
1000
,  // measure 8
0000
0000
0010
0010
,  // measure 9
1001
0000
0000
0100
,  // measure 10
0000
0000
0010
0001
,  // measure 11
0010
0000
0100
1000
,  // measure 12
0010
0000
0100
0000
,  // measure 13
0001
0000
1000
0100
,  // measure 14
1000
0000
0010
0000
,  // measure 15
0100
0000
0001
0000
,  // measure 16
1000
0000
0010
0100
,  // measure 17
0001
0000
0010
0000
,  // measure 18
0100
1000
0001
1000
,  // measure 19
1001
0000
0010
0100
,  // measure 20
0001
0000
0010
0000
,  // measure 21
0100
0000
1000
0010
,  // measure 22
0100
0010
1000
0100
,  // measure 23
0010
0000
0001
0000
,  // measure 24
1000
0000
0100
1000
,  // measure 25
0001
0001
0001
0001
,  // measure 26
1001
0000
0000
0000
,  // measure 27
1000
1000
1000
1000
,  // measure 28
1001
0000
0010
0000
,  // measure 29
0200
0000
0000
1300
,  // measure 30
0010
0000
0100
0001
,  // measure 31
0200
0000
0310
0000
,  // measure 32
1000
0100
0010
0000
,  // measure 33
0001
0100
0010
0000
,  // measure 34
1000
0100
1000
0000
,  // measure 35
0010
0100
0001
0000
,  // measure 36
1000
0000
1001
0000
,  // measure 37
0020
0000
0000
0130
,  // measure 38
0001
0000
0010
0100
,  // measure 39
1000
0000
0010
0000
,  // measure 40
0100
0001
1000
0000
,  // measure 41
0100
1000
0010
0000
,  // measure 42
0100
0001
0010
0000
,  // measure 43
0100
0000
1000
0000
,  // measure 44
0001
1000
1001
0000
,  // measure 45
0002
0000
0000
1003
,  // measure 46
0010
0000
0100
0001
,  // measure 47
0010
0100
1000
0000
,  // measure 48
0010
0100
0001
0000
,  // measure 49
1000
0100
1000
0010
,  // measure 50
0100
0010
1000
0100
,  // measure 51
0010
0000
0001
0000
,  // measure 52
1000
1000
1001
0000
,  // measure 53
0020
0000
0130
0001
,  // measure 54
1000
0000
0100
1000
,  // measure 55
0010
0100
0001
0000
,  // measure 56
0010
0100
0010
0000
,  // measure 57
0100
1000
0010
0100
,  // measure 58
0010
1000
0100
0010
,  // measure 59
0001
0000
0001
0000
,  // measure 60
1000
0001
1000
0001
,  // measure 61
1001
0000
0000
0000
;

//---------------dance-single - ----------------
#NOTES:
     dance-single:
     :
     Beginner:
     1:
     0.112,0.156,0.061,0.017,0.000: // measure 1
0000
0000
0000
0000
,  // measure 2
0000
0000
0000
0000
,  // measure 3
0000
0000
0000
0000
,  // measure 4
0000
0000
0000
0000
,  // measure 5
1000
0000
0000
0000
,  // measure 6
0001
0000
0000
0000
,  // measure 7
1001
0000
0000
0000
,  // measure 8
0000
0000
0000
0000
,  // measure 9
1001
0000
0000
0000
,  // measure 10
0000
0000
0000
0000
,  // measure 11
1000
0000
1000
0000
,  // measure 12
1000
0000
1000
0000
,  // measure 13
1000
0000
0001
0000
,  // measure 14
0001
0000
0001
0000
,  // measure 15
0001
0000
0000
0000
,  // measure 16
0010
0000
0000
0000
,  // measure 17
0100
0000
0000
0000
,  // measure 18
1000
0000
0001
0000
,  // measure 19
1001
0000
0000
0000
,  // measure 20
0010
0000
0100
0000
,  // measure 21
0001
0000
0000
0000
,  // measure 22
1000
0000
0100
0000
,  // measure 23
1000
0000
0000
0000
,  // measure 24
0010
0000
0100
0000
,  // measure 25
0001
0001
0001
0000
,  // measure 26
0000
0000
0000
0000
,  // measure 27
1000
1000
1000
0000
,  // measure 28
1001
0000
0000
0000
,  // measure 29
0002
0000
0000
0000
,  // measure 30
0103
0000
0010
0000
,  // measure 31
1000
0000
0100
0000
,  // measure 32
1000
0000
0010
0000
,  // measure 33
0100
0000
0001
0000
,  // measure 34
1000
0000
0100
0000
,  // measure 35
1000
0000
0000
0000
,  // measure 36
0001
0000
0000
0000
,  // measure 37
2000
0000
0000
0000
,  // measure 38
3100
0000
0010
0000
,  // measure 39
0001
0000
0100
0000
,  // measure 40
0000
0000
0000
0000
,  // measure 41
0010
0000
1000
0000
,  // measure 42
0100
0000
1000
0000
,  // measure 43
0010
0000
0000
0000
,  // measure 44
0100
0000
0000
0000
,  // measure 45
1001
0000
0000
0000
,  // measure 46
0010
0000
0100
0000
,  // measure 47
0001
0000
1000
0000
,  // measure 48
0100
0000
0000
0000
,  // measure 49
1000
0000
0010
0000
,  // measure 50
0100
0000
0001
0000
,  // measure 51
1000
0000
0100
0000
,  // measure 52
1000
0000
0000
0000
,  // measure 53
1001
0000
0000
0000
,  // measure 54
0010
0000
0100
0000
,  // measure 55
0001
0000
1000
0000
,  // measure 56
0000
0000
0000
0000
,  // measure 57
0100
0000
1000
0000
,  // measure 58
0010
0000
0100
0000
,  // measure 59
0001
0000
0000
0000
,  // measure 60
1000
0000
0000
0000
,  // measure 61
1001
0000
0000
0000
;
