#TITLE:GADARINA;
#SUBTITLE:;
#ARTIST:D-crew;
#TITLETRANSLIT:;
#SUBTITLETRANSLIT:;
#ARTISTTRANSLIT:;
#CREDIT:Xythar;
#BANNER:GADARINA.png;
#BACKGROUND:GADARINA-bg.png;
#LYRICSPATH:;
#CDTITLE:popnmusic.png;
#MUSIC:GADARINA.ogg;
#OFFSET:-4.833;
#SAMPLESTART:68.425;
#SAMPLELENGTH:12.000;
#SELECTABLE:YES;
#BPMS:0.000=200.000;
#STOPS:;
#BGCHANGES:;

//---------------dance-single - ----------------
#NOTES:
     dance-single:
     :
     Easy:
     3:
     0.241,0.267,0.126,0.000,0.000: // measure 1
0000
0000
0000
0000
,  // measure 2
1000
0000
0000
0000
,  // measure 3
0001
0000
0000
0000
,  // measure 4
0010
0000
0000
0000
,  // measure 5
1001
0000
0000
1001
,  // measure 6
0000
0000
0010
0000
,  // measure 7
0100
0001
0100
0000
,  // measure 8
0010
0000
1000
0000
,  // measure 9
0100
0000
1000
0000
,  // measure 10
0001
0000
0100
0000
,  // measure 11
0010
0000
1000
0000
,  // measure 12
0100
0000
0010
0000
,  // measure 13
0110
0000
0000
0110
,  // measure 14
0000
0000
0001
0000
,  // measure 15
1000
0100
1000
0001
,  // measure 16
0000
0000
1000
0000
,  // measure 17
0110
0000
0000
0110
,  // measure 18
0000
0000
0100
0000
,  // measure 19
0001
0000
1000
0000
,  // measure 20
0000
0000
0001
0000
,  // measure 21
1001
0000
0000
1001
,  // measure 22
0000
0000
0001
0000
,  // measure 23
0100
0001
0100
0000
,  // measure 24
0000
0000
0010
0000
,  // measure 25
1010
0000
0000
1010
,  // measure 26
0000
0000
1000
0000
,  // measure 27
0100
0010
0001
0010
,  // measure 28
0000
0000
0001
0000
,  // measure 29
0101
0000
0000
0101
,  // measure 30
0000
0000
1000
0000
,  // measure 31
0010
0100
0001
0100
,  // measure 32
0000
0000
0001
0000
,  // measure 33
0011
0000
0000
0011
,  // measure 34
0000
0000
0100
0000
,  // measure 35
1000
0100
0010
0001
,  // measure 36
0000
0000
1000
0000
,  // measure 37
0010
0000
0100
0000
,  // measure 38
0001
0000
1000
0000
,  // measure 39
0100
0010
0100
1000
,  // measure 40
0010
0000
0100
0000
,  // measure 41
0001
0000
1000
0000
,  // measure 42
0001
0010
0100
0000
,  // measure 43
1000
0010
0100
0000
,  // measure 44
0001
0000
1000
0000
,  // measure 45
0010
0000
0100
0000
,  // measure 46
0001
1000
0100
0000
,  // measure 47
0100
1000
0001
0000
,  // measure 48
0100
0010
1000
0000
,  // measure 49
0010
0100
0001
0000
,  // measure 50
1000
0000
0100
0000
,  // measure 51
0010
0000
0001
0000
,  // measure 52
1000
0010
0100
0010
,  // measure 53
1000
0100
0010
0001
,  // measure 54
1000
0000
0001
0000
,  // measure 55
0100
0000
0010
0000
,  // measure 56
1000
0000
0100
0000
,  // measure 57
1000
0000
0000
0000
,  // measure 58
0010
0000
0000
0000
,  // measure 59
0100
0000
0000
0000
,  // measure 60
0001
0000
0000
0000
,  // measure 61
1000
0000
0000
0000
,  // measure 62
0100
0000
0010
0000
,  // measure 63
0001
0100
0010
0000
,  // measure 64
1000
0000
0100
0000
,  // measure 65
1000
0000
0010
0000
,  // measure 66
0100
0000
0000
0000
,  // measure 67
0001
0000
0000
0000
,  // measure 68
1000
0000
0000
0000
,  // measure 69
0100
0000
0000
0000
,  // measure 70
1000
0000
0010
0100
,  // measure 71
0001
0000
1000
0000
,  // measure 72
0100
1000
0010
0000
,  // measure 73
0100
0000
0001
0000
,  // measure 74
1000
0000
0000
0000
,  // measure 75
0100
0000
0000
0000
,  // measure 76
0010
0001
0010
0000
,  // measure 77
0100
1000
0010
0000
,  // measure 78
0100
0000
0000
0000
,  // measure 79
0001
0000
0000
0000
,  // measure 80
1000
0010
0100
0010
,  // measure 81
1000
0100
0010
0001
,  // measure 82
1000
0000
0001
0000
,  // measure 83
0100
0000
0010
0000
,  // measure 84
1000
0100
1000
0000
,  // measure 85
0001
0100
0001
1000
,  // measure 86
0100
0000
0000
0000
;

//---------------dance-single - ----------------
#NOTES:
     dance-single:
     :
     Hard:
     9:
     0.630,0.648,0.188,0.090,0.004: // measure 1
0000
0000
0000
0000
,  // measure 2
1000
0000
0001
0000
,  // measure 3
0100
0000
0000
0000
0000
0010
0100
0000
,  // measure 4
0000
0001
1000
0000
,  // measure 5
1100
0000
0000
0110
0000
0000
0011
0000
,  // measure 6
0001
0100
0010
0100
0001
0010
0100
1000
,  // measure 7
0010
0100
0010
1000
0100
0010
0100
0000
,  // measure 8
0000
1000
0100
0010
,  // measure 9
0001
0000
0100
0001
0000
0001
1000
0000
,  // measure 10
0001
0010
0100
1000
,  // measure 11
0010
0000
0100
0001
0000
0001
1000
0000
,  // measure 12
0100
1000
0001
0100
,  // measure 13
0101
0000
0000
0110
0000
0000
1010
0000
,  // measure 14
0001
0010
0100
1000
0010
0100
0010
1000
,  // measure 15
0001
0100
0010
1000
0100
0010
0001
0000
,  // measure 16
1000
0010
0100
0001
,  // measure 17
1001
0000
0000
0110
0000
0000
0011
0000
,  // measure 18
0001
1000
0010
0100
,  // measure 19
0001
0000
1000
0100
0000
0100
1000
0000
,  // measure 20
0001
0100
0010
1000
,  // measure 21
1010
0000
0000
0110
0000
0000
0101
0000
,  // measure 22
1000
0100
0010
0100
1000
0001
0010
0100
,  // measure 23
0010
0001
1000
0010
0100
0010
1000
0000
,  // measure 24
0001
0010
0100
1000
,  // measure 25
1100
0000
0000
0011
0000
0000
0101
0000
,  // measure 26
0001
0100
0010
0100
0001
1000
0100
0010
,  // measure 27
0001
0010
0100
1000
0010
0100
0001
0000
,  // measure 28
1000
0100
0010
0001
,  // measure 29
0011
0000
0000
1100
0000
0000
0101
0000
,  // measure 30
0001
0100
0010
1000
0001
1000
0010
0100
,  // measure 31
0001
1000
0100
0010
0100
1000
0001
0000
,  // measure 32
1000
0010
0100
0001
,  // measure 33
0110
0000
0000
1010
0000
0000
1001
0000
,  // measure 34
1000
0100
0010
0001
1000
0001
0010
0100
,  // measure 35
1000
0010
0100
0001
1000
0100
0010
0000
,  // measure 36
0001
0010
0001
0010
,  // measure 37
0100
1000
0100
1000
,  // measure 38
0001
0010
0100
0010
0100
1000
0010
0100
,  // measure 39
1000
0100
0010
0100
0001
1000
0100
0000
,  // measure 40
0001
0100
1000
0001
,  // measure 41
0100
0000
0010
1000
0000
1000
0001
0000
,  // measure 42
1000
0100
0010
0100
0001
0100
0010
0100
,  // measure 43
1000
0010
0100
0010
1000
0010
1000
0001
,  // measure 44
1000
0010
0100
0001
,  // measure 45
1000
0000
0001
0100
0000
0100
0010
0000
,  // measure 46
1000
0001
0100
0001
1000
0100
0010
0100
,  // measure 47
1000
0001
0100
0010
0100
1000
0100
0010
,  // measure 48
0000
0100
0001
1000
0100
1000
0001
0000
,  // measure 49
1000
0100
0010
0001
0100
0010
1000
0001
,  // measure 50
1000
0010
0100
0001
0100
0010
0100
0001
,  // measure 51
1000
0001
1000
0100
1000
0010
0100
0001
,  // measure 52
0000
1000
0001
0010
0100
1000
0010
0000
,  // measure 53
0100
0001
0100
0010
1000
0100
0010
0001
,  // measure 54
1000
0010
0100
0001
,  // measure 55
0100
0000
0010
1000
0100
0010
0100
1000
,  // measure 56
0001
0100
0010
0100
0001
0000
1000
0000
,  // measure 57
0002
0100
0100
0103
,  // measure 58
0020
1000
1000
1030
,  // measure 59
0200
0010
0010
0310
,  // measure 60
0002
1000
1000
1003
,  // measure 61
0020
0100
0100
0130
,  // measure 62
0001
0100
0010
1000
,  // measure 63
0001
0000
1000
0100
0010
0100
1000
0001
,  // measure 64
0100
0010
0100
0001
0010
0000
0100
0000
,  // measure 65
2000
0010
0010
3001
,  // measure 66
0200
0010
0010
0301
,  // measure 67
0020
0100
0100
0031
,  // measure 68
2000
0010
0010
3100
,  // measure 69
0020
0100
0100
0031
,  // measure 70
1000
0010
0100
0001
,  // measure 71
1000
0000
0001
0010
0100
0001
0100
0010
,  // measure 72
0001
0100
0010
0100
0001
1000
0010
0100
,  // measure 73
0001
1000
0010
0100
,  // measure 74
0001
0010
0100
1000
,  // measure 75
0001
0000
0100
0010
0001
0010
0100
0001
,  // measure 76
0010
0100
1000
0010
0100
0001
0100
0010
,  // measure 77
0100
0000
0001
0000
0010
0000
0100
1000
,  // measure 78
0100
1000
0010
0100
,  // measure 79
0001
0000
1000
0010
0100
0010
1000
0001
,  // measure 80
0010
0000
0100
0000
0010
0000
0001
0000
1000
0000
0001
0000
1000
0001
1000
0000
,  // measure 81
0010
1000
0100
0010
0001
0010
1000
0001
,  // measure 82
1000
0001
0100
0010
,  // measure 83
1000
0000
0100
0010
0001
0010
0100
1000
,  // measure 84
0010
0100
0001
0100
0010
0000
1000
0100
,  // measure 85
0010
0001
0100
0010
1000
0001
0010
0100
,  // measure 86
1000
0000
0000
0000
;

//---------------dance-single - ----------------
#NOTES:
     dance-single:
     :
     Medium:
     6:
     0.395,0.381,0.063,0.090,0.000: // measure 1
0000
0000
0000
0000
,  // measure 2
0001
0000
0010
0000
,  // measure 3
0100
0000
0000
0000
0000
1000
0000
0000
,  // measure 4
0000
0000
0001
0000
,  // measure 5
1000
0000
0000
0001
0000
0000
1001
0000
,  // measure 6
1000
0010
0100
0001
,  // measure 7
0100
0000
0010
0000
1000
0010
1000
0000
,  // measure 8
0001
0000
1000
0000
,  // measure 9
0010
0000
0000
0100
0000
0000
0001
0000
,  // measure 10
1000
0000
0001
0000
,  // measure 11
1000
0000
0000
0100
0000
0000
0010
0000
,  // measure 12
0001
0000
0100
0000
,  // measure 13
0001
0000
0000
0100
0000
0000
0101
0000
,  // measure 14
0001
0010
0100
1000
,  // measure 15
0010
0000
0100
0000
0001
0100
0001
0000
,  // measure 16
1000
0000
0100
0000
,  // measure 17
0010
0000
0000
0100
0000
0000
0110
0000
,  // measure 18
0000
0010
0001
0000
,  // measure 19
1000
0000
0000
0010
0000
0000
0100
0000
,  // measure 20
0000
0001
0100
0000
,  // measure 21
0001
0000
0000
1000
0000
0000
1001
0000
,  // measure 22
1000
0100
0010
0001
,  // measure 23
0100
0000
0010
0000
1000
0001
1000
0000
,  // measure 24
0000
0001
0100
0000
,  // measure 25
0010
0000
0000
1000
0000
0000
1010
0000
,  // measure 26
0000
0010
0100
0001
,  // measure 27
1000
0000
0100
0000
0010
0001
0010
0000
,  // measure 28
0000
0001
0100
0010
,  // measure 29
0100
0000
0000
0001
0000
0000
0101
0000
,  // measure 30
0100
0010
1000
0100
,  // measure 31
0010
0000
0001
0000
1000
0001
1000
0000
,  // measure 32
0000
0010
0100
0000
,  // measure 33
0010
0000
0000
1000
0000
0000
1010
0000
,  // measure 34
1000
0100
0010
0001
,  // measure 35
0100
0000
0010
0000
0100
0001
0100
0000
,  // measure 36
0001
0000
0010
0000
,  // measure 37
0100
0000
1000
0000
,  // measure 38
0010
0100
0001
1000
,  // measure 39
0001
0000
0010
0000
0100
1000
0100
0000
,  // measure 40
0000
1000
0010
0000
,  // measure 41
0100
0000
0000
0001
0000
0000
1000
0000
,  // measure 42
0001
0010
0100
1000
,  // measure 43
0001
0000
0100
0000
0010
0100
0010
0100
,  // measure 44
0010
0100
0001
0000
,  // measure 45
1000
0000
0000
0100
0000
0000
0010
0000
,  // measure 46
0100
0010
0001
1000
,  // measure 47
0010
0000
0100
0000
0001
0000
1000
0100
,  // measure 48
0000
0100
1000
0000
0001
0000
0100
0000
,  // measure 49
0010
0100
0001
1000
,  // measure 50
0100
0010
0100
0010
,  // measure 51
0001
0000
0010
0000
0100
0000
1000
0001
,  // measure 52
0000
0001
0100
0000
0010
0000
1000
0000
,  // measure 53
0001
1000
0001
1000
0001
1000
0001
0000
,  // measure 54
1000
0000
0010
0000
,  // measure 55
0100
0001
0100
0010
,  // measure 56
1000
0000
0100
0010
0100
0000
0010
0000
,  // measure 57
0002
0000
0103
0000
,  // measure 58
0020
0000
1030
0000
,  // measure 59
0002
0000
0103
0000
,  // measure 60
0020
0000
0130
0000
,  // measure 61
0002
0000
1003
0000
,  // measure 62
0100
0000
0010
0000
,  // measure 63
0001
1000
0010
0100
,  // measure 64
0010
0000
1000
0010
1000
0000
0001
0000
,  // measure 65
0020
0000
0130
0000
,  // measure 66
2000
0000
3010
0000
,  // measure 67
0200
0000
0301
0000
,  // measure 68
2000
0000
3100
0000
,  // measure 69
0020
0000
0031
0000
,  // measure 70
1000
0010
0100
0001
,  // measure 71
1000
0100
0010
0001
,  // measure 72
1000
0000
0001
0000
0010
0000
0100
0010
,  // measure 73
0100
1000
0001
0000
,  // measure 74
0100
0010
1000
0010
,  // measure 75
0100
0001
1000
0100
,  // measure 76
0010
0000
0001
0010
0001
0000
1000
0000
,  // measure 77
0010
0000
0100
0000
0001
0000
1000
0001
,  // measure 78
1000
0010
0100
0001
,  // measure 79
1000
0100
0010
0001
,  // measure 80
0100
0000
0010
0000
1000
0000
0010
1000
,  // measure 81
0010
0000
0100
0001
0100
0000
0001
0000
,  // measure 82
0010
0100
1000
0001
,  // measure 83
1000
0010
0100
0010
,  // measure 84
1000
0000
0100
1000
0100
0000
1000
0000
,  // measure 85
0010
0000
0100
0000
0001
0000
1000
0001
,  // measure 86
1000
0000
0000
0000
;

//---------------dance-single - ----------------
#NOTES:
     dance-single:
     :
     Beginner:
     2:
     0.176,0.229,0.063,0.000,0.000: // measure 1
0000
0000
0000
0000
,  // measure 2
1000
0000
0000
0000
,  // measure 3
0001
0000
0000
0000
,  // measure 4
0100
0000
0000
0000
,  // measure 5
1001
0000
0000
0000
,  // measure 6
0001
0000
0100
0000
,  // measure 7
0010
0000
1000
0000
,  // measure 8
0100
0000
0000
0000
,  // measure 9
1000
0000
0000
0000
,  // measure 10
0010
0000
0000
0000
,  // measure 11
0100
0000
0000
0000
,  // measure 12
0001
0000
0000
0000
,  // measure 13
1001
0000
0000
0000
,  // measure 14
1000
0000
0010
0000
,  // measure 15
0100
0000
0010
0000
,  // measure 16
0100
0000
0000
0000
,  // measure 17
1001
0000
0000
0000
,  // measure 18
0001
0000
0000
0000
,  // measure 19
0010
0000
0000
0000
,  // measure 20
0100
0000
0000
0000
,  // measure 21
0110
0000
0000
0000
,  // measure 22
1000
0000
0010
0000
,  // measure 23
0100
0000
0001
0000
,  // measure 24
1000
0000
0000
0000
,  // measure 25
1001
0000
0000
0000
,  // measure 26
0001
0000
0100
0000
,  // measure 27
0010
0000
1000
0000
,  // measure 28
0100
0000
0000
0000
,  // measure 29
0110
0000
0000
0000
,  // measure 30
0001
0000
1000
0000
,  // measure 31
0010
0000
0100
0000
,  // measure 32
0001
0000
0000
0000
,  // measure 33
1001
0000
0000
0000
,  // measure 34
1000
0000
0010
0000
,  // measure 35
0100
0000
0001
0000
,  // measure 36
1000
0000
0000
0000
,  // measure 37
0001
0000
0000
0000
,  // measure 38
0010
0000
0100
0000
,  // measure 39
1000
0000
0010
0000
,  // measure 40
0100
0000
0000
0000
,  // measure 41
0001
0000
0000
0000
,  // measure 42
1000
0000
0010
0000
,  // measure 43
0100
0000
0010
0000
,  // measure 44
1000
0000
0000
0000
,  // measure 45
0100
0000
0000
0000
,  // measure 46
0010
0000
0001
0000
,  // measure 47
1000
0000
0001
0000
,  // measure 48
0100
0000
0010
0000
,  // measure 49
1000
0000
0100
0000
,  // measure 50
0010
0000
0001
0000
,  // measure 51
1000
0000
0010
0000
,  // measure 52
0100
0000
0001
0000
,  // measure 53
1000
0000
1000
1000
,  // measure 54
1000
0000
0000
0000
,  // measure 55
0010
0000
0100
0000
,  // measure 56
0001
0000
1000
0000
,  // measure 57
0000
0000
0000
0000
,  // measure 58
0001
0000
0000
0000
,  // measure 59
0010
0000
0000
0000
,  // measure 60
0100
0000
0000
0000
,  // measure 61
1000
0000
0000
0000
,  // measure 62
0010
0000
0000
0000
,  // measure 63
0100
0000
0001
0000
,  // measure 64
1000
0000
0100
0000
,  // measure 65
1000
0000
0000
0000
,  // measure 66
0010
0000
0000
0000
,  // measure 67
0100
0000
0000
0000
,  // measure 68
0001
0000
0000
0000
,  // measure 69
1000
0000
0000
0000
,  // measure 70
0100
0000
0010
0000
,  // measure 71
0001
0000
0100
0000
,  // measure 72
0010
0000
1000
0000
,  // measure 73
0100
0000
0010
0000
,  // measure 74
0001
0000
1000
0000
,  // measure 75
0010
0000
0100
0000
,  // measure 76
0001
0000
1000
0000
,  // measure 77
0001
0000
0010
0000
,  // measure 78
0100
0000
1000
0000
,  // measure 79
0010
0000
0100
0000
,  // measure 80
0001
0000
1000
0000
,  // measure 81
0001
0001
0001
0000
,  // measure 82
0010
0000
0100
0000
,  // measure 83
1000
0000
0010
0000
,  // measure 84
0100
0000
0001
0000
,  // measure 85
1000
0000
0001
0000
,  // measure 86
1000
0000
0000
0000
;
