#TITLE:フラチナハート;
#SUBTITLE:;
#ARTIST:ナスカ;
#TITLETRANSLIT:Furachi na Heart;
#SUBTITLETRANSLIT:;
#ARTISTTRANSLIT:Nazca;
#CREDIT:Xythar;
#BANNER:Furachi na Heart.png;
#BACKGROUND:Furachi na Heart-bg.png;
#LYRICSPATH:;
#CDTITLE:Beethoven.png;
#MUSIC:Furachi na Heart.mp3;
#OFFSET:-1.493;
#SAMPLESTART:62.190;
#SAMPLELENGTH:11.020;
#SELECTABLE:YES;
#BPMS:0.000=173.980;
#STOPS:;
#BGCHANGES:;

//---------------dance-single - ----------------
#NOTES:
     dance-single:
     :
     Hard:
     7:
     0.405,0.476,0.078,0.155,0.000:
0000
0000
0000
0000
,
0000
0000
0000
0000
,
0000
0000
0000
0000
,
0000
0000
0000
0000
,
0000
0000
0000
0000
,
0000
0000
0000
0000
,
0000
0000
0000
0000
,
0000
0000
0000
0000
,
1000
0000
0010
0000
0020
0000
0000
0100
,
0000
0100
0000
1030
0000
1000
0001
0000
,
0001
0000
0100
0000
0200
0000
0000
1000
,
0000
1000
0000
0310
0000
0010
1000
0000
,
0100
0000
1000
0000
0001
0100
0000
0010
,
0000
0000
0000
0010
0000
1000
0000
0002
,
0000
0000
1000
0000
1003
0000
0000
0001
,
0000
0010
0000
0100
0000
1000
0000
0000
,
0001
0000
0001
0000
1000
0001
1000
0000
,
0010
0000
0100
0001
0000
0001
0100
0000
,
0010
0000
0010
0000
1000
0010
1000
0000
,
0100
0000
0010
0001
0000
0001
0010
0000
,
0200
0000
1000
0000
1300
0000
0001
1000
,
0000
1000
0001
0000
1000
0001
1000
0000
,
0020
0000
0100
0000
0130
0000
0010
1000
,
0000
1000
0100
0000
1000
0001
1000
0000
,
0010
0000
0100
0000
0001
0100
0001
0000
,
1000
0000
0100
1000
0000
1000
0001
0000
,
0100
0000
0100
0000
0010
0100
0010
0000
,
1000
0000
0100
0010
0000
0010
0100
0000
,
1000
0000
1000
0000
0010
0100
0010
0100
,
0000
0100
0001
0100
0000
0001
1000
0000
,
0001
0000
0000
0000
0010
0000
0000
1100
,
0000
0001
0100
0001
0000
1000
0001
1000
,
0001
0000
0010
0000
,
0100
0000
0000
1000
0000
0001
1000
0000
,
0010
0000
0100
0000
,
0001
0000
0000
1000
0000
0001
1000
0000
,
0100
0000
0000
0000
0100
0000
0000
0010
,
0000
0001
0000
0100
0000
0010
0100
0000
,
0002
0000
1000
0000
1003
0000
0001
1001
,
0000
1000
0001
0000
1000
0000
0000
0000
,
0200
0000
0010
0000
0310
0000
0001
0100
,
0000
0001
1000
0000
0100
0000
0010
0000
,
0001
0000
0000
1000
0000
0000
0000
0000
,
0001
0000
0000
1000
0000
0000
0000
0000
,
0001
0000
0101
0000
0101
0000
0010
0100
,
0000
0001
0100
0001
0000
1000
0100
1000
,
0002
0000
0010
0023
0000
0100
0230
0000
,
0000
0000
1300
0000
0001
0000
1000
0001
,
2000
0000
0010
0000
3010
0000
0000
0100
,
0000
0001
0000
0100
0010
0000
1000
0000
,
1100
0000
0000
0001
0000
0010
0100
0010
,
0000
0001
0100
0001
0100
0000
0010
0000
,
2010
0000
0000
0000
0100
0000
0000
0100
,
0000
0100
0000
3100
0000
0010
0001
0010
,
0001
0000
0001
0100
0000
0100
0010
0000
,
0010
1000
0000
1000
0001
1000
0001
0000
,
0020
0000
0000
0000
0100
0000
0000
0100
,
0000
0130
0000
0000
1000
0000
0001
0000
,
0100
0000
0000
0000
0010
0000
0000
0110
,
0000
0000
0000
0000
0100
0001
0100
0001
,
0000
0000
0000
0000
2000
0000
0000
0100
,
0000
3100
0000
1100
0000
0001
0100
0000
,
0010
0000
0000
0000
1000
0000
0000
0001
,
0000
0010
0000
0100
0000
1000
0000
0000
,
0001
0000
0001
0000
1000
0000
0000
0100
,
0000
0100
0000
0010
0000
0010
0100
0010
,
0100
0000
1000
0001
0000
0001
1000
0000
,
0000
0010
0000
0100
0001
0100
0001
0000
,
2000
0000
0000
0100
0000
0000
3100
0000
,
0002
0000
0000
0100
0000
0000
0103
0000
,
0001
1000
0001
1000
0000
0010
0100
0001
,
0000
0010
0100
1000
0000
1000
0001
0000
,
1000
0000
1000
0000
0100
1000
0100
1000
,
0000
0001
0100
0001
0000
0001
0010
0000
,
0100
0000
0100
0000
0010
0001
0010
0001
,
0000
1000
0010
1000
0000
1000
0001
0000
,
2000
0000
0000
0000
0100
0000
0000
3002
,
0000
0000
0000
0100
0000
0103
0000
0010
,
1000
0010
0000
1000
0000
0001
0000
1001
;

//---------------dance-single - ----------------
#NOTES:
     dance-single:
     :
     Medium:
     4:
     0.261,0.340,0.121,0.000,0.000: // measure 1
0000
0000
0000
0000
,  // measure 2
0000
0000
0000
0000
,  // measure 3
0000
0000
0000
0000
,  // measure 4
0000
0000
0000
0000
,  // measure 5
0000
0000
0000
0000
,  // measure 6
0000
0000
0000
0000
,  // measure 7
0000
0000
0000
0000
,  // measure 8
0000
0000
0000
0000
,  // measure 9
1000
0000
0000
0000
0001
0000
0000
0100
,  // measure 10
0000
0000
0000
0100
0000
0000
0100
0000
,  // measure 11
0010
0000
0000
0000
0010
0000
0000
1000
,  // measure 12
0000
0000
0000
1000
0000
0000
1000
0000
,  // measure 13
0100
0000
0000
0000
1000
0000
0000
0001
,  // measure 14
0000
0000
0000
0100
0000
0000
0010
0000
,  // measure 15
0100
0000
0001
0000
0010
0000
0000
0001
,  // measure 16
0000
0010
0000
0100
0000
1000
0000
0000
,  // measure 17
0010
0000
0100
0100
,  // measure 18
0001
0000
0000
1000
0000
0000
0100
0000
,  // measure 19
1000
0000
0010
0010
,  // measure 20
0100
0000
0000
0001
0000
0000
0100
0000
,  // measure 21
0010
0000
1000
0000
,  // measure 22
0100
0000
0000
0100
0000
0000
1000
0000
,  // measure 23
0001
0000
0100
0000
,  // measure 24
0100
0000
0000
0010
0000
0000
0010
0000
,  // measure 25
1000
0000
0100
0100
,  // measure 26
0010
0000
0000
0010
0000
0000
0010
0000
,  // measure 27
0001
0000
0001
0001
,  // measure 28
0100
0000
0000
0100
0000
0000
0010
0000
,  // measure 29
1000
0000
0100
0000
,  // measure 30
1000
0000
0000
1000
0000
0000
0001
0000
,  // measure 31
1000
0000
0000
1000
0000
0000
0001
0000
,  // measure 32
1000
0000
0000
0010
0000
0000
0100
0000
,  // measure 33
0001
0000
1100
0001
,  // measure 34
0100
0000
1010
0100
,  // measure 35
0001
0000
0011
0100
,  // measure 36
1000
0000
0101
0010
,  // measure 37
1000
0000
0000
0000
0100
0000
0000
1000
,  // measure 38
0000
1000
0000
1100
0000
0000
0100
0000
,  // measure 39
0010
0000
0000
0000
0001
0000
0000
0101
,  // measure 40
0000
0000
0010
1000
,  // measure 41
0001
1000
0010
0100
,  // measure 42
0001
0000
0010
0100
,  // measure 43
1001
0000
0000
0100
0000
0000
0010
0000
,  // measure 44
1000
0000
0000
0100
0000
0000
0000
0000
,  // measure 45
1001
0000
0000
0000
0010
0000
0000
0100
,  // measure 46
0000
0001
0000
0100
0000
0000
0010
0000
,  // measure 47
1000
0000
0000
0100
0000
0000
0010
0000
,  // measure 48
0000
0001
0100
0010
,  // measure 49
0100
0000
0000
0000
0001
0000
0000
1000
,  // measure 50
0000
0100
1000
0001
,  // measure 51
0100
0000
0000
0010
0000
0010
0000
1000
,  // measure 52
0000
0000
0100
1000
,  // measure 53
0001
0000
0000
0000
0001
0000
0000
0010
,  // measure 54
0000
0000
0100
1000
,  // measure 55
0001
0000
0000
1000
0000
0000
0001
0000
,  // measure 56
0000
0000
1000
1000
,  // measure 57
0100
0000
0000
0000
0100
0000
0000
0010
,  // measure 58
0000
0000
0010
0000
,  // measure 59
0001
0000
0000
0000
0001
0000
0000
0101
,  // measure 60
0000
0000
0000
0000
0010
0000
0000
1000
,  // measure 61
0000
0000
0000
0000
0100
0000
0000
0100
,  // measure 62
0000
0100
0000
0100
0000
0100
0010
0000
,  // measure 63
0000
0000
0000
0000
0000
0000
0000
0001
,  // measure 64
0000
0010
0000
0100
0000
1000
0000
0000
,  // measure 65
0001
0000
0001
0000
0001
0000
0000
0001
,  // measure 66
0000
0000
0000
0001
0000
0000
0001
0000
,  // measure 67
1000
0000
0000
1000
0000
0000
1000
0000
,  // measure 68
0000
1000
0000
0000
0010
0000
0100
0000
,  // measure 69
0101
0000
0010
1000
,  // measure 70
1100
0000
0010
0001
,  // measure 71
1001
0000
0000
0010
0000
0000
0000
0100
,  // measure 72
0000
0000
0000
0001
0000
0000
0001
0000
,  // measure 73
1000
0000
1000
0000
1000
0000
0000
0100
,  // measure 74
0000
0000
0000
0100
0000
0000
0100
0000
,  // measure 75
1000
0000
1000
0000
1000
0000
0000
0010
,  // measure 76
0000
0000
0000
0010
0000
0000
0010
0000
,  // measure 77
0100
0000
0000
0000
0001
0000
0000
1000
,  // measure 78
0000
0000
0000
0100
0000
0000
1000
0000
,  // measure 79
1001
0000
0000
0010
0000
0000
0000
1001
;

//---------------dance-single - ----------------
#NOTES:
     dance-single:
     :
     Easy:
     1:
     0.122,0.168,0.034,0.060,0.000: // measure 1
0000
0000
0000
0000
,  // measure 2
0000
0000
0000
0000
,  // measure 3
0000
0000
0000
0000
,  // measure 4
0000
0000
0000
0000
,  // measure 5
0000
0000
0000
0000
,  // measure 6
0000
0000
0000
0000
,  // measure 7
0000
0000
0000
0000
,  // measure 8
0000
0000
0000
0000
,  // measure 9
1000
0000
0000
0000
,  // measure 10
0000
0000
0000
0000
,  // measure 11
0001
0000
0000
0000
,  // measure 12
1000
0000
0000
0000
,  // measure 13
0010
0000
0000
0000
,  // measure 14
0010
0000
0000
0000
,  // measure 15
0100
0000
0000
0000
,  // measure 16
0001
0000
0010
0000
,  // measure 17
0100
0000
0000
0000
,  // measure 18
1000
0000
0001
0000
,  // measure 19
1000
0000
0000
0000
,  // measure 20
0010
0000
0100
0000
,  // measure 21
0010
0000
0000
0000
,  // measure 22
1000
0000
0000
0000
,  // measure 23
0100
0000
0000
0000
,  // measure 24
1000
0000
0001
0000
,  // measure 25
1000
0000
0000
0000
,  // measure 26
0010
0000
0100
0000
,  // measure 27
0001
0000
0000
0000
,  // measure 28
0010
0000
0010
0000
,  // measure 29
0100
0000
0000
0000
,  // measure 30
0100
0000
0000
0000
,  // measure 31
1000
0000
0000
0000
,  // measure 32
0001
0000
0000
0000
,  // measure 33
1000
0000
1000
0000
,  // measure 34
1000
0000
0000
0000
,  // measure 35
0001
0000
0001
0000
,  // measure 36
0001
0000
0000
0000
,  // measure 37
0010
0000
0000
0000
,  // measure 38
0100
0000
0000
0000
,  // measure 39
1000
0000
0001
0000
,  // measure 40
1000
0000
0000
0000
,  // measure 41
1001
0000
0000
0000
,  // measure 42
1001
0000
0000
0000
,  // measure 43
0010
0000
0100
0000
,  // measure 44
0001
0000
0000
0000
,  // measure 45
1000
0000
0100
0000
,  // measure 46
1000
0000
0010
0000
,  // measure 47
0100
0000
0001
0000
,  // measure 48
0010
0000
0000
0000
,  // measure 49
0200
0000
0000
0000
,  // measure 50
2300
0000
0000
0000
,  // measure 51
3020
0000
0000
0000
,  // measure 52
0230
0000
0000
0000
,  // measure 53
0301
0000
0000
0000
,  // measure 54
0010
0000
0100
0000
,  // measure 55
1000
0000
0000
0000
,  // measure 56
0001
0000
0000
0000
,  // measure 57
2000
0000
0000
0000
,  // measure 58
3020
0000
0000
0000
,  // measure 59
0230
0000
0000
0000
,  // measure 60
0300
0000
0000
0000
,  // measure 61
1001
0000
0000
0000
,  // measure 62
0000
0000
0000
0000
,  // measure 63
0001
0000
0000
0000
,  // measure 64
1000
0000
0100
0000
,  // measure 65
0010
0000
0000
0000
,  // measure 66
0001
0000
0000
0000
,  // measure 67
0100
0000
0010
0000
,  // measure 68
1000
0000
0100
0000
,  // measure 69
1000
0000
0000
0000
,  // measure 70
0010
0000
0000
0000
,  // measure 71
0100
0000
0001
0000
,  // measure 72
1000
0000
0001
0000
,  // measure 73
0010
0000
0000
0000
,  // measure 74
0100
0000
0000
0000
,  // measure 75
1000
0000
0000
0000
,  // measure 76
0001
0000
0000
0000
,  // measure 77
1001
0000
0000
0000
,  // measure 78
0010
0000
0100
0000
,  // measure 79
0001
0000
0000
0000
;
