#TITLE:F**k You;
#SUBTITLE:;
#ARTIST:Cee-Lo Green;
#TITLETRANSLIT:;
#SUBTITLETRANSLIT:;
#ARTISTTRANSLIT:;
#CREDIT:;
#BANNER:Fuck You.png;
#BACKGROUND:Fuck You-bg.png;
#LYRICSPATH:;
#CDTITLE:cdtitle.png;
#MUSIC:Fuck You.mp3;
#OFFSET:-0.740;
#SAMPLESTART:60.239;
#SAMPLELENGTH:15.060;
#SELECTABLE:YES;
#BPMS:0.000=127.500;
#STOPS:;
#BGCHANGES:-1.573=Fuck You.avi=1.000=1=0=0,
99999=-nosongbg-=1.000=0=0=0 // don't automatically add -songbackground-
;

//---------------dance-single - ----------------
#NOTES:
     dance-single:
     :
     Hard:
     7:
     0.436,0.519,0.130,0.173,0.070: // measure 1
0000
0000
0000
0000
,  // measure 2
0000
0000
0000
0000
,  // measure 3
0000
0000
0000
0000
,  // measure 4
0000
0000
0000
0000
0000
1000
0001
0100
,  // measure 5
0010
0000
0000
0000
0000
1000
0001
0010
,  // measure 6
0100
0000
0000
0000
0000
1000
0010
0100
,  // measure 7
0001
0000
1000
0000
1000
0000
0100
0010
,  // measure 8
0000
0000
0001
0000
0000
0001
0000
0000
0001
0000
0000
0000
1000
0000
0000
0000
,  // measure 9
0020
0000
0000
1000
0000
0100
0030
0000
,  // measure 10
2000
0000
0000
0001
0000
0100
3000
0000
,  // measure 11
0000
1001
0000
1000
0100
0010
0001
0000
,  // measure 12
0000
0100
0001
0100
0001
0000
0001
1000
,  // measure 13
0100
0000
0100
0000
1000
0001
0100
0001
,  // measure 14
1000
0000
1000
0000
0001
1000
0100
1000
,  // measure 15
0002
0013
2000
3001
,  // measure 16
0100
0000
0010
0000
1000
0000
0001
0000
0010
0100
0010
0100
0010
0000
0001
0000
,  // measure 17
1000
0000
0010
0000
0100
0000
0000
0001
1000
0000
0100
0000
1000
0000
0010
0000
,  // measure 18
0100
0000
0001
0000
1000
0000
0000
0100
0010
0000
0001
0000
0100
0000
0010
0000
,  // measure 19
1000
1000
0001
0000
1000
1000
0100
0000
,  // measure 20
1000
0000
0000
0000
0010
0000
0000
0010
0100
0000
0001
0000
0010
0000
0001
0000
,  // measure 21
1000
0000
0010
0000
0100
0000
0000
0100
0010
0000
1000
0000
0100
0000
0010
0000
,  // measure 22
0001
0000
0100
0000
0010
0000
0000
0010
1000
0000
0100
0000
0010
0000
0001
0000
,  // measure 23
0100
0000
1010
0000
0100
0001
1000
0100
,  // measure 24
0000
0000
0000
0000
0010
0000
0000
0001
0100
0000
0010
0000
1000
0000
0001
0000
,  // measure 25
2001
0000
0000
0002
0000
0003
3000
0001
,  // measure 26
1000
0100
1000
0001
0100
1000
0100
0001
,  // measure 27
0000
0001
1000
0000
0102
0000
1003
0000
,  // measure 28
0000
0010
1000
0000
1200
0000
1300
0002
,  // measure 29
0000
0000
0000
2000
0000
3000
0003
1000
,  // measure 30
0010
0100
0001
0100
0001
0000
1000
0100
,  // measure 31
0000
0000
0000
0000
1000
0000
0000
1000
0010
0000
0100
0000
0001
0000
0010
0000
,  // measure 32
0000
0000
2002
3003
,  // measure 33
1000
0010
1000
0000
0001
0000
1000
0100
,  // measure 34
0001
0100
1000
0100
0000
0001
1000
0001
,  // measure 35
0000
0000
1001
0000
0010
0000
0100
0010
,  // measure 36
0000
1000
0100
0001
0000
0001
0100
1000
,  // measure 37
0001
0000
0010
0001
0100
0100
0010
0000
,  // measure 38
0001
1000
0100
1000
0001
0000
0001
0100
,  // measure 39
0000
0000
1001
0000
0100
0000
1000
0001
,  // measure 40
0000
0000
0010
0000
0000
0010
0000
0000
0010
0000
0001
0000
1000
0000
0000
0000
,  // measure 41
0102
0000
1000
1000
0000
0103
0001
0000
,  // measure 42
2000
0000
0100
0100
0000
3001
1000
0100
,  // measure 43
0000
1001
0000
0001
1000
0010
0100
0000
,  // measure 44
0100
0010
1000
0010
0100
0001
1000
0001
,  // measure 45
0100
0000
0100
0001
0010
0100
0100
0000
,  // measure 46
0010
0001
0100
1000
0100
0001
0010
0000
,  // measure 47
2100
0000
3001
0000
1002
0000
1003
0001
,  // measure 48
0100
0000
0010
0000
1000
0000
0001
0000
0100
0010
0100
0010
0100
0000
0001
0000
,  // measure 49
1000
0000
0000
0000
;

//---------------dance-single - ----------------
#NOTES:
     dance-single:
     :
     Challenge:
     7:
     0.375,0.415,0.076,0.314,0.081:
0000
0000
0000
0000
,
0000
0000
0000
0000
,
0000
0001
0001
0000
,
0000
0000
0000
0000
,
0000
0000
0000
0000
,
0000
0000
0000
0000
,
0000
1000
1000
0000
,
0000
0000
0001
0000
0000
0001
0000
0000
0001
0000
0000
0000
0000
0000
0000
0000
,
0200
0000
0000
0000
,
0320
0000
0000
0000
,
2030
0000
0000
0000
,
3000
0001
0001
0000
,
2000
0000
0000
3010
,
0200
0000
0000
0301
,
0020
0100
0200
0030
,
1300
0001
0010
0002
0000
0000
1003
0000
,
0020
0000
0000
0000
0100
0000
0000
0130
0000
0000
0001
0000
0010
0000
0100
0000
,
2000
0000
0000
0000
0010
0000
0000
3010
0000
0000
0100
0000
0001
0000
0000
0000
,
0010
0001
0100
0000
0010
1000
0100
0000
,
0002
0000
0000
0000
0100
0000
0000
0103
0000
0000
1000
0000
0010
0000
0100
0000
,
0002
0000
0000
0000
0010
0000
0000
1003
0000
0000
0001
0000
0100
0000
0010
0000
,
2000
0000
0000
0000
0100
0000
0000
3001
0000
0000
1000
0000
0010
0000
0100
0000
,
0001
0010
0100
1000
0010
0000
0100
0001
,
2000
0000
0000
0000
0001
0000
0000
3001
0000
0000
0100
0000
0010
0000
0100
0000
,
0002
0000
0000
0000
0100
0000
0000
0013
0000
0000
0100
0000
1000
0000
0001
0000
,
2000
0000
0000
0000
0010
0000
0000
3010
0000
0000
0001
0000
0010
0000
1000
0000
,
0200
0000
0000
0000
0010
0000
0000
0310
0000
0000
1000
0000
0010
0000
0001
0000
,
0200
0000
0000
0000
1000
0000
0000
1300
0000
0000
0100
0000
0001
0000
1000
0000
,
0002
0000
0000
0000
0010
0000
0000
0023
0000
0000
0100
0000
0130
0000
1000
0000
,
0001
0000
0000
0000
1000
0000
0000
0010
0000
0000
0100
0000
0001
0000
0010
0000
,
0002
0000
0000
0000
1000
0000
0000
1003
0000
0000
0001
0000
0100
0000
0010
0000
,
0000
0000
0000
0000
0000
1000
0100
1000
,
0020
0000
0100
0000
1030
0000
0001
0010
,
0100
1000
0000
0010
0000
0100
0001
1000
,
0000
0000
0011
0000
0100
1000
0001
2000
,
0000
0010
0010
3010
0000
0001
0010
1000
,
0100
0000
0010
0001
1000
0000
0010
0000
,
0100
0001
1000
0001
0000
1000
0100
1000
,
0010
0000
0101
0000
0010
1000
0100
1000
,
0000
0000
0101
0000
0000
0110
0000
0000
1010
0000
0000
0000
0001
0000
1000
0000
,
0200
0000
0310
0000
0001
0100
0010
0100
,
0002
0000
0013
0000
0100
1000
0001
1000
,
0010
0000
0000
0000
1000
0100
1000
0000
,
0000
0001
0100
0001
0100
0000
0010
1000
,
0002
0000
0100
0000
1003
0010
0100
0010
,
2000
0000
0100
0000
3001
0010
0100
1000
,
0010
0000
0101
0000
1100
0000
0001
0100
,
0010
1000
0100
0020
0000
0000
0032
0000
,
1003
0000
0000
0000
;

//---------------dance-single - ----------------
#NOTES:
     dance-single:
     :
     Medium:
     5:
     0.332,0.389,0.022,0.195,0.000:
0000
0000
0000
0000
,
0000
0000
0000
0000
,
0000
0000
0000
0000
,
0000
0000
0000
0010
,
0010
0000
0000
1000
,
1000
0000
0000
0001
,
0001
0000
0001
0000
,
0000
1000
1000
0000
,
0200
0000
0000
0300
,
2000
0000
0000
3000
,
0000
0000
0001
0001
,
0000
0100
0010
1000
,
0001
0000
0000
0010
,
0010
0000
0000
0001
,
0002
0000
0000
0003
2000
0000
0000
3000
,
0010
0100
0001
0000
2000
0000
3100
0000
,
1000
0000
0001
0000
0100
0001
0100
0000
,
0010
0000
1000
0000
0001
0010
0001
0000
,
1000
0010
0100
0000
0100
0001
1000
0000
,
0000
0000
0001
0000
1000
0100
0010
0000
,
0001
0100
0001
0000
1000
0000
0010
0000
,
0100
0001
1000
0000
0100
0000
0010
0000
,
0010
0001
1000
0000
0001
0100
0010
0000
,
0000
0000
1000
0000
0010
0100
0010
0100
,
0002
0000
0000
1000
0000
1000
0003
0000
,
1000
0100
1000
0000
0001
0100
0001
0100
,
0000
0010
0010
0000
2000
0000
3001
0000
,
0000
0100
0100
0000
0002
0000
1003
0100
,
2000
0000
0000
0001
0000
0001
3000
0000
,
0001
0100
0001
0000
1000
0010
1000
0000
,
0000
0100
0010
0001
,
1000
0000
0002
0003
,
1000
0001
0100
0000
0100
0000
0010
1000
,
0100
1000
0001
0010
0100
0000
1000
0001
,
0100
1001
0002
1003
,
0000
0010
0100
0010
0000
1000
0001
0010
,
0100
0000
1000
0001
0100
0000
0100
0000
,
0010
1000
0001
1000
0010
0000
0100
0001
,
0010
0000
0120
0000
0031
0000
1000
0001
,
0100
0000
0010
0000
0010
1000
0100
1000
,
0002
0000
1003
0100
2000
0000
3100
0000
,
2000
0000
3010
0100
0002
0000
1003
0000
,
0000
0001
0000
0010
0100
1000
0001
0000
,
0100
0010
0010
0000
0100
0001
1000
0100
,
0010
0000
0001
1000
0010
0000
0100
0001
,
0010
0100
1000
0100
0010
0000
0001
0100
,
0020
1030
2000
3001
,
1000
0001
1000
0001
0100
0010
0100
0010
,
1000
0000
0000
0000
;

//---------------dance-single - ----------------
#NOTES:
     dance-single:
     :
     Easy:
     3:
     0.216,0.234,0.043,0.108,0.000:
0000
0000
0000
0000
,
0000
0000
0000
0000
,
0000
0000
0000
0000
,
0000
0000
0000
1000
,
0001
0000
0000
0100
,
0010
0000
0000
1000
,
0001
0000
0000
0010
,
0100
0000
0000
0000
,
2000
0000
0000
3000
,
2000
0000
0000
3000
,
0000
0000
0001
0001
,
0000
0100
0100
0010
,
1000
0000
0000
0001
,
0010
0000
0000
0100
,
2000
3000
2000
3000
,
0001
0001
0100
0100
,
0010
1000
0001
0000
,
0100
0001
1000
0000
,
0100
0100
0010
0001
,
0000
1000
0001
0100
,
0100
0001
1000
0000
,
0010
1000
0100
0000
,
0010
0010
0001
1000
,
0000
0010
0100
0001
,
2000
3000
0002
0003
,
1000
0100
1000
0000
,
0000
0001
0100
0100
,
0000
0001
0100
0100
,
0020
0030
2000
3000
,
0001
1000
0100
0100
,
0000
0000
0000
0010
,
0010
0000
1001
0000
,
0100
0100
0010
1000
,
0001
0001
0100
0010
,
0000
1001
1000
0100
,
0000
0010
0010
0001
,
1000
1000
0001
0100
,
0010
1000
0100
0010
,
0000
1001
0010
0100
,
0000
1000
1000
0001
,
0200
0300
0001
1000
,
0200
0300
0010
0001
,
0000
0000
0100
0100
,
0000
0010
0100
0100
,
0001
0001
1000
0100
,
0010
0010
0001
0100
,
0000
0110
0010
1000
,
0100
0100
0100
0100
,
0010
0000
0000
0000
;
