#TITLE:Freestyler;
#SUBTITLE:;
#ARTIST:Bomfunk MC's;
#TITLETRANSLIT:;
#SUBTITLETRANSLIT:;
#ARTISTTRANSLIT:;
#CREDIT:Xythar;
#BANNER:Freestyler banner.avi;
#BACKGROUND:Freestyler background.png;
#LYRICSPATH:;
#CDTITLE:In Stereo.png;
#MUSIC:Freestyler.mp3;
#OFFSET:-1.032;
#SAMPLESTART:49.346;
#SAMPLELENGTH:11.660;
#SELECTABLE:YES;
#BPMS:0.000=163.840;
#STOPS:;
#BGCHANGES:8.938=Freestyler.avi=1.000=1=0=1,
99999=-nosongbg-=1.000=0=0=0 // don't automatically add -songbackground-
;

//---------------dance-single - ----------------
#NOTES:
     dance-single:
     :
     Medium:
     6:
     0.410,0.367,0.141,0.075,0.000:
0000
0000
0000
0000
,
0000
0000
0000
0000
,
0000
0000
0000
0000
,
1100
0000
0000
0000
,
0001
0000
0100
0010
0100
0000
0001
0000
,
1001
0000
0000
0000
,
0100
0000
0010
0000
0001
0000
1000
0001
,
0000
0100
0010
1000
,
0001
0100
0000
0010
0000
1000
0000
0100
,
0010
0001
1000
0001
,
1000
0001
1000
0000
0001
0000
0100
0000
,
0110
0000
0000
0000
,
0001
0000
1000
0100
1000
0000
0001
0000
,
0101
0000
0010
1000
,
0100
0010
0100
0000
0010
0000
0001
0000
,
1000
0000
0010
0000
0100
0001
0000
1000
,
0001
0000
0010
0100
0000
0100
0010
0000
,
0001
0000
1000
0000
0100
1000
0000
1000
,
0001
1000
0000
0001
0100
0000
0010
0000
,
1000
0000
0100
0000
0010
0100
0010
0000
,
0001
0000
1000
0001
1000
0000
0010
0000
,
0100
0000
0001
0100
0000
0010
0000
1000
,
0100
0010
0001
1000
,
0010
0000
0100
0010
0100
0000
0001
0000
,
1000
0000
0100
0010
0100
0000
0010
0001
,
0000
1000
0100
0000
1000
0000
0010
0100
,
0000
0001
0100
0000
0010
0000
1000
0000
,
0100
0000
1000
0001
1000
0000
0100
0010
,
0000
0001
0100
0010
,
1000
0000
0000
0001
0100
0000
0010
1000
,
0000
0100
0010
0000
0001
0000
1000
0001
,
0000
1000
0010
0000
0100
0000
0000
0001
,
0100
0000
0001
1000
0000
0100
0010
0000
,
0011
0000
0100
0000
1000
0000
0001
1000
,
0001
0000
1000
0010
0000
0000
0100
0001
,
0200
0001
0010
0301
,
1000
0001
1000
0000
0100
0000
0010
0000
,
0011
0000
0100
0000
1000
0000
0001
1000
,
0001
0000
0100
0010
0000
0000
1000
0010
,
2000
0001
0100
3001
,
1000
0001
1000
0000
0010
0000
0100
0000
,
0101
0000
0001
0000
1000
0000
0100
1000
,
0100
0000
0010
0001
0000
0000
1000
0001
,
2000
0010
0100
3010
,
0100
0010
0100
0000
0001
0000
1000
0000
,
1001
0000
0010
0000
0100
0000
1000
0100
,
1000
0000
0001
0010
0000
0000
0100
1000
,
0002
0100
0010
0103
,
0010
0100
0010
0000
1000
0000
0001
0000
,
0101
0000
0001
1000
0001
1000
0000
0100
,
0000
0010
0001
0000
1000
0000
0010
0000
,
0101
0000
0001
0100
0001
0100
0000
0010
,
0000
1000
0100
0000
0010
0000
0001
0000
,
1001
0000
1000
0010
1000
0010
0000
0100
,
0000
0001
1000
0000
0100
0000
0010
0000
,
0011
0000
0100
1000
0100
1000
0000
0001
,
0000
0100
0000
0010
0000
1000
0001
0000
,
2001
0000
0000
3100
0000
0010
0001
0000
,
1000
0000
0000
0010
0000
0100
0001
0000
,
0120
0000
0000
1030
0000
0001
0010
0000
,
0100
1000
0100
1000
0000
0001
0000
0100
,
0020
0000
0000
1030
0000
0001
1000
0000
,
0010
0000
0100
0000
0000
0001
0100
0000
,
2010
0000
0000
3100
0000
0010
0000
0001
,
1000
0000
0010
0100
0000
0001
0000
1000
,
0001
0000
0000
0000
;

//---------------dance-single - ----------------
#NOTES:
     dance-single:
     :
     Easy:
     4:
     0.224,0.244,0.056,0.000,0.000:
0000
0000
0000
0000
,
0000
0000
0000
0000
,
0000
0000
0000
0000
,
1000
0000
0000
0000
,
0001
0000
0100
0010
,
0100
0000
0000
0000
,
0001
0000
1000
0100
,
0010
0000
0000
0000
,
0001
0000
1000
0000
,
0010
0000
0100
0000
,
0001
0000
1000
1000
,
0001
0000
0000
0000
,
0010
0000
0100
1000
,
0010
0000
0100
0000
,
0001
0000
1000
0000
,
0001
0010
0100
0000
,
1000
0000
0010
0100
,
0001
0000
1000
0000
,
0100
0000
1000
0010
,
0100
0000
0001
0010
,
0100
1000
0010
0000
,
0100
0001
0010
0000
,
0100
1000
0010
0000
,
0100
0000
0001
0000
,
1000
0100
0010
0000
,
0001
0100
0010
0000
,
0100
0001
1000
0000
,
0001
0000
0010
0000
,
0100
0000
1000
0010
,
0100
0000
0001
0000
,
1000
0000
0100
0000
,
1000
0010
0100
0000
,
0001
0000
1000
0000
,
1001
0000
0001
0100
,
0010
0000
1000
0000
,
0100
0010
0100
0010
,
0001
0000
0100
0000
,
0110
0000
1000
0000
,
0001
0100
0010
0000
,
1000
0100
1000
0100
,
1000
0000
0001
0000
,
1001
0000
0001
0000
,
0100
0010
1000
0000
,
0100
0010
0100
0010
,
0100
0000
0010
0001
,
1000
0000
0010
0000
,
0100
0000
0001
0000
,
1000
0010
0100
0001
,
0010
0100
1000
0000
,
1001
0000
0010
0000
,
0100
0001
0100
0001
,
1000
0000
0100
0000
,
0110
0001
0010
0001
,
1000
0000
0010
0000
,
0100
0001
1000
0001
,
1001
0000
1000
0000
,
0010
0100
0010
0000
,
0100
0000
0001
0000
,
1000
0000
0100
0000
,
0010
0000
0001
0000
,
1000
0010
0100
0010
,
1000
0000
0100
0000
,
0010
0000
0001
0000
,
1000
0000
0010
0000
,
0100
0001
1000
0100
,
0010
0000
0000
0000
;

//---------------dance-single - ----------------
#NOTES:
     dance-single:
     :
     Hard:
     8:
     0.493,0.428,0.160,0.000,0.000:
0000
0000
0000
0000
,
0000
0000
0000
0000
,
0000
0000
0000
0000
,
1001
0000
0000
0000
,
1000
0001
1000
0001
1000
0000
1100
0000
,
0011
0000
0000
0000
,
0100
0000
1000
0010
0100
0001
0010
0100
,
1000
0001
0100
0001
,
1000
0010
0100
0010
0000
1000
0100
1000
,
0001
0000
1000
0010
1000
0000
0001
0100
,
0001
1000
0100
0000
0010
0000
0001
0000
,
0110
0000
0000
0000
,
0100
0010
0100
0010
0100
0000
0011
0000
,
1100
0000
0000
0000
0001
0100
0010
0000
,
1000
0100
0010
0000
0001
0000
1000
0000
,
0010
0100
0001
0000
0100
0010
0000
0100
,
0001
0000
1000
0100
0000
0010
0001
0000
,
1000
0000
0010
0000
0100
0001
0000
1000
,
0100
1000
0000
0001
0010
0100
0010
0001
,
1000
0000
0010
0100
0001
0000
1000
0100
,
0010
0000
0001
1000
0001
0000
0100
0000
,
0010
0000
1000
0010
0000
0100
0000
0001
,
0100
0010
1000
0000
0100
0000
0010
0000
,
0001
0000
1000
0001
1000
0010
0100
0000
,
0001
0000
1000
0100
1000
0000
0001
0010
,
0000
0100
0010
0001
0100
0000
0010
1000
,
0000
0001
0100
0010
0100
0001
1000
0000
,
0100
0000
0010
0001
0010
0000
0100
1000
,
0000
0010
0100
0001
0100
0010
1000
0000
,
0001
0000
0100
0000
0010
1000
0100
0010
,
0000
0001
0010
0100
1000
0000
0001
1000
,
0000
0001
0100
0001
1000
0100
0000
1000
,
0010
0100
0001
1000
0000
0100
0010
0000
,
0011
0000
0100
0000
1000
0000
0010
0100
,
0001
0100
0010
1000
0000
0001
0100
0001
,
1000
0000
0100
0000
0010
0001
0010
0001
,
1000
0001
1000
0010
1000
0000
1010
0000
,
0101
0000
0010
0000
1000
0000
0001
0100
,
0010
0100
0001
1000
0000
0100
0010
0001
,
0100
0000
0010
0000
0100
0001
0100
0001
,
1000
0001
1000
0100
0010
0000
0001
0000
,
1001
0000
1000
0000
0010
0000
0100
0001
,
0100
0010
1000
0010
0000
1000
0100
1000
,
0001
0000
0010
0000
0100
1000
0100
1000
,
0001
0100
0010
0100
0001
0000
1010
0000
,
0101
0000
1000
0000
0100
0000
0010
0001
,
1000
0010
1000
0001
0000
0100
0010
0100
,
0001
0000
0100
0000
0010
1000
0010
0100
,
0001
1000
0100
0010
0001
0000
0100
0000
,
0110
0000
0100
0001
0100
0001
0000
1000
,
0100
1000
0001
0010
0100
0000
1100
0000
,
1000
0000
0010
0100
0001
0100
0000
0010
,
0100
0001
1000
0100
1000
0000
0011
0000
,
0100
0000
1000
0001
1000
0001
0000
0100
,
0010
0100
0001
1000
0100
0000
0110
0000
,
0001
0000
0100
0010
0100
0010
0000
1000
,
0010
0100
0001
0100
0010
0000
1010
0000
,
0001
0000
0010
0100
0000
1000
0100
1000
,
0001
0000
0100
0001
0000
1000
0010
0100
,
0001
0000
1000
0100
0000
1000
0001
0010
,
0100
0010
0100
0010
0001
0100
0000
0010
,
1000
0000
0001
0100
0000
0001
1000
0100
,
1000
0000
0001
0100
0000
0010
1000
0000
,
0100
0000
0010
0001
0000
1000
0000
0100
,
1000
0001
0100
0001
0000
1000
0100
0010
,
0001
0000
0000
0000
;

//---------------dance-single - ----------------
#NOTES:
     dance-single:
     :
     Beginner:
     2:
     0.156,0.183,0.056,0.000,0.000:
0000
0000
0000
0000
,
0000
0000
0000
0000
,
0000
0000
0000
0000
,
1000
0000
0000
0000
,
0001
0000
1000
0000
,
0001
0000
0000
0000
,
0100
0000
0010
0000
,
0100
0000
0000
0000
,
0001
0000
0000
0000
,
1000
0000
0100
0000
,
0010
0000
0001
0000
,
1000
0000
0000
0000
,
0010
0000
0100
0000
,
0001
0000
0000
0000
,
1000
0000
0100
0000
,
1000
0000
0010
0000
,
0100
0000
0001
0000
,
1000
0000
0000
0000
,
0100
0000
1000
0000
,
0010
0000
0000
0000
,
0100
0000
0001
0000
,
1000
0000
0000
0000
,
0001
0000
1000
0000
,
0010
0000
0100
0000
,
0010
0000
0100
0000
,
0001
0000
1000
0000
,
0001
0000
1000
0000
,
0010
0000
0000
0000
,
0100
0000
0001
0001
,
0001
0000
1000
0000
,
0100
0000
1000
0000
,
0010
0000
0000
0000
,
0100
0000
0100
0000
,
0001
0000
0000
0000
,
1000
0000
0000
0000
,
0010
0010
0010
0000
,
0100
0000
0001
0000
,
1001
0000
0000
0000
,
0100
0000
0000
0000
,
1000
1000
1000
0000
,
0010
0000
0100
0000
,
0110
0000
0001
0000
,
1000
0000
0000
0000
,
0010
0010
0010
0000
,
0100
0000
0001
0000
,
1001
0000
0010
0000
,
0100
0000
0010
0000
,
0001
0001
0001
0000
,
0100
0000
0010
0000
,
1000
0000
0010
0000
,
0100
0000
0001
0000
,
1001
0000
0100
0000
,
0010
0000
0001
0000
,
1001
0000
0001
0000
,
0010
0000
0100
0000
,
0110
0000
0100
0000
,
1000
0000
0010
0000
,
0100
0000
0000
0000
,
0001
0000
0000
0000
,
1000
0000
0000
0000
,
0001
0001
0000
0001
,
0001
0000
0000
0000
,
1000
0000
0000
0000
,
0010
0000
0000
0000
,
0100
0100
0000
0100
,
0100
0000
0000
0000
;

//---------------dance-double - ----------------
#NOTES:
     dance-double:
     :
     Medium:
     7:
     0.408,0.428,0.179,0.038,0.000:
00000000
00000000
00000000
00000000
,
00000000
00000000
00000000
00000000
,
00000000
00000000
00000000
00000000
,
00011000
00000000
00000000
00000000
,
01000000
00000000
00100000
01000000
00100000
00000000
00001000
00000000
,
00011000
00000000
00000000
00000000
,
00000010
00000000
00000100
00000001
00000100
00000000
00000010
00001000
,
00000000
00000100
00010000
00001000
,
00100000
01000000
10000000
00010000
,
01010000
00000000
00000000
00000000
00001000
00000000
00010000
00001000
,
00010000
00001000
00010000
00000010
,
00000101
00000010
00010000
00001000
,
00100000
01000000
00100000
00000000
00001000
00000000
00010000
00000000
,
00011000
00000000
00001000
00000000
01000000
00010000
01000000
00000000
,
00001000
00010000
00001000
00000000
00000010
00000000
00000100
00000000
,
00000001
00000000
00000010
00000000
00000100
00001000
00000000
00000100
,
00010000
00000000
00001000
00010000
00000000
00001000
01000000
00000000
,
00010000
00100000
01000000
00100000
,
00001000
00000000
00010000
00000000
00001000
00010000
00001000
00000000
,
00000100
00000000
00000001
00000000
00000100
00000010
00000100
00000000
,
00001000
00000000
00000010
00010000
00000010
00000000
00010000
00000000
,
00001000
00000000
01000000
00100000
00000000
10000000
00000000
01000000
,
00100000
00001000
00010000
00000000
,
00011000
00000000
00001000
00010000
00001000
00000000
00010000
00000000
,
00000010
00000000
00000100
00000001
00000100
00000000
00000010
00001000
,
00000000
00000100
00010000
00000000
00001000
00000000
01000000
00100000
,
00000000
01000000
00010000
00000000
00100000
00000000
00001000
00000000
,
00010000
00000000
00000010
00001000
00000010
00000000
00000100
00000001
,
00000000
00000010
00000100
00010000
,
00011000
00000000
00000000
00001000
01000000
00000000
00100000
10000000
,
00000000
01000000
00100000
00000000
00010000
00000000
00100000
00001000
,
00000000
00010000
00001000
00010000
00001000
00010000
00000000
00000000
,
00000010
00000000
00000100
00000001
00000000
00000001
00001000
00000000
,
00001100
00000000
00010000
00000000
00001000
00000000
01000000
00010000
,
01000000
00000000
00100000
10000000
00000000
00000000
01000000
00100000
,
00020000
01000000
00100000
01030000
,
00001000
00010000
00001000
00010000
00001000
00000000
00011000
00000000
,
00011000
00000000
00000010
00000000
00000100
00000000
00000001
00000100
,
00000001
00000000
00001000
00000100
00000000
00000000
00001000
00000001
,
00002000
00000010
00000100
00003010
,
00010000
00001000
00010000
00001000
00010000
00000000
00001000
00000000
,
00011000
00000000
00100000
00000000
01000000
00000000
00010000
00001000
,
00010000
00000000
00000010
00000100
00000000
00000000
00000010
00010000
,
00002000
00100000
00010000
01003000
,
00001000
00010000
00001000
00010000
00001000
00000000
00011000
00000000
,
00011000
00000000
00000010
00000000
00000100
00000000
00000001
00001000
,
00000100
00000000
00001000
00000010
00000000
00000000
00010000
00001000
,
00020000
00000010
00001000
00030100
,
00010000
00001000
00010000
00001000
00010000
00000000
00011000
00000000
,
01000000
00000000
00100000
10000000
00100000
10000000
00000000
00010000
,
01000000
00001000
00010000
00000100
,
00000011
00000000
00000001
00000100
00000001
00000100
00000000
00000010
,
00001000
00100000
10000000
01000000
,
00110000
00000000
00001000
00010000
00001000
00010000
00000000
00000100
,
00000010
00000001
00000100
00000010
,
00001010
00000000
00010000
00001000
00010000
00001000
00000000
01000000
,
00100000
10000000
01000000
00100000
,
00011000
00000000
00000000
00000100
00000000
00000000
00000010
00000000
,
00000001
00000000
00000000
00000100
00000000
00000000
00000010
00000000
,
00010000
00000000
00000000
00001000
00000000
00000000
01000000
00000000
,
00100000
00000000
00000000
10000000
00000000
00000000
01000000
00000000
,
00100000
00000000
00000000
00010000
00000000
00000000
01000000
00000000
,
00001000
00000000
00000000
00010000
00000000
00000000
00000100
00000000
,
00000010
00000000
00000000
00000001
00000000
00000100
00000000
00000010
,
00010000
00000000
00001000
00010000
00000000
00001000
00010000
00000000
,
00011000
00000000
00000000
00000000
;

//---------------dance-double - ----------------
#NOTES:
     dance-double:
     :
     Hard:
     8:
     0.481,0.489,0.273,0.000,0.000:
00000000
00000000
00000000
00000000
,
00000000
00000000
00000000
00000000
,
00000000
00000000
00000000
00000000
,
00011000
00000000
00000000
00000000
,
00001000
00010000
00001000
00010000
00001000
00000000
01010000
00000000
,
10100000
00000000
00000000
00000000
,
01000000
00000000
00100000
00010000
00100000
00000000
00001000
00010000
,
00001000
00010000
00001000
00000010
,
00000001
00001000
00000001
00001000
00000000
00000010
00010000
00001000
,
00010000
00000000
00000100
00010000
00000100
00000000
01000000
00001000
,
01000000
00001000
01000000
00000000
00001000
00000000
00010000
00000000
,
00011000
00001000
00100000
01000000
,
00010000
00001000
00010000
00001000
00000100
00000000
00000101
00000000
,
00001010
00000000
00000000
00000000
00000010
00001000
00000001
00000000
,
00000100
00001000
00010000
00000000
00100000
00000000
10000000
00000000
,
01000000
00100000
00010000
00000000
01000000
00001000
00000000
00010000
,
00000100
00000000
00001000
00000001
00000000
00000100
00000010
00000100
,
00001000
00000000
00000000
00010000
00001000
00000000
00000000
00100000
,
00010000
00000000
00000000
00100000
01000000
00100000
00010000
00000000
,
01010000
00000000
00000000
00001000
00010000
00001000
00010000
00000000
,
00000010
00000000
00000100
00000001
00000100
00000000
00000010
00000000
,
00011000
00000000
01000000
10000000
00000000
00100000
00000000
01000000
,
00010000
01000000
00001000
00000000
00010000
00000000
00000000
00000000
,
00000100
00000000
00000010
00000001
00000010
00000100
00001000
00000000
,
00100000
00000000
01000000
00001000
00010000
00000000
00000100
00001000
,
00000000
00000100
00010000
00001000
00010000
00000000
00001000
01000000
,
00000000
00100000
10000000
01000000
00100000
00010000
01000000
00000000
,
00001000
00000000
00010000
00000100
00010000
00000000
00000100
00000010
,
00000000
00000000
00000001
00000100
00000010
00001000
00000100
00000000
,
00011000
00000000
00000000
00001000
01000000
00000000
00010000
00000100
,
00000000
00000001
00000010
00000000
00000100
00000000
00001000
00000010
,
00000000
00010000
00001000
00000000
00011000
00000000
00000000
00000000
,
01000000
00001000
00010000
00000100
00000000
00010000
00001000
00000000
,
01000000
00010000
00100000
00000000
00001000
00010000
00000100
00000000
,
00001000
00000010
00000100
00000001
00000000
00001000
00000010
00000100
,
00000101
00001010
00011000
01010000
,
00001000
00010000
00001000
00010000
00001000
00000000
01010000
00000000
,
10100000
00000000
01000000
00000000
00100000
00000000
01000000
10000000
,
00010000
00000000
10000000
01000000
00000000
00000000
01000000
10000000
,
11000000
00110000
00011000
00001010
,
00000100
00000001
00000100
00000001
00000100
00000000
00000010
00010000
,
00001000
00000000
01000000
00000000
10000000
00000000
01000000
00001000
,
01000000
00000000
00001000
00010000
00000000
00000000
00000100
00010000
,
00001000
00000000
00010000
00000000
00001000
00010000
00001000
01000000
,
00001000
00010000
00000100
00010000
00001000
00000000
01010000
00000000
,
10100000
00000000
01000000
00000000
00100000
00000000
00001000
00100000
,
00001000
00000000
00010000
00000010
00000000
00000000
00001000
00000001
,
00001000
00000000
00000100
00000000
00000001
00000100
00000010
00000100
,
00001000
00000010
00010000
00001000
01000000
00000000
00100000
10000000
,
00010000
00000000
01000000
00001000
01000000
00001000
00000000
00010000
,
00000100
00010000
00000100
00010000
00000100
00000000
00000011
00000000
,
00000100
00000000
00010000
00000010
00010000
00000010
00000000
00100000
,
00001000
00100000
00001000
00100000
00001000
00000000
11000000
00000000
,
10100000
00000000
01000000
00001000
01000000
00001000
00000000
00000000
,
00010000
00000100
00010000
00000100
00010000
00000000
00000101
00000000
,
00001010
00000000
00010000
00001000
00010000
00001000
00000000
00100000
,
01000000
00100000
00001000
00010000
00000010
00000000
00000100
00000000
,
00000101
00000000
00000100
00000010
00000000
00000010
00001000
00000000
,
00000100
00000000
00010000
00001000
00000000
00001000
00010000
00000000
,
01000000
00000000
10000000
00100000
00000000
00100000
10000000
00000000
,
01000000
00100000
00001000
00010000
00000010
00000000
00000101
00000000
,
00000010
00000000
00001000
00000100
00000000
00000100
00010000
00000000
,
00001000
00000000
01000000
00100000
00000000
00100000
10000000
01000000
,
00010000
00000000
00001000
00010000
00000000
00010000
00000000
00000010
,
00000100
00000000
00000001
00001000
00000000
00000100
00001000
00000010
,
00010000
00000000
00000000
00000000
;

//---------------dance-double - ----------------
#NOTES:
     dance-double:
     :
     Easy:
     4:
     0.259,0.275,0.132,0.000,0.000: // measure 1
00000000
00000000
00000000
00000000
,  // measure 2
00000000
00000000
00000000
00000000
,  // measure 3
00000000
00000000
00000000
00000000
,  // measure 4
10000000
00000000
00000000
00000000
,  // measure 5
01000000
00100000
01000000
00100000
,  // measure 6
00110000
00000000
00000000
00000000
,  // measure 7
00001000
00010000
00001000
00000000
,  // measure 8
00011000
00000000
00000000
00000000
,  // measure 9
00000010
00000100
00000010
00000100
,  // measure 10
00000101
00000000
00000001
00000000
,  // measure 11
00000001
00000001
00001000
00001000
,  // measure 12
00001100
00000000
00000000
00000000
,  // measure 13
00010000
00001000
00010000
00001000
,  // measure 14
00011000
00000000
00100000
01000000
,  // measure 15
00100000
00010000
00010000
01000000
,  // measure 16
00001000
00010000
00000010
00000000
,  // measure 17
00000100
00000001
00000010
00000100
,  // measure 18
00001000
00000000
00000010
00000000
,  // measure 19
00010000
00000000
00001000
00010000
,  // measure 20
00001000
00000000
01000000
00100000
,  // measure 21
10000000
01000000
00100000
00010000
,  // measure 22
00100000
00000000
00001000
00000000
,  // measure 23
00010000
00001000
00010000
00000000
,  // measure 24
00000010
00000100
00000001
00000100
,  // measure 25
00000010
00000000
00010000
00001000
,  // measure 26
00010000
00000000
01000000
10000000
,  // measure 27
00100000
00000000
01000000
00010000
,  // measure 28
01000000
00000000
00001000
00000000
,  // measure 29
00010000
00000000
00000100
00000010
,  // measure 30
00000001
00000000
00000100
00000010
,  // measure 31
00010000
00000000
00001000
00010000
,  // measure 32
00001000
00000000
00011000
00000000
,  // measure 33
01000000
10000000
00100000
01000000
,  // measure 34
00001000
00000000
00010000
00001000
,  // measure 35
00010000
00000000
00000010
00000000
,  // measure 36
00000100
00000001
00000100
00000001
,  // measure 37
00000100
00000000
00000001
00000000
,  // measure 38
00001010
00000000
00000100
00010000
,  // measure 39
00001000
00000000
01000000
00000000
,  // measure 40
00100000
10000000
00100000
10000000
,  // measure 41
00100000
00000000
10000000
00000000
,  // measure 42
01010000
00000000
00001000
00010000
,  // measure 43
00000100
00000000
00000010
00000000
,  // measure 44
00000001
00001000
00000001
00001000
,  // measure 45
00000001
00000000
00000100
00000000
,  // measure 46
00011000
00000000
01000000
10000000
,  // measure 47
00100000
00000000
01000000
00000000
,  // measure 48
00010000
10000000
00010000
10000000
,  // measure 49
00010000
00000000
01000000
00000000
,  // measure 50
00001000
00010000
00001000
00000000
,  // measure 51
00000010
00000001
00000100
00000010
,  // measure 52
00011000
00001000
00010000
00000000
,  // measure 53
01000000
10000000
00100000
01000000
,  // measure 54
00011000
00010000
00001000
00000000
,  // measure 55
00000010
00000001
00000010
00001000
,  // measure 56
00011000
00001000
00010000
00000000
,  // measure 57
01000000
10000000
01000000
00010000
,  // measure 58
00011000
00000000
00000010
00000000
,  // measure 59
00000100
00000000
00000001
00000000
,  // measure 60
00000010
00000000
00000100
00000000
,  // measure 61
00010000
00001000
00010000
00001000
,  // measure 62
01000000
00000000
00100000
00000000
,  // measure 63
10000000
00000000
01000000
00000000
,  // measure 64
00100000
00000000
00001000
00000000
,  // measure 65
00010000
00001000
00010000
00001000
,  // measure 66
00011000
00000000
00000000
00000000
;
