#TITLE:Freeeze!!;
#SUBTITLE:;
#ARTIST:Aural Vampire;
#TITLETRANSLIT:;
#SUBTITLETRANSLIT:;
#ARTISTTRANSLIT:;
#CREDIT:Xythar & sanchny;
#BANNER:Freeeze!!.png;
#BACKGROUND:Freeeze!!-bg.png;
#LYRICSPATH:;
#CDTITLE:CDTitle.png;
#MUSIC:Freeeze!!.mp3;
#OFFSET:-6.857;
#SAMPLESTART:80.189;
#SAMPLELENGTH:7.813;
#SELECTABLE:YES;
#BPMS:0.000=141.988;
#STOPS:;
#BGCHANGES:;

//---------------dance-single - ----------------
#NOTES:
     dance-single:
     :
     Hard:
     7:
     0.429,0.437,0.069,0.104,0.017: // measure 1
0000
0000
0000
0000
,  // measure 2
0000
0000
0000
0000
,  // measure 3
0000
0000
0000
0000
,  // measure 4
0000
0000
0000
0000
,  // measure 5
0000
0000
0000
0000
,  // measure 6
0000
0000
0000
0000
,  // measure 7
0000
0000
0000
0000
,  // measure 8
0000
0000
0000
0000
,  // measure 9
1000
0100
1000
0100
1000
0001
0100
0001
,  // measure 10
0000
0010
0100
0010
0001
1000
0001
1000
,  // measure 11
0010
0100
0001
0100
0001
1000
0100
1000
,  // measure 12
0000
0001
0010
0100
0010
0001
1000
0001
,  // measure 13
1000
0010
0100
0010
1000
0000
0001
0010
,  // measure 14
0100
1000
0001
0100
0001
0000
1000
0000
,  // measure 15
0001
0010
0100
0001
0100
0000
1000
0000
,  // measure 16
0010
0100
1000
0100
0001
0000
1000
0000
,  // measure 17
0001
0010
0100
1000
0010
0000
0100
0001
,  // measure 18
1000
0100
1000
0001
0100
0000
0010
1000
,  // measure 19
0001
1000
0100
1000
0001
0000
0010
0100
,  // measure 20
0010
0001
0100
0020
0000
0130
0001
0000
,  // measure 21
1000
0100
0000
0010
0100
0000
0010
0001
,  // measure 22
0000
1000
0010
0100
0001
1000
0100
1000
,  // measure 23
0002
0000
0000
0013
0200
0000
0000
1300
,  // measure 24
0010
0100
0001
1000
0000
0001
0010
0001
,  // measure 25
0100
0001
0000
0100
0010
0000
1000
0010
,  // measure 26
0000
0100
0001
0100
0010
1000
0100
0010
,  // measure 27
0002
0000
0000
0013
0200
0000
0000
1300
,  // measure 28
0100
1000
0001
0100
0000
0010
0000
1000
,  // measure 29
0100
0010
0100
1000
0001
0000
1000
0010
,  // measure 30
0100
0001
0010
0100
1000
0000
0001
0000
,  // measure 31
0100
0010
0100
0001
1000
0000
0100
0000
,  // measure 32
0010
0001
1000
0010
1000
0000
0001
0000
,  // measure 33
1000
0100
0010
0001
0100
0000
0100
0010
,  // measure 34
1000
0100
1000
0010
0100
0000
0100
0001
,  // measure 35
0010
0100
1000
0010
0100
0000
0100
0001
,  // measure 36
1000
0001
0010
0100
0000
0100
1100
0000
,  // measure 37
1000
0010
0000
0100
0010
0000
0100
0001
,  // measure 38
0000
1000
0100
0010
0001
0100
0010
1000
,  // measure 39
1001
0000
0100
0001
0101
0000
1000
0010
,  // measure 40
1010
0000
0100
1000
0100
0001
1000
0100
,  // measure 41
0010
0001
0000
0010
0100
0000
1000
0100
,  // measure 42
0000
1000
0010
0100
0001
0010
0100
1000
,  // measure 43
1002
0100
0100
0013
,  // measure 44
1010
0000
0101
0000
1000
0010
0100
0001
,  // measure 45
1000
0000
0100
0010
0000
0001
0100
0010
,  // measure 46
0000
1000
0010
0100
0001
1000
0100
0010
,  // measure 47
0002
1000
0203
0010
,  // measure 48
0302
0000
0010
0000
1003
0000
0100
0010
,  // measure 49
0001
0000
0100
1000
0000
0100
0010
0100
,  // measure 50
0000
0001
0010
0100
0010
0001
1000
0100
,  // measure 51
0020
0001
0230
0001
,  // measure 52
2300
0010
3100
0001
,  // measure 53
1000
0001
0010
0100
0010
0000
0010
0001
,  // measure 54
0100
0010
0100
0001
1000
0000
0000
0001
,  // measure 55
0010
0100
0010
0001
0100
0000
0000
0010
,  // measure 56
1000
0100
0010
0001
0100
0000
1001
0000
,  // measure 57
0001
0010
0100
1000
0010
0000
0100
0001
,  // measure 58
1000
0000
0100
0000
1000
0100
1000
0000
0001
0000
0000
0000
1000
0000
0010
0000
,  // measure 59
0100
0000
0001
0000
0100
0001
0100
0000
0010
0000
0000
0000
1000
0000
0100
0000
,  // measure 60
0010
0000
0001
0000
1000
0001
1000
0001
1000
0000
0000
0000
0000
0000
0000
0000
;

//---------------dance-single - ----------------
#NOTES:
     dance-single:
     :
     Easy:
     3:
     0.169,0.204,0.009,0.000,0.000: // measure 1
0000
0000
0000
0000
,  // measure 2
0000
0000
0000
0000
,  // measure 3
0000
0000
0000
0000
,  // measure 4
0000
0000
0000
0000
,  // measure 5
0000
0000
0000
0000
,  // measure 6
0000
0000
0000
0000
,  // measure 7
0000
0000
0000
0000
,  // measure 8
0000
0000
0000
0000
,  // measure 9
0001
0001
0000
1000
,  // measure 10
0000
0010
0000
1000
,  // measure 11
0000
0001
0000
1000
,  // measure 12
0000
0100
0000
0000
,  // measure 13
0010
0010
0001
0000
,  // measure 14
1000
0001
1000
0000
,  // measure 15
0001
1000
0010
0000
,  // measure 16
0010
0100
0010
0000
,  // measure 17
0010
1000
0001
0000
,  // measure 18
0001
1000
0100
0000
,  // measure 19
0100
0010
0100
0000
,  // measure 20
0010
0001
0010
0000
,  // measure 21
0001
0001
0001
0001
,  // measure 22
0000
1000
0010
1000
,  // measure 23
1000
0000
0001
0000
,  // measure 24
0010
0000
0000
0100
0000
0000
0000
0000
,  // measure 25
1000
1000
1000
1000
,  // measure 26
0000
0001
0100
0001
,  // measure 27
0001
0000
1000
0000
,  // measure 28
0100
0000
0000
0010
0000
0000
0000
0000
,  // measure 29
0001
1000
0010
0000
,  // measure 30
0010
1000
0001
0000
,  // measure 31
0001
1000
0100
0000
,  // measure 32
0010
0001
1000
0000
,  // measure 33
1000
0010
0100
0000
,  // measure 34
0100
0001
1000
0000
,  // measure 35
1000
0100
0010
0000
,  // measure 36
0001
1000
0000
0000
,  // measure 37
0010
0010
0010
0010
,  // measure 38
0000
0100
0001
1000
,  // measure 39
1000
0000
0100
0000
,  // measure 40
0010
0000
0100
0000
,  // measure 41
0010
0010
0010
0010
,  // measure 42
0000
0001
1000
0010
,  // measure 43
0100
0000
0010
0000
,  // measure 44
0110
0000
0000
0000
,  // measure 45
0010
1000
0000
0001
,  // measure 46
0000
1000
0001
0010
,  // measure 47
0001
0000
0001
0000
,  // measure 48
1000
0000
1000
0010
,  // measure 49
0010
0100
0000
0100
,  // measure 50
0000
0001
1000
0100
,  // measure 51
0010
0000
0010
0000
,  // measure 52
0001
0000
0001
1000
,  // measure 53
0010
1000
0001
0000
,  // measure 54
0001
1000
0100
0000
,  // measure 55
0100
0010
0001
0000
,  // measure 56
0001
1000
0010
0000
,  // measure 57
0010
0000
0000
0000
,  // measure 58
0100
0000
0000
0000
,  // measure 59
0001
0000
0000
0000
,  // measure 60
1000
0000
0000
0000
;

//---------------dance-single - ----------------
#NOTES:
     dance-single:
     :
     Medium:
     6:
     0.333,0.385,0.026,0.000,0.000: // measure 1
0000
0000
0000
0000
,  // measure 2
0000
0000
0000
0000
,  // measure 3
0000
0000
0000
0000
,  // measure 4
0000
0000
0000
0000
,  // measure 5
0000
0000
0000
0000
,  // measure 6
0000
0000
0000
0000
,  // measure 7
0000
0000
0000
0000
,  // measure 8
0000
0000
0000
0000
,  // measure 9
0001
0010
0001
0010
0000
0010
0001
1000
,  // measure 10
0000
0001
1000
0010
0000
1000
0001
1000
,  // measure 11
0000
0001
0010
0001
0000
1000
0001
1000
,  // measure 12
0000
0001
0000
0001
0000
0100
0000
0100
,  // measure 13
0010
1000
0010
0000
1000
0000
1000
0001
,  // measure 14
1000
0000
0001
0000
0010
0000
0000
0010
,  // measure 15
0001
0000
1000
0000
0001
0000
0000
1000
,  // measure 16
0001
0100
0001
0000
0100
0000
0010
0000
,  // measure 17
0100
0010
1000
0000
0001
0000
1000
0001
,  // measure 18
0010
0000
0001
0000
1000
0000
0001
1000
,  // measure 19
0010
0000
0100
0000
0010
0000
0000
0100
,  // measure 20
0010
0100
0010
1000
0000
1000
0001
0000
,  // measure 21
0001
1000
0000
1000
0100
0000
0100
0010
,  // measure 22
0000
0010
0001
1000
0001
0000
0100
0000
,  // measure 23
0010
0000
0000
0010
0100
0000
0000
0010
,  // measure 24
1000
0000
0000
0001
0000
1000
0000
0001
,  // measure 25
1000
0100
0000
0010
0100
0000
0010
0001
,  // measure 26
0000
1000
0001
1000
0001
0100
0100
0010
,  // measure 27
1000
0000
0000
1000
0001
0000
0000
0001
,  // measure 28
1000
0000
0000
0001
0000
1000
0000
0001
,  // measure 29
1000
0001
1000
0001
0010
0000
0001
0010
,  // measure 30
0001
0100
0001
0100
0010
0000
0000
0100
,  // measure 31
0010
0100
0010
1000
0001
0000
0000
1000
,  // measure 32
0001
0010
0001
0010
0100
0000
0000
0000
,  // measure 33
1000
0001
1000
0001
0100
0000
0100
0000
,  // measure 34
0010
1000
0001
1000
0001
0000
0001
0000
,  // measure 35
1000
0001
1000
0001
0010
0000
0010
0000
,  // measure 36
0001
0100
0001
0100
0000
0100
0010
0000
,  // measure 37
0010
1000
0000
1000
0001
0000
0001
1000
,  // measure 38
0000
1000
0100
0010
0100
0000
0010
0000
,  // measure 39
0001
0000
0000
0001
1000
0000
0000
1000
,  // measure 40
0001
0000
0000
0001
0000
0100
0000
0100
,  // measure 41
0010
1000
0000
1000
0001
0000
0001
1000
,  // measure 42
0000
1000
0100
0010
0001
0010
0100
0000
,  // measure 43
1100
1000
0101
0001
,  // measure 44
0110
0000
0000
0000
,  // measure 45
0010
0000
0010
0001
0000
0001
1000
0001
,  // measure 46
0000
1000
0001
0100
0010
0000
0010
1000
,  // measure 47
0001
0001
1000
1000
,  // measure 48
0100
0100
0010
0001
,  // measure 49
0001
0000
1000
0001
0000
0001
1000
0010
,  // measure 50
0000
0010
0100
0010
0100
0000
0100
0001
,  // measure 51
1000
1000
0100
0100
,  // measure 52
0010
0010
0001
1000
,  // measure 53
0001
1000
0001
1000
0010
0000
0010
1000
,  // measure 54
0001
1000
0001
0010
0100
0000
0100
1000
,  // measure 55
0001
0100
0010
0100
0001
0000
0001
1000
,  // measure 56
0100
0010
0001
1000
0010
0000
0010
0000
,  // measure 57
1000
1000
1000
1000
,  // measure 58
0001
0001
0001
0000
,  // measure 59
1000
1000
1000
0000
,  // measure 60
0100
0100
0010
0000
;
