#TITLE:First Step;
#SUBTITLE:;
#ARTIST:KAORI;
#TITLETRANSLIT:;
#SUBTITLETRANSLIT:;
#ARTISTTRANSLIT:;
#CREDIT:Xythar;
#BANNER:First Step.png;
#BACKGROUND:First Step-bg.png;
#LYRICSPATH:;
#CDTITLE:popnmusic.png;
#MUSIC:First Step.ogg;
#OFFSET:-14.084;
#SAMPLESTART:74.077;
#SAMPLELENGTH:14.015;
#SELECTABLE:YES;
#BPMS:0.000=137.000;
#STOPS:;
#BGCHANGES:;

//---------------dance-single - ----------------
#NOTES:
     dance-single:
     :
     Easy:
     3:
     0.237,0.222,0.082,0.100,0.000:
0000
0000
0000
0000
,
0000
1000
0001
1000
,
0002
0000
0010
0010
,
0013
0000
0100
1000
,
0010
0100
0010
1000
,
0001
1000
0010
0100
,
0002
0000
1000
1003
,
0000
0010
0100
1000
,
0010
0000
0100
0001
,
1000
0100
0010
0100
,
0020
0000
0001
0001
,
0031
0000
1000
0010
,
0100
0010
1000
0100
,
1000
0001
0010
0100
,
2000
0000
0010
3010
,
0000
0100
0001
1000
,
0100
0000
1000
0010
,
0100
0000
1001
0000
,
0001
0010
0100
0000
,
1000
0010
0100
0000
,
0002
0000
1000
1000
,
1003
0000
0100
0010
,
0100
1000
0010
0000
,
0100
0001
1000
0000
,
0002
0000
1000
1000
,
1003
0000
0010
0100
,
0101
0000
0001
0010
,
0100
0000
1000
0010
,
0100
0000
0001
0000
,
1000
0000
0100
0000
,
0110
0000
0000
0001
0000
0000
1001
0000
,
0000
0010
0100
0001
,
2000
0000
0001
0000
,
3001
0100
0010
0100
,
0000
0001
1000
1001
,
0002
0000
0010
0100
,
0013
0000
0001
0100
,
0010
0100
0001
0010
,
0100
0000
1000
0010
,
0200
0000
0001
0301
,
0000
1000
0100
0010
,
0002
0000
0100
1000
,
0103
0010
1000
0001
,
1001
0000
0010
0100
,
1000
0000
0010
0100
,
0001
1000
0100
0010
,
0001
0100
0010
1000
,
1001
0000
1000
0010
,
0100
0000
0001
0010
,
0100
0010
0001
0100
,
0010
1000
0001
1000
,
1001
1001
0000
0000
,
0001
0200
0000
0000
,
0000
0000
0000
0000
,
0300
0000
0000
0000
;

//---------------dance-single - ----------------
#NOTES:
     dance-single:
     :
     Medium:
     5:
     0.301,0.320,0.082,0.091,0.000:
0000
0000
0000
0000
,
0000
1000
0001
0100
,
0010
0000
0000
0100
0010
0000
0010
1000
,
0000
0000
0010
0100
0001
0000
1000
0000
,
0100
0000
1000
0001
0000
0001
1000
0001
,
0000
0000
0100
0010
0100
0000
0001
0000
,
0020
0000
0000
0100
0000
0000
0130
0000
,
1000
0000
0000
0001
0100
0000
0100
0001
,
1000
0000
0100
0000
0010
0000
0001
1000
,
0001
1000
0100
0010
,
0002
0000
0100
0000
0103
0000
0010
1000
,
0001
0000
1000
0100
,
1000
0001
0100
0010
,
1000
0000
0001
1000
0001
0000
0010
0000
,
0200
0000
0000
0010
0000
0000
0310
0000
,
0000
0000
0001
0000
0100
0000
0010
0100
,
0010
0000
0100
0001
0000
0001
1000
0100
,
0000
0100
0100
0100
,
1000
0000
0001
1000
0000
0010
0000
0100
,
0000
0000
0001
1000
0000
0100
0000
1000
,
0002
0000
0000
0000
0103
0010
0100
0001
,
0000
1000
0000
0000
1000
0000
0100
0000
,
0010
0000
0001
1000
0000
0010
0000
0100
,
0000
0000
0001
1000
0000
0001
0000
0100
,
0020
0000
0000
0000
0130
0001
0100
0001
,
0000
1000
0000
0000
0100
0010
0100
0000
,
0110
0000
0000
0000
0001
0100
0001
1000
,
0000
0010
0000
0100
0000
0001
0000
1000
,
0000
0000
0000
0001
0010
0000
0100
1000
,
0000
0010
0000
0100
0000
0001
1000
0000
,
1100
0000
0000
0110
0000
0000
0011
0000
,
0000
1000
0001
1000
0001
0000
0100
0010
,
0200
0000
0010
0310
,
0000
0001
0010
0100
,
0000
1010
1001
1100
,
0001
0000
0100
0000
0100
0000
0010
1000
,
0000
0000
0000
0001
0010
0000
0100
0000
,
1000
0000
0010
0100
0000
0001
1000
0001
,
0000
1000
0010
0100
,
0002
0000
0000
1000
0000
0000
1003
0000
,
0000
0100
0010
0100
,
1000
0000
0001
0100
0000
0010
1000
0010
,
0000
0100
0001
1000
,
0200
0000
0000
0000
0310
0000
0001
1000
,
0000
0000
0010
0100
0001
0000
1000
0000
,
0110
0000
0100
1000
0000
0001
1000
0001
,
0000
1000
0010
0100
,
0002
0000
0000
1000
0000
0000
1003
0000
,
0000
0100
0010
0001
,
1010
0000
0100
0001
0000
1000
0100
1000
,
0001
0100
0010
1000
,
0100
1000
0001
0000
0000
0000
0000
0000
,
0010
0200
0000
0000
,
0000
0000
0000
0000
,
0300
0000
0000
0000
;

//---------------dance-single - ----------------
#NOTES:
     dance-single:
     :
     Hard:
     7:
     0.420,0.394,0.265,0.073,0.000: // measure 1
0000
0000
0000
0000
,  // measure 2
0000
1000
0100
0010
,  // measure 3
0101
0000
0010
1000
0001
0000
0010
0100
,  // measure 4
0000
1000
0010
0100
1000
0000
0100
0001
,  // measure 5
1000
0000
0100
0010
0000
0001
0100
0010
,  // measure 6
0100
0002
1000
1003
,  // measure 7
0110
0000
0001
0100
0010
0000
1100
0000
,  // measure 8
0001
0000
0100
0010
1000
0000
0100
0010
,  // measure 9
0001
0000
0001
0100
1000
0100
0001
0000
,  // measure 10
0010
0100
1000
0101
,  // measure 11
0010
0000
0100
0001
1000
0100
1000
0001
,  // measure 12
0000
0010
0100
1000
0010
0000
0100
0001
,  // measure 13
1000
0000
0010
1000
0001
1000
0100
0000
,  // measure 14
0011
0000
0100
1000
0001
0100
0010
0100
,  // measure 15
0002
0000
0010
0000
0013
0000
0100
1000
,  // measure 16
0001
1100
0010
0101
,  // measure 17
1001
0000
0100
0010
0001
0100
0010
0100
,  // measure 18
0001
0010
0100
1000
,  // measure 19
0010
0100
0001
0100
0000
1000
0000
0100
,  // measure 20
0000
0001
0010
0100
0000
0001
0000
0100
,  // measure 21
2000
0000
0001
0000
3001
0100
0010
0100
,  // measure 22
0001
1000
0100
0000
0010
0000
0001
0000
,  // measure 23
1000
0010
1000
0001
0000
0100
0000
1000
,  // measure 24
0000
0100
0001
1000
0000
0100
0000
0001
,  // measure 25
0200
0000
1000
0000
1300
0010
0100
0001
,  // measure 26
1000
0000
0001
0000
0100
0010
1000
0001
,  // measure 27
1001
0000
0001
0000
0010
0100
1000
0001
,  // measure 28
0000
0100
0010
0100
0000
0001
1000
0100
,  // measure 29
0010
0000
0001
0000
0100
0010
1000
0001
,  // measure 30
0000
0010
0100
1000
0000
0001
1000
0001
,  // measure 31
1001
0000
0000
0110
0000
0000
1001
0000
,  // measure 32
0100
0000
0010
1000
0100
1000
0001
0100
,  // measure 33
0020
0000
0100
0000
0130
0000
0001
1000
,  // measure 34
0100
1000
0010
0100
,  // measure 35
0001
0110
1001
0110
,  // measure 36
0001
0000
1000
0100
1000
0000
0001
0100
,  // measure 37
0000
0010
0100
0001
0100
0000
0001
0010
,  // measure 38
0100
0000
0001
0100
1000
0010
0100
0001
,  // measure 39
1000
1100
0101
1100
,  // measure 40
0010
0100
0001
0010
0000
0100
1000
0001
,  // measure 41
1000
1010
0011
1010
,  // measure 42
0001
0000
0100
0010
1000
0100
0010
0100
,  // measure 43
1000
0011
0101
0011
,  // measure 44
0200
0000
0001
0000
1300
0000
0010
0100
,  // measure 45
0001
0000
1000
0100
1000
0001
0100
0000
,  // measure 46
1000
0100
0001
0010
0100
1000
0010
0100
,  // measure 47
0001
1100
1010
1100
,  // measure 48
0010
0100
0001
0010
1000
0010
0001
0100
,  // measure 49
1000
0100
0001
1000
0001
0000
1100
0000
,  // measure 50
0011
0000
0100
0010
1000
0100
0010
0001
,  // measure 51
0100
0020
0001
1030
,  // measure 52
0001
0100
0010
0000
1000
0100
0010
0000
,  // measure 53
0001
0200
0000
0000
,  // measure 54
0000
0000
0000
0000
,  // measure 55
0300
0000
0000
0000
;
