#TITLE:Far Away;
#SUBTITLE:;
#ARTIST:livetune feat. 初音ミク;
#TITLETRANSLIT:;
#SUBTITLETRANSLIT:;
#ARTISTTRANSLIT:livetune feat. Miku Hatsune;
#CREDIT:Xythar;
#BANNER:Far Away-bn.avi;
#BACKGROUND:Far Away-bg.png;
#LYRICSPATH:;
#CDTITLE:cdtitle.png;
#MUSIC:Far Away.mp3;
#OFFSET:1.176;
#SAMPLESTART:74.034;
#SAMPLELENGTH:14.740;
#SELECTABLE:YES;
#BPMS:0.000=130.000;
#STOPS:;
#BGCHANGES:4.667=Far Away.avi=1.000=1=0=1,
99999=-nosongbg-=1.000=0=0=0 // don't automatically add -songbackground-
;

//---------------dance-single - ----------------
#NOTES:
     dance-single:
     :
     Hard:
     7:
     0.385,0.377,0.185,0.093,0.000:
0000
0000
0000
0000
,
0000
0000
0000
0000
,
0000
0000
0000
0000
,
0000
0000
0000
0000
,
0000
0000
0000
0000
,
0000
0000
0000
0000
,
0000
0000
0000
0000
,
0000
0000
0000
0000
,
0000
0000
0000
0000
,
0001
0000
0100
0000
0010
0000
1000
0100
,
0000
1000
0010
0100
0000
0001
0010
0000
,
0100
0000
1001
0000
0100
0010
1000
0010
,
0000
0100
0001
0010
0000
0100
1000
0000
,
0010
0000
0101
0000
0010
1000
0001
0000
,
0010
0000
1100
0000
0001
0100
1000
0100
,
0001
0000
1000
0100
0000
0010
0001
0100
,
0000
1000
0100
0001
0010
0100
1000
0010
,
0100
0000
0001
0000
1000
0100
1000
0010
,
0000
0100
0001
0000
1100
0000
0001
0010
,
0100
0000
1000
0010
0000
0100
0001
0010
,
0000
1000
0010
0001
0100
0000
1010
0000
,
1001
0000
0100
0010
0001
0000
1010
0000
,
0110
0000
0001
0010
0100
1000
0010
0100
,
0001
0000
1000
0100
0000
1000
0001
0100
,
0000
1000
0100
0001
0010
0100
1000
0000
,
0101
0000
1100
0000
0001
0100
0010
0000
,
0001
0100
0010
1000
0000
0100
0010
0000
,
1001
0000
0100
0010
0000
0100
1000
0010
,
0000
0100
0001
1000
0001
0000
2100
0000
,
3001
0000
0100
0010
0000
0100
0001
1000
,
0000
0001
0010
0000
2100
0000
0001
0000
,
3010
0000
0100
0001
0000
0100
0001
0010
,
0000
0100
1000
0010
1000
0000
0001
0000
,
1020
0000
2000
0030
0001
0000
3002
0000
,
0100
0203
0010
0301
,
1000
0000
0001
0100
0000
0001
1000
0010
,
0000
0001
0010
0000
1000
0000
0100
0000
,
0011
0000
0100
1000
0010
0000
0100
1000
,
0001
0000
0100
0010
1000
0100
0010
0001
,
0100
0000
1000
0100
0001
0010
0100
1000
,
0010
0100
1001
0110
,
2001
0000
0010
0000
3100
0000
0001
0010
,
0100
0000
0001
0010
0100
0000
1000
0000
,
0201
0000
0010
0000
1300
0000
0001
0010
,
1000
0000
0001
0010
1000
0010
0001
0000
,
1000
0000
0001
0100
0010
0000
0100
0001
,
0010
0000
0100
1000
0010
0000
0100
0000
,
1001
0000
0100
0010
0000
0001
1000
0010
,
0000
0100
0001
0010
0001
0000
0100
0000
,
1002
0000
0100
0000
0013
0000
1000
0100
,
0010
0000
1000
0010
0100
0000
0001
0000
,
1020
0000
0100
0000
0031
0000
1000
0100
,
0001
0000
1000
0010
0001
0010
1000
0000
,
0001
0010
0100
1000
0000
0001
0100
0010
,
0000
1000
0100
0010
0000
0001
0100
0010
,
1000
0000
0001
0000
1000
0100
1000
0010
,
0100
1000
0100
0001
0000
1000
0100
0010
,
0001
0000
1000
0000
0010
0000
0100
0001
,
0000
0100
0001
1000
0000
0100
1000
0000
,
0011
0000
1100
0000
0001
0100
0010
1000
,
0000
0001
0010
1000
0000
0001
0100
1000
,
0100
0000
0001
0020
0000
0100
0000
0031
,
0000
0100
1000
0100
0001
0010
0100
1000
,
0010
0000
0001
0020
0000
0100
0000
1030
,
0000
0001
0010
0100
1000
0010
0100
0001
,
1000
0000
0000
0000
;

//---------------dance-single - ----------------
#NOTES:
     dance-single:
     :
     Easy:
     3:
     0.202,0.251,0.039,0.062,0.000: // measure 1
0000
0000
0000
0000
,  // measure 2
0000
0000
0000
0000
,  // measure 3
0000
0000
0000
0000
,  // measure 4
0000
0000
0000
0000
,  // measure 5
0000
0000
0000
0000
,  // measure 6
0000
0000
0000
0000
,  // measure 7
0000
0000
0000
0000
,  // measure 8
0000
0000
0000
0000
,  // measure 9
0000
0000
0000
0000
,  // measure 10
1000
0001
0100
0001
,  // measure 11
1000
0000
0001
0000
,  // measure 12
1000
0100
0010
0001
,  // measure 13
0100
0000
0010
0000
,  // measure 14
0100
0001
1000
0001
,  // measure 15
0010
0100
0100
1000
,  // measure 16
0010
0100
0001
0100
,  // measure 17
0010
0000
1000
0000
,  // measure 18
0001
0100
0010
1000
,  // measure 19
0100
0000
0010
0000
,  // measure 20
0001
0000
1000
0010
,  // measure 21
0100
0000
0001
0010
,  // measure 22
0100
0000
1000
0001
,  // measure 23
1000
0000
0010
0100
,  // measure 24
0010
0000
1000
0100
,  // measure 25
0010
0001
0100
0010
,  // measure 26
1000
0000
0001
0000
,  // measure 27
1000
0000
0100
0010
,  // measure 28
0001
0000
0100
0010
,  // measure 29
0100
0000
0001
0010
,  // measure 30
0100
0000
1000
0010
,  // measure 31
0100
0000
0001
1000
,  // measure 32
0100
0000
1000
0001
,  // measure 33
0100
0000
1001
0000
,  // measure 34
0020
0000
0230
0000
,  // measure 35
0302
0000
0023
0000
,  // measure 36
0130
1000
0100
1000
,  // measure 37
0001
0000
1000
0010
,  // measure 38
1000
0000
0001
0010
,  // measure 39
0001
0000
1000
0100
,  // measure 40
0010
0000
1000
0010
,  // measure 41
0100
0000
0001
0000
,  // measure 42
2001
0000
3010
0100
,  // measure 43
0001
0000
1000
0000
,  // measure 44
0012
0000
0103
0010
,  // measure 45
1000
0000
0001
1000
,  // measure 46
0010
0000
0100
0001
,  // measure 47
0010
0000
0100
1000
,  // measure 48
0010
0000
0100
0000
,  // measure 49
1001
0000
0010
0100
,  // measure 50
0002
1000
1003
0010
,  // measure 51
0100
0001
0010
0100
,  // measure 52
2000
0001
3001
0100
,  // measure 53
0010
1000
0001
1000
,  // measure 54
0100
0000
0010
0000
,  // measure 55
0001
0000
0100
0010
,  // measure 56
1000
0000
0001
0010
,  // measure 57
0100
1000
0010
0100
,  // measure 58
0001
0000
1000
0000
,  // measure 59
0001
0100
0010
0100
,  // measure 60
0001
0000
0010
0000
,  // measure 61
0100
1000
0010
1000
,  // measure 62
0100
0000
0010
0000
,  // measure 63
0001
0100
0010
1000
,  // measure 64
0001
0000
1001
0000
,  // measure 65
0010
0100
1000
0001
,  // measure 66
1000
0000
0000
0000
;

//---------------dance-single - ----------------
#NOTES:
     dance-single:
     :
     Medium:
     6:
     0.318,0.352,0.093,0.046,0.000:
0000
0000
0000
0000
,
0000
0000
0000
0000
,
0000
0000
0000
0000
,
0000
0000
0000
0000
,
0000
0000
0000
0000
,
0000
0000
0000
0000
,
0000
0000
0000
0000
,
0000
0000
0000
0000
,
0000
0000
0000
0000
,
1000
0000
0001
0000
1000
0000
0001
0100
,
0000
0010
0000
1000
0000
0100
0010
0000
,
0100
0000
1000
0000
0001
0100
0000
0010
,
0000
0100
0001
0100
0000
0001
1000
0000
,
0001
0000
0010
0100
0000
1000
0000
0010
,
0000
0100
0010
0100
0000
0001
1000
0000
,
0001
0000
0010
0001
0000
1000
0000
0010
,
0000
0100
0001
0100
0001
0000
0010
0000
,
1001
0000
0010
0000
0100
0000
0001
0010
,
0000
0100
1000
0000
0001
0000
0100
0010
,
0000
0100
0001
0100
0000
0001
0000
0010
,
0000
0100
0000
1000
0010
0000
0100
0000
,
1001
0000
0100
1000
0000
0001
0100
0001
,
0000
1000
0100
0000
0001
0000
0100
0000
,
1000
0000
0001
0100
0000
0010
0000
1000
,
0000
0001
1000
0000
0100
0000
0010
0000
,
1001
0000
0100
0000
1000
0001
1000
0001
,
0000
0100
0000
0010
1000
0000
0001
0010
,
0000
0100
0000
1000
0000
0001
0000
0100
,
0000
0010
0000
0100
0001
0000
0010
0000
,
0100
0000
1000
0010
0000
1000
0000
0100
,
0000
0010
0000
0001
0100
0000
0001
0000
,
0010
0000
0100
1000
0000
0001
0000
1000
,
0000
0001
0010
0000
0100
1000
0001
0000
,
2100
0000
3001
0000
0100
0010
0100
0000
,
0021
0000
0130
0000
1000
0000
0001
0100
,
0001
0000
1000
0100
0000
0001
0000
0100
,
0000
1000
0000
0001
0100
0000
0010
0000
,
1000
0000
0100
0010
0000
0001
0000
0100
,
0000
0010
0000
0100
0001
0100
0001
0000
,
1100
0000
0001
0010
0000
0100
1000
0001
,
0000
0100
1001
0010
,
2100
0000
0001
0000
3010
0000
0100
0001
,
0000
0010
0000
0100
0000
1000
0010
0000
,
0102
0000
1000
0000
0013
0000
0100
1000
,
0000
0010
0000
0100
0000
0001
0010
0000
,
0100
0000
1000
0010
0000
0100
0001
0100
,
0000
0001
0010
0001
0000
1000
0100
0000
,
0010
0000
0001
1000
0000
0001
0100
0001
,
0000
1000
0000
0100
0000
0010
0001
0000
,
2010
0000
0001
0000
3100
0000
0010
0001
,
0000
0100
0000
0010
0000
1000
0100
0000
,
0012
0000
1000
0000
0103
0000
0010
1000
,
0000
0100
0000
0010
0000
0001
1000
0000
,
0010
0000
0100
0001
0000
1000
0100
1000
,
0000
0001
0100
0001
0000
1000
0100
1000
,
0001
0000
0010
0000
0100
0000
1000
0001
,
0100
0000
0010
1000
0000
0001
0000
1000
,
0100
0000
0010
0000
0001
0000
0100
0010
,
0000
0100
0001
0100
0000
0001
1000
0000
,
0001
0000
0010
0000
0100
1000
0000
0010
,
0000
0100
0001
0100
0000
0001
1000
0000
,
0100
0000
0000
0010
0000
0001
0000
1000
,
0000
0001
0100
0000
0010
0000
1000
0000
,
0101
0000
1000
0010
0000
0100
0000
0010
,
0000
0100
0001
0000
0010
0000
0100
0000
,
1000
0000
0000
0000
;

//---------------dance-single - ----------------
#NOTES:
     dance-single:
     :
     Beginner:
     1:
     0.124,0.151,0.039,0.062,0.000:
0000
0000
0000
0000
,
0000
0000
0000
0000
,
0000
0000
0000
0000
,
0000
0000
0000
0000
,
0000
0000
0000
0000
,
0000
0000
0000
0000
,
0000
0000
0000
0000
,
0000
0000
0000
0000
,
0000
0000
0000
0000
,
0001
0000
0000
0000
,
1000
0000
0010
0000
,
0100
0000
0000
0000
,
0001
0000
1000
0000
,
0001
0000
0000
0000
,
0010
0000
0100
0000
,
1000
0000
0000
0000
,
0010
0000
0100
0000
,
0001
0000
1000
0000
,
0001
0000
1000
0000
,
0100
0000
0010
0000
,
0001
0000
0100
0100
,
0100
0000
0010
0000
,
1000
0000
0001
0001
,
0001
0000
1000
0000
,
0010
0000
0100
0000
,
0001
0000
1000
0000
,
0001
0000
0010
0000
,
0100
0000
1000
0000
,
0010
0000
0100
0100
,
0100
0000
0001
0000
,
1000
0000
0010
0010
,
0010
0000
1000
0000
,
0100
0000
0010
0000
,
1001
0000
0000
0000
,
0001
0000
0100
0000
,
0010
0000
1000
0000
,
0001
0000
1000
0000
,
0100
0000
0010
0000
,
0001
0000
1000
0000
,
0010
0000
1000
0000
,
0001
0000
0000
0000
,
2002
0000
0000
0000
,
3003
0000
0000
0000
,
0220
0000
0000
0000
,
0330
0000
1000
0000
,
0100
0000
1000
0000
,
0010
0000
0100
0000
,
0001
0000
0000
0000
,
1000
0000
0000
0000
,
0220
0000
0000
0000
,
0330
0000
0000
0000
,
2002
0000
0000
0000
,
3003
0000
0001
0000
,
0100
0000
0010
0000
,
1000
0000
0100
0000
,
1000
0000
0001
0001
,
0001
0000
1000
0000
,
0010
0000
0000
0000
,
0100
0000
0001
0000
,
1000
0000
0000
0000
,
0001
0000
0010
0000
,
0100
0000
1000
0000
,
0010
0000
0100
0100
,
0100
0000
0001
0000
,
1000
0000
0001
0000
,
1000
0000
0000
0000
;
