#TITLE:FUNKY TOWN;
#SUBTITLE:;
#ARTIST:安室奈美恵;
#TITLETRANSLIT:;
#SUBTITLETRANSLIT:;
#ARTISTTRANSLIT:Namie Amuro;
#CREDIT:Xythar and sanchny;
#BANNER:FUNKY TOWN banner.png;
#BACKGROUND:FUNKY TOWN background.png;
#LYRICSPATH:;
#CDTITLE:blank.png;
#MUSIC:FUNKY TOWN.ogg;
#OFFSET:-0.077;
#SAMPLESTART:10.749;
#SAMPLELENGTH:8.552;
#SELECTABLE:YES;
#BPMS:0.000=111.998;
#STOPS:;
#BGCHANGES:0.375=FUNKY TOWN.avi=1.000=1=1=0,
147.500=FUNKY TOWN background.png=1.000=0=0=0,
99999=-nosongbg-=1.000=0=0=0 // don't automatically add -songbackground-
;

//---------------dance-single - Light----------------
#NOTES:
     dance-single:
     Light:
     Easy:
     3:
     0.153,0.172,0.058,0.000,0.000:
0000
0000
0000
0000
,
0000
0000
0000
0000
,
0000
0000
0000
0000
,
0000
0000
0000
0000
,
0000
0000
0000
0000
,
0001
1000
0010
0000
,
0010
0100
0000
0010
,
1000
1000
1000
0001
,
0000
0001
0000
1000
,
1001
0001
0010
0100
,
0000
0010
0001
0100
,
0010
0000
0000
0000
,
1000
0000
0000
0000
,
0001
0001
0010
0000
,
0000
0100
1000
0000
,
1000
1000
0010
0000
,
0000
0100
0001
0000
,
0001
1000
0100
0001
,
0000
1000
0010
1000
,
0001
0000
0000
0000
,
1000
0000
0000
0000
,
0100
0010
0100
1000
,
0000
1000
0010
0000
,
1000
0001
0001
0010
,
0000
0001
0100
1000
,
0100
0001
0001
1000
,
1000
0100
0010
0100
,
1001
0000
0000
0000
,
0110
0000
0000
0000
,
0010
1000
0001
0100
,
0000
0001
0001
0010
,
0001
0010
0100
1000
,
0000
1000
1000
0001
,
0010
0001
1000
0100
,
0000
1000
0010
1000
,
1001
0000
0000
0000
,
0110
0000
0000
0000
,
0001
0000
0000
0000
;

//---------------dance-single - Heavy----------------
#NOTES:
     dance-single:
     Heavy:
     Hard:
     6:
     0.325,0.343,0.174,0.000,0.093: // measure 1
0000
0000
0000
0000
,  // measure 2
0000
0000
0000
0000
,  // measure 3
0000
0000
0000
0000
,  // measure 4
0000
0000
0000
0000
,  // measure 5
0000
0000
0000
0000
,  // measure 6
1000
0000
0101
0000
0001
1000
0100
0010
,  // measure 7
0000
0010
0100
0000
1000
0010
0100
0000
,  // measure 8
0001
1000
0100
0001
0100
1000
0001
0000
,  // measure 9
0000
1000
0010
0010
0100
0010
0010
0000
,  // measure 10
1000
0100
0010
0000
0100
0000
1100
0001
,  // measure 11
0000
0001
1000
0000
0010
0100
0010
0000
,  // measure 12
1000
0000
0000
0001
0000
0000
0010
0000
0000
0001
0000
0000
1000
0000
0001
0000
,  // measure 13
0100
0000
0000
0010
0000
0000
1000
0000
0000
0010
0000
0000
0100
0000
0001
0000
,  // measure 14
1000
0000
0001
0000
0010
0000
0001
0010
,  // measure 15
0000
0100
0010
0000
1000
0010
0100
0000
,  // measure 16
0001
0000
0100
0000
0010
0000
0100
0001
,  // measure 17
0000
0001
1000
0100
0010
0100
1000
0000
,  // measure 18
0010
0100
0010
0000
1000
0000
0100
0010
,  // measure 19
0000
1000
0100
1000
,  // measure 20
0010
0000
0000
0100
0000
0000
0010
0000
0000
1000
0000
0000
0100
0000
0010
0000
,  // measure 21
0001
0000
0000
1000
0000
0000
0010
0000
0000
0100
0000
0000
0010
0000
1000
0000
,  // measure 22
0100
0001
0100
0000
1000
0000
1010
0001
,  // measure 23
0000
0100
0001
0000
1000
0000
0100
0000
,  // measure 24
0100
0010
0100
0000
1000
0000
0110
0001
,  // measure 25
0000
0100
0010
0010
1000
0100
0010
0000
,  // measure 26
0010
0100
1000
1000
0010
0100
0001
0001
,  // measure 27
1000
0100
0001
0001
0100
1000
0010
0000
,  // measure 28
1010
0000
0000
1000
0000
0000
0001
0000
0000
0010
0000
0000
0100
0000
1000
0000
,  // measure 29
1001
0000
0000
0100
0000
0000
0010
0000
0000
0100
0000
0000
0001
0000
1000
0000
,  // measure 30
1100
0010
0100
0000
1000
0001
0100
0010
,  // measure 31
0000
0000
1001
0000
0001
1000
0100
0000
,  // measure 32
0010
0000
1100
0000
1000
0010
0100
0000
,  // measure 33
0000
0010
0100
0100
0001
1000
0100
0000
,  // measure 34
0011
0000
1100
0000
1000
0000
1001
0010
,  // measure 35
0000
0000
0010
0000
0100
0001
1000
0000
,  // measure 36
1001
0000
0000
0001
0000
0000
0010
0000
0000
0100
0000
0000
0010
0000
0001
0000
,  // measure 37
1001
0000
0000
0010
0000
0000
0100
0000
0000
0001
0000
0000
0100
0000
0110
0000
;

//---------------dance-single - Challenge----------------
#NOTES:
     dance-single:
     Challenge:
     Challenge:
     7:
     0.388,0.408,0.302,0.000,0.168:
0000
0000
0000
0000
,
0000
0000
0000
0000
,
0000
0000
0000
0000
,
0000
0000
0000
0000
,
0000
0000
0000
0000
,
0001
0000
1000
0000
0010
0000
1000
0000
0001
0000
0000
0010
0000
0000
1000
0000
,
0000
0000
0010
0000
0001
0000
0100
0000
0001
0000
0000
1000
0000
0000
0000
0000
,
0001
0100
0010
0100
0001
1000
0100
0010
,
0000
0000
1000
0000
0010
0000
0000
0000
0001
0000
0000
0100
0000
0000
0010
0000
,
1000
0000
0001
0000
1000
0100
1000
0010
,
0000
0001
0010
1000
0001
0000
1000
0100
,
1001
0000
0000
0010
0000
0000
0101
0000
0000
0010
0000
0000
1100
0000
0001
0000
,
0101
0000
0000
0010
0000
0000
1010
0000
0000
0001
0000
0000
0011
0000
0100
0000
,
1000
0000
0010
0000
0100
0000
0001
1000
,
0000
0001
0010
0001
1000
0010
1000
0001
,
0100
0000
0010
0000
1000
0000
0001
0010
,
0000
0001
1000
0010
1000
0001
0100
0001
,
1000
0100
0010
0000
0001
0000
0100
1000
,
0000
0000
0100
0000
0001
0000
0000
1000
0000
0000
0001
0000
0010
0000
0001
0000
,
1000
0000
0000
0001
0000
0000
0101
0000
0000
0010
0000
0000
1100
0000
0001
0000
,
0101
0000
0000
0010
0000
0000
0110
0000
0000
0001
0000
0000
1100
0000
0001
0000
,
0100
0010
1000
0100
1000
0001
0100
0001
,
0000
1000
0100
1000
0010
0010
0100
0000
,
0001
0010
0001
1000
0010
0010
0100
0001
,
0000
1000
0100
0001
0100
1000
0001
0000
,
1000
0000
0010
0000
0100
0000
0000
0010
0000
0000
1000
0000
0001
0000
0000
0010
,
0000
0000
1000
0000
0010
0000
0000
0001
0000
0000
0100
0000
0010
0000
0100
0000
,
0001
0000
0000
1010
0000
0000
0100
0000
0000
1001
0000
0000
0100
0000
0101
0000
,
0010
0000
0000
1100
0000
0000
0001
0000
0000
1010
0000
0000
1000
0000
1100
0000
,
1001
0000
0000
0000
0010
0000
1000
0000
0001
0000
0010
0001
0000
0000
1000
0000
,
0010
0000
0100
0000
1000
0000
0100
0000
0001
0000
1000
0100
0000
0000
1000
0000
,
0010
0100
0001
0010
1000
0010
0001
0100
,
0000
0000
0010
0000
1000
0001
0000
0000
0010
0000
0001
1000
0000
0000
0010
0000
,
0001
0000
0010
0000
1000
0000
0100
0000
1000
0001
0000
0000
0100
0000
1000
0000
,
0000
0000
0100
0000
0001
0000
0100
0000
0001
0000
0100
0010
0000
0000
1000
0000
,
1001
0000
0000
0100
0000
0000
1010
0000
0000
0100
0000
0000
0011
0000
0110
0000
,
1100
0000
0000
0001
0000
0000
0110
0000
0000
1000
0000
0000
1100
0000
1001
0000
,
0010
0000
0000
0000
;

//---------------dance-single - Standard----------------
#NOTES:
     dance-single:
     Standard:
     Medium:
     5:
     0.269,0.279,0.058,0.232,0.000:
0000
0000
0000
0000
,
0000
0000
0000
0000
,
0000
0000
0000
0000
,
0000
0000
0000
0000
,
0000
0000
0000
0000
,
1000
0000
0001
0000
0100
0010
0000
0100
,
0000
0001
0010
0000
0001
0000
1000
0000
,
0010
0000
0100
0000
0101
0000
0010
1000
,
0000
0000
0001
0001
,
1000
0000
0100
0000
1000
0000
0001
0010
,
0000
0001
1000
0010
,
0200
0000
0000
0302
0000
0000
0013
0100
,
2000
0000
0000
3020
0000
0000
0130
0001
,
1000
0000
0000
0000
0001
0000
1000
0010
,
0000
0100
0010
0000
1000
0000
0001
0000
,
0010
0000
0000
0000
0100
0000
1000
0001
,
0000
1000
0010
0000
0100
0000
0010
0000
,
1000
0000
0001
0000
1001
0000
0001
0010
,
0000
0100
1000
0000
0001
0000
0100
0000
,
0002
0000
0000
0023
0000
0000
0130
1000
,
0200
0000
0000
2300
0000
0000
3001
0100
,
0010
0000
0110
0000
0001
0000
1000
0100
,
0000
1000
0010
0000
0100
0010
0100
0000
,
0001
0000
0010
0000
0100
0000
1000
0001
,
0000
1000
0010
0000
1000
0001
1000
0000
,
0200
0010
2300
0100
,
3002
0100
0023
0100
,
0032
0000
0000
0203
0000
0000
0310
1000
,
0200
0000
0000
0320
0000
0000
0031
1000
,
0010
0000
0100
0000
1001
0000
0001
0100
,
0000
1000
0100
0000
0010
0000
1000
0000
,
0001
0000
0010
0000
0100
0000
1000
0010
,
0000
0100
0010
0000
1000
0000
0101
0000
,
0010
0000
1000
0000
0001
0000
0010
0100
,
0000
0010
0001
0000
1000
0000
0010
0000
,
0200
0000
0000
0302
0000
0000
0013
0100
,
2000
0000
0000
3020
0000
0000
0130
0001
,
1000
0000
0000
0000
;
