#TITLE:遠雷;
#SUBTITLE:~遠くにある明かり~;
#ARTIST:HIGH and MIGHTY COLOR;
#TITLETRANSLIT:Enrai;
#SUBTITLETRANSLIT:~Tooku ni Aru Akari~;
#ARTISTTRANSLIT:;
#CREDIT:Xythar;
#BANNER:Enrai ~Tooku ni Aru Akari~.png;
#BACKGROUND:Enrai ~Tooku ni Aru Akari~-bg.png;
#LYRICSPATH:;
#CDTITLE:san.png;
#MUSIC:Enrai ~Tooku ni Aru Akari~.mp3;
#OFFSET:-2.308;
#SAMPLESTART:82.810;
#SAMPLELENGTH:14.123;
#SELECTABLE:YES;
#BPMS:0.000=68.000,24.000=136.000;
#STOPS:;
#BGCHANGES:-1.938=Enrai ~Tooku ni Aru Akari~.avi=1.000=1=1=0,
99999=-nosongbg-=1.000=0=0=0 // don't automatically add -songbackground-
;

//---------------dance-single - ----------------
#NOTES:
     dance-single:
     :
     Hard:
     9:
     0.584,0.618,0.232,0.000,0.391:
0000
0000
0000
0000
,
0000
0000
0000
0000
,
0000
0000
0000
0000
,
0000
0000
0000
0000
,
0000
0000
0000
0000
,
0000
0000
0000
0000
,
1000
0000
0000
0000
0100
0000
0000
0011
0000
0000
0000
0000
0100
0000
0000
1001
,
0000
0000
0000
0000
0010
0000
0000
1001
0000
0000
0001
0000
0010
0000
0100
0000
,
1000
0000
0010
0000
0100
0000
0000
1001
0000
0000
0100
0000
0010
0000
0000
1001
,
0000
0010
0100
0001
0010
0100
1000
0010
,
0100
0000
0001
0000
0010
0000
0100
1000
0000
0000
0010
0000
0100
0000
0001
1000
,
0000
0000
0100
0000
0010
0000
0001
1000
0000
0000
0010
0000
0100
0000
0001
0000
,
0010
0000
0100
0000
1000
0000
0010
0100
0000
0000
0101
0000
0001
0000
1000
0100
,
0000
0000
1000
0000
0001
0000
0100
0001
0100
0001
0100
0000
1010
0000
0000
0000
,
0001
0010
0100
1000
0000
1000
0010
0100
,
0010
1000
0100
0010
0000
0010
0001
0100
,
0010
0100
0001
0010
0000
0010
0001
0100
,
0010
1000
0100
0010
0000
0010
0100
1000
,
0010
0000
0010
0100
0000
0100
0001
1000
,
0100
0000
0100
1000
0000
1000
0001
1000
,
0010
0000
0010
0100
0001
0010
0100
1000
,
0010
0000
0100
0000
0001
0000
1000
0000
0001
0000
1000
0000
0001
0000
1000
0001
,
1000
0000
0010
0000
0100
0000
0001
0100
0000
0001
0100
0000
0010
0000
0010
0000
,
1000
0000
0100
0000
0010
0000
0100
0010
0000
0100
0010
0000
0001
0000
0100
0001
,
0100
0000
0010
0000
1000
0000
0001
1000
0000
0001
1000
0000
0100
0000
0010
0000
,
0001
0000
0001
0000
0100
0000
0010
1000
0000
0010
1000
0000
0001
0000
1000
0100
,
1000
0000
0001
0000
0010
0000
0100
1000
0000
0100
1000
0000
0010
0000
0100
0000
,
0001
0000
1000
0000
0100
0000
1000
0001
0000
1000
0001
0000
0100
0000
0010
0000
,
0010
0000
1000
0000
0001
0000
1000
0010
1000
0000
0001
0000
1000
0000
0001
0010
,
0001
0000
1000
0000
0100
0000
1000
0100
1000
0100
1000
0000
1010
0000
0000
0000
,
0001
0100
0001
0100
0001
0000
1000
0010
1000
0010
1000
0000
0001
0010
0001
0010
,
0001
0000
1000
0000
0001
0000
0100
0010
0000
0010
0100
0000
0001
0000
0000
0000
,
1000
0100
1000
0001
1000
0000
0001
0100
0001
1000
0001
0000
1000
0010
1000
0001
,
1000
0000
0100
0000
0010
0000
0001
0100
0000
0100
0001
0000
1000
0000
0000
0000
,
0001
0100
0010
0100
0001
0000
1000
0100
0010
0100
1000
0000
0010
0100
0001
0100
,
0010
0000
1000
0000
0100
0000
1000
0001
0000
0001
1000
0000
0010
0000
0000
0000
,
0100
0001
1000
0001
0100
0000
0001
1000
0100
1000
0001
0000
0010
0000
0100
0000
,
1000
0010
0100
0010
1000
0000
0001
0010
0100
0010
0001
0000
1000
0000
0010
0000
,
0100
0000
0001
0000
1000
0000
0001
1000
0001
1000
0001
0000
1000
0100
0010
0000
,
0101
0000
0000
1010
0000
0000
1001
0000
0000
0000
0000
0000
0000
0000
0000
0000
,
1000
0100
0010
0001
0100
0010
0100
0001
,
0010
0000
0100
0000
1000
0000
0010
0100
0000
0000
0001
0000
1000
0000
0100
0000
,
0010
0001
0100
0010
0100
0001
0010
0100
,
1000
0000
0010
0000
0100
0000
0001
1000
0000
1000
0010
0000
0100
0000
0010
0000
,
1001
0100
0010
0001
0100
0010
0100
0001
,
1000
0000
0100
0000
0010
0000
0001
1000
0000
1000
0010
0000
0100
0001
0100
0000
,
1001
0010
0100
1000
0010
0100
0010
1000
,
0100
0000
0010
0000
0001
0000
0100
0010
0100
0010
1000
0000
0001
1000
0001
0000
,
1000
0100
0010
0001
0100
0010
1000
0100
,
1000
0000
0010
0000
0100
0000
0001
1000
0000
0000
0001
0000
0100
0000
0010
0000
,
0100
0001
0010
0100
1000
0010
0100
0010
,
1000
0000
0100
0000
0010
0000
0001
1000
0000
1000
0100
0000
1000
0010
1000
0000
,
0011
0100
1000
0010
0100
0010
1000
0100
,
1000
0000
0010
0000
0100
0000
0001
1000
0000
1000
0001
0000
1000
0010
1000
0000
,
0001
0100
0010
1000
0100
1000
0010
0100
,
0001
0000
0010
0000
0100
0000
1000
0100
1000
0100
1000
0000
0001
0100
0001
0000
,
1100
0010
0101
0010
1001
0100
0011
0100
,
1010
0000
0001
0000
1000
0000
0100
0010
0100
0010
0001
0000
0100
0010
0100
0000
,
0001
0000
0010
0000
1100
0000
0000
1001
0000
0000
0010
0000
0101
0000
0000
1010
,
0000
0000
0100
0000
1001
0000
0000
1100
0000
0000
0001
0000
0010
0000
0100
0000
,
1000
0010
1000
0010
1000
0000
0000
0101
0000
0000
1000
0000
0110
0000
0000
1001
,
0000
0000
0001
0000
0010
0000
0100
0000
1000
0001
1000
0001
1000
0000
1001
0000
;

//---------------dance-single - ----------------
#NOTES:
     dance-single:
     :
     Medium:
     7:
     0.443,0.469,0.200,0.000,0.060:
0000
0000
0000
0000
,
0000
0000
0000
0000
,
0000
0000
0000
0000
,
0000
0000
0000
0000
,
0000
0000
0000
0000
,
0000
0000
0000
0000
,
1000
0001
0010
0000
0100
1000
0001
0000
,
0100
0010
1000
0000
0100
0010
0001
0000
,
1100
0000
0011
0000
0100
1000
0010
0000
,
0100
0001
0010
0000
0100
1000
0001
1000
,
0010
0000
0101
0000
0010
1000
0001
0000
,
0100
0001
1000
0000
0001
0010
0100
1000
,
0010
0100
0001
0000
1100
0000
1010
0000
,
0100
0001
1000
0001
0010
0001
1000
0000
,
0010
0100
0001
0010
0000
0100
0000
1000
,
0010
0000
0000
1000
0000
0000
0001
0000
0000
0000
1000
0000
0100
0000
0000
0000
,
1000
0100
0010
0001
0000
0100
0010
0100
,
0001
0000
0000
1000
0000
0000
0100
0000
0000
0000
1000
0000
0001
0000
0000
0000
,
1000
0010
1000
0100
0000
0010
0001
0000
,
0100
0010
0100
0001
0000
1000
0001
0000
,
0010
0100
0010
0100
0000
1000
0001
1000
,
0010
0000
0100
0001
1000
0000
0110
0000
,
0001
0000
0010
0000
0100
0000
1000
0000
0000
0010
0100
0000
0001
0000
0000
0000
,
1000
0000
0100
0000
0010
0000
0001
0000
0000
0100
0010
0000
1000
0000
0000
0000
,
0001
0000
1000
0000
0100
0000
1000
0000
0000
0001
0100
0000
0010
0000
0000
0000
,
1000
0000
0001
0000
0010
0000
0001
0000
0000
1000
0100
0000
0010
0000
0000
0000
,
0100
0000
1000
0000
0010
0000
0100
0000
0000
0001
1000
0000
0100
0000
0000
0000
,
1000
0000
0010
0000
0100
0000
0010
0000
0000
1000
0001
0000
0010
0000
0000
0000
,
0100
1000
0010
0000
0100
0001
0010
0000
,
0100
1000
0001
1000
0010
0000
1100
0000
,
0001
1000
0001
1000
0001
0000
1100
0000
,
0010
1100
0001
0100
,
0010
1000
0010
1000
0010
0000
0101
0000
,
0010
1100
1001
0100
,
0001
0010
0001
0010
0001
0000
1100
0000
,
0010
0101
1001
0100
,
1000
0001
1000
0000
0010
0000
0101
0000
,
0010
1000
0010
0000
0100
0000
1001
0000
,
0001
0010
0100
1000
0010
0100
0001
1000
,
0100
0000
0000
0010
0000
0000
1001
0000
0000
0000
0000
0000
0000
0000
0000
0000
,
0001
0100
0010
1000
0100
0010
0100
0010
,
0001
1000
0010
0100
0000
0001
1000
0100
,
1000
0010
0100
0001
1000
0100
0010
0001
,
0100
0010
1000
0001
0000
1000
0010
1000
,
0001
0010
0100
1000
0010
0100
0010
1000
,
0100
0010
0001
1000
0000
0001
1000
0100
,
0010
0001
0010
0001
1000
0010
1000
0010
,
0100
0000
0001
0000
1000
0000
0001
1000
0000
1000
0001
0000
1000
0000
0100
0000
,
0010
0001
0010
0001
0100
0010
0100
0010
,
1000
0100
0010
0001
0000
0100
0010
1000
,
0001
0010
0100
0010
0001
0100
0010
0100
,
0001
0010
0100
1000
0000
0010
0100
0001
,
1000
0100
0010
0001
0100
0010
0100
0001
,
0010
0100
1000
0001
0000
1000
0100
1000
,
0010
0100
0001
0010
0100
1000
0010
0100
,
0001
0000
1000
0000
0100
0000
1000
0001
0000
0001
1000
0000
0010
0000
0100
0000
,
1001
0000
1010
0000
0011
0000
1010
0100
,
1000
0000
0010
0000
0100
0000
0001
1000
0000
1000
0001
0000
0010
0000
0000
0000
,
0100
1000
0010
0000
0100
0001
0010
0000
,
0100
1000
0001
0000
0100
0001
1000
0000
,
0100
0010
1001
0000
0010
0100
1001
0000
,
0001
0010
0100
1000
0010
0100
0001
1100
;

//---------------dance-single - ----------------
#NOTES:
     dance-single:
     :
     Easy:
     4:
     0.261,0.321,0.232,0.000,0.004: // measure 1
0000
0000
0000
0000
,  // measure 2
0000
0000
0000
0000
,  // measure 3
0000
0000
0000
0000
,  // measure 4
0000
0000
0000
0000
,  // measure 5
0000
0000
0000
0000
,  // measure 6
0000
0000
0000
0000
,  // measure 7
1000
0001
1000
0100
,  // measure 8
0010
0001
0100
0010
,  // measure 9
1000
0100
1000
0010
,  // measure 10
0100
0001
0010
0100
,  // measure 11
1000
0010
0100
0001
,  // measure 12
0010
0100
1000
0010
,  // measure 13
0100
0001
1000
0100
,  // measure 14
1000
0010
0100
0001
,  // measure 15
1000
0000
0000
0100
0000
0000
1000
0000
,  // measure 16
0010
0000
0000
0100
0000
0000
0001
0000
,  // measure 17
1000
0000
0000
0100
0000
0000
0010
0000
,  // measure 18
0001
0000
0000
0100
0000
0000
0010
0000
,  // measure 19
1000
0000
0000
0001
0000
0000
1000
0000
,  // measure 20
0100
0000
0000
0010
0000
0000
0001
0000
,  // measure 21
0100
0000
0000
0010
0000
0000
1000
0000
,  // measure 22
0100
0000
0000
1000
0000
0000
0010
0000
,  // measure 23
0100
0100
0100
1001
,  // measure 24
0100
0100
0100
1001
,  // measure 25
0010
0010
0010
1001
,  // measure 26
0010
0010
0010
1001
,  // measure 27
0100
0010
0001
0100
,  // measure 28
0010
1000
0100
1001
,  // measure 29
0100
0000
1000
0001
,  // measure 30
1001
0000
0001
0000
,  // measure 31
1000
0100
1000
0001
,  // measure 32
1001
0000
0001
0000
,  // measure 33
0100
0001
0100
0010
,  // measure 34
0110
0000
1000
0000
,  // measure 35
0001
1000
0001
0100
,  // measure 36
0101
0000
0010
0000
,  // measure 37
0100
0010
1000
0100
,  // measure 38
1100
0000
0010
0001
,  // measure 39
0011
0000
1000
0000
,  // measure 40
0001
0000
0000
1000
0000
0000
0001
0000
0000
0000
0000
0000
0000
0000
0000
0000
,  // measure 41
1000
0010
0100
0001
,  // measure 42
0010
0100
1001
0010
,  // measure 43
0100
0001
0010
0100
,  // measure 44
1000
0010
1001
0010
,  // measure 45
0100
0001
0010
0100
,  // measure 46
1000
0001
0110
0001
,  // measure 47
1000
0100
0010
0001
,  // measure 48
1000
0000
0000
0000
,  // measure 49
0001
0100
0010
1000
,  // measure 50
0100
0010
1001
0010
,  // measure 51
0100
0001
0010
0100
,  // measure 52
1000
0001
0110
0001
,  // measure 53
1000
1000
0001
0001
,  // measure 54
1001
1001
1000
0010
,  // measure 55
0100
0001
0010
0100
,  // measure 56
1001
0010
0100
0001
,  // measure 57
1100
0001
0101
1000
,  // measure 58
1100
0001
1000
1001
,  // measure 59
0100
0010
1001
0010
,  // measure 60
1001
0100
1001
0001
,  // measure 61
1000
0001
0110
1000
,  // measure 62
0110
0001
1000
1001
;

//---------------dance-single - ----------------
#NOTES:
     dance-single:
     :
     Beginner:
     2:
     0.167,0.271,0.200,0.000,0.000: // measure 1
0000
0000
0000
0000
,  // measure 2
0000
0000
0000
0000
,  // measure 3
0000
0000
0000
0000
,  // measure 4
0000
0000
0000
0000
,  // measure 5
0000
0000
0000
0000
,  // measure 6
0000
0000
0000
0000
,  // measure 7
1000
1000
1000
0000
,  // measure 8
0001
0000
1000
0000
,  // measure 9
0001
0001
0001
0000
,  // measure 10
0010
0000
0100
0000
,  // measure 11
0010
0010
0010
0000
,  // measure 12
0100
0000
1000
0000
,  // measure 13
0010
0010
0010
0000
,  // measure 14
0100
0000
0001
0000
,  // measure 15
1000
0000
0100
0000
,  // measure 16
1000
0000
0010
0000
,  // measure 17
0100
0000
0001
0000
,  // measure 18
0010
0000
0100
0000
,  // measure 19
1000
0000
0010
0000
,  // measure 20
0100
0000
0001
0000
,  // measure 21
1000
0000
0100
0000
,  // measure 22
1000
0000
0010
0000
,  // measure 23
0100
0100
0000
0001
,  // measure 24
0001
0000
1000
0000
,  // measure 25
0100
0100
0000
0010
,  // measure 26
0010
0000
0001
0000
,  // measure 27
1000
1000
0000
0010
,  // measure 28
0010
0000
0100
0000
,  // measure 29
0001
0001
0000
1000
,  // measure 30
1000
0000
0100
0000
,  // measure 31
1001
0000
1001
0000
,  // measure 32
1001
0000
0000
0000
,  // measure 33
0110
0000
0110
0000
,  // measure 34
0110
0000
0000
0000
,  // measure 35
1001
0000
1001
0000
,  // measure 36
1001
0000
0000
0000
,  // measure 37
0110
0000
0110
0000
,  // measure 38
0110
0000
1001
0000
,  // measure 39
1001
0000
0000
0000
,  // measure 40
0001
0000
0000
0000
,  // measure 41
1000
0000
0010
0000
,  // measure 42
0100
0100
0100
0000
,  // measure 43
0001
0000
0010
0000
,  // measure 44
0100
0100
0100
0000
,  // measure 45
1000
0000
0001
0000
,  // measure 46
0100
0100
0100
0000
,  // measure 47
0010
0000
1000
0000
,  // measure 48
0100
0100
0100
0100
,  // measure 49
0100
0000
0010
0000
,  // measure 50
0001
0001
0001
0000
,  // measure 51
1000
0000
0010
0000
,  // measure 52
0100
0100
0100
0000
,  // measure 53
1001
0000
1001
0000
,  // measure 54
1001
1001
1001
0000
,  // measure 55
0100
0000
0010
0000
,  // measure 56
0110
0000
0000
0000
,  // measure 57
0001
0000
0010
0000
,  // measure 58
0100
0000
0000
0000
,  // measure 59
1000
0000
1001
0000
,  // measure 60
1001
0000
0001
0000
,  // measure 61
0110
0000
0100
0000
,  // measure 62
0110
0000
0000
1001
;
