#TITLE:Endless Summer Story;
#SUBTITLE:;
#ARTIST:DJ Yoshitaka feat. 星野奏子;
#TITLETRANSLIT:;
#SUBTITLETRANSLIT:;
#ARTISTTRANSLIT:DJ Yoshitaka feat. Kanako Hoshino;
#CREDIT:Xythar;
#BANNER:Endless Summer Story-bn.avi;
#BACKGROUND:Endless Summer Story-bg.png;
#LYRICSPATH:;
#CDTITLE:Beatmania IIDX.png;
#MUSIC:Endless Summer Story.mp3;
#OFFSET:-0.370;
#LASTBEAT:150;
#SAMPLESTART:61.955;
#SAMPLELENGTH:20.220;
#SELECTABLE:YES;
#BPMS:0.000=94.950;
#STOPS:;
#BGCHANGES:4.000=Endless Summer Story.avi=1.000=1=0=1,
99999=-nosongbg-=1.000=0=0=0 // don't automatically add -songbackground-
;

//---------------dance-single - ----------------
#NOTES:
     dance-single:
     :
     Easy:
     1:
     0.116,0.122,0.000,0.000,0.000:
0000
0000
0000
0000
,
1000
0000
0001
0000
,
0100
0000
0010
0100
,
0010
0000
1000
0000
,
0001
0000
1000
0001
,
1000
0000
0100
0000
,
0010
0000
0001
0010
,
0001
0000
0100
0000
,
0010
0000
1000
0001
,
1000
0000
0000
0000
,
0100
0000
0000
0010
,
0001
0000
1000
0000
,
0010
0000
0100
0001
,
0100
0000
0010
0000
,
1000
0000
0100
0000
,
0010
0000
0001
0000
,
1000
0001
1000
0000
,
0001
0000
0100
0000
,
0010
0000
1000
0000
,
0100
0000
0010
0000
,
0001
0000
0100
0000
,
0001
0000
1000
0000
,
0100
0000
0010
0000
,
0001
0000
1000
0001
,
1000
0000
0001
0100
,
0001
0000
0010
0000
,
0100
0000
1000
0001
,
1000
0000
0010
0100
,
0010
0000
0100
0001
,
1000
0000
0100
0000
,
0010
0000
0001
0100
,
0001
0000
0100
0010
,
1000
0000
0100
0000
,
0010
0000
0001
0000
,
1000
0001
1000
0000
,
0001
0000
0000
0000
;

//---------------dance-single - ----------------
#NOTES:
     dance-single:
     :
     Hard:
     6:
     0.275,0.278,0.060,0.000,0.025: // measure 1
0000
0000
0000
0000
,  // measure 2
1000
1000
0001
0001
,  // measure 3
0100
0000
0100
0010
0100
0001
1000
0100
,  // measure 4
1000
1000
0100
0100
,  // measure 5
0010
0000
0010
0001
0100
0010
0100
0001
,  // measure 6
0010
0010
0100
0100
,  // measure 7
1000
0000
1000
0001
0100
0001
1000
0100
,  // measure 8
0010
0010
0001
0001
,  // measure 9
0100
0000
0100
0010
0100
0001
0010
0100
,  // measure 10
1000
0001
0000
1000
,  // measure 11
0001
0000
0000
0100
0000
0010
0100
0001
,  // measure 12
1000
0000
0100
0000
0000
0000
0010
0001
,  // measure 13
1000
0000
0000
0001
1000
0001
1001
0000
,  // measure 14
0010
0000
0010
0100
0001
0100
0001
0000
,  // measure 15
1000
0000
1000
0100
0010
0100
0010
0000
,  // measure 16
0001
0000
0001
0100
0010
0000
0010
0000
,  // measure 17
1000
0000
0100
0000
0010
0001
1001
0000
,  // measure 18
1000
0100
0010
0000
1000
0100
0010
0000
,  // measure 19
1000
0100
0010
0000
0001
0100
0010
0000
,  // measure 20
1000
0001
0100
0000
1000
0001
0100
0000
,  // measure 21
1000
0001
0100
0000
0010
1000
0001
0000
,  // measure 22
0001
0000
0010
0000
0100
1000
0001
0000
,  // measure 23
0100
1000
0001
0000
0100
1000
0001
0000
,  // measure 24
0100
0000
0010
0000
1000
0000
0100
0010
,  // measure 25
0001
0000
0000
0000
1000
0000
0001
0100
,  // measure 26
0110
0000
0100
1000
0100
0010
1000
0001
,  // measure 27
0010
0000
1000
0010
0100
0010
0001
1000
,  // measure 28
0001
0000
0001
0100
0010
0100
0001
1000
,  // measure 29
1001
0000
0000
0001
0010
0100
1000
0010
,  // measure 30
0100
0000
1000
0000
0100
0001
1000
0000
,  // measure 31
0100
0001
1000
0000
0100
0001
1000
0000
,  // measure 32
0001
0010
0110
0000
1000
0010
0110
0000
,  // measure 33
0100
0000
0000
1000
0000
0000
0010
0000
0000
0100
0000
0000
0001
0000
0000
0010
,  // measure 34
0000
0000
0100
0000
0000
1000
0000
0000
0001
0000
0000
0100
0000
0000
0001
0000
,  // measure 35
1000
0000
0100
0000
0010
0000
1000
0010
,  // measure 36
0001
0000
0000
0000
;

//---------------dance-single - ----------------
#NOTES:
     dance-single:
     :
     Medium:
     3:
     0.167,0.174,0.000,0.000,0.000:
0000
0000
0000
0000
,
0001
0000
0100
0010
,
0100
0000
0000
0001
0100
0000
0010
0000
,
1000
0000
0100
0010
,
0001
0000
0000
0100
0010
0000
0100
0000
,
0001
0000
1000
0001
,
1000
0000
0000
0100
1000
0000
0010
0000
,
0100
0000
0001
0000
,
1000
0000
0000
0010
0100
0000
0001
1000
,
0001
0010
0100
0000
,
1000
0000
0001
1000
,
0001
0000
0010
0100
,
1000
0000
0000
0010
,
0100
0001
0000
1000
,
0100
1000
0000
0010
,
0100
0001
0000
1000
,
0100
0000
0010
0000
0001
0010
0001
0000
,
1000
0010
0100
0001
,
0010
1000
0010
0001
,
0100
0010
1000
0100
,
0001
0100
1000
0001
,
1000
0000
0001
0000
,
0100
1000
0010
0001
,
1000
0000
0001
0100
,
0010
0000
1000
0100
,
0010
0000
0001
0100
,
0010
0000
0100
0000
0001
0000
1000
0001
,
1000
0000
0100
0010
,
0001
0000
0100
0010
,
1000
0000
0001
1000
,
0100
0000
0010
0100
0010
0000
0001
0000
,
0100
0000
0010
1000
,
0001
0000
0000
0010
0000
0000
0100
0000
,
0000
1000
0000
0000
0010
0000
0000
0100
,
0001
0000
1000
0000
0001
0000
1000
0001
,
1000
0000
0000
0000
;
