#TITLE:Electro World;
#SUBTITLE:;
#ARTIST:Perfume;
#TITLETRANSLIT:;
#SUBTITLETRANSLIT:;
#ARTISTTRANSLIT:;
#CREDIT:Xythar;
#BANNER:Electro World-bn.avi;
#BACKGROUND:Electro World-bg.png;
#LYRICSPATH:;
#CDTITLE:blank.png;
#MUSIC:Electro World.mp3;
#OFFSET:-12.660;
#SAMPLESTART:33.050;
#SAMPLELENGTH:26.650;
#SELECTABLE:YES;
#BPMS:0.000=144.090;
#STOPS:;
#BGCHANGES:-30.000=Electro World.avi=1.000=1=1=0,
99999=-nosongbg-=1.000=0=0=0 // don't automatically add -songbackground-
;

//---------------dance-single - ----------------
#NOTES:
     dance-single:
     :
     Hard:
     7:
     0.444,0.410,0.267,0.109,0.000:
0000
0000
0000
0000
,
1000
0100
0010
0100
1000
0000
0001
1000
,
0001
0000
0100
0010
0100
0001
0100
0010
,
2000
0002
3000
0010
,
0010
0000
0100
0000
1000
1000
1003
0000
,
0100
0010
0100
0010
0001
0000
0100
0010
,
1000
0000
0001
0010
0100
0010
0001
0100
,
0020
0000
1000
0000
1030
0000
0100
0010
,
0002
0100
0103
0000
,
0010
1000
0001
1000
0100
0000
1000
0010
,
0100
0001
0100
0010
0100
0001
0100
0010
,
1000
0100
0020
0000
0100
0000
0130
0000
,
1001
0100
1000
0001
,
0200
0000
0010
0000
0310
0000
0100
0001
,
1000
0000
0100
1000
0001
0010
0000
0100
,
0000
0100
1000
0010
0000
0010
0100
0001
,
0000
0001
1000
0100
1000
0000
0001
0100
,
0020
0000
1000
0000
1030
0000
0100
0010
,
0001
0000
0100
0010
0100
0001
0000
1000
,
0000
0100
0010
0100
0000
1000
0010
1000
,
0001
1100
0010
0101
,
0020
0000
1000
0000
1030
0000
0001
0100
,
0001
0000
1000
0001
0000
0001
1000
0000
,
1100
0000
0010
0001
0100
0000
0010
1000
,
0001
0100
0001
0000
1000
0000
0100
0000
,
0011
0000
0101
0000
0011
0000
0100
1000
,
0010
0000
1010
0000
0010
0000
0100
0100
,
0001
0000
1000
0100
0000
0100
1000
0000
,
1001
0000
0010
0100
0001
0010
0100
0000
,
1100
0000
0010
0001
0100
0000
1100
0000
,
0101
0000
1100
0000
0010
0100
0001
0100
,
0010
0000
0010
1000
0000
1000
0001
1000
,
0100
0011
1010
0011
,
2100
0000
0001
0000
3001
0000
0100
0010
,
0100
0000
0001
0100
0010
1000
0000
1000
,
0100
0000
0010
0001
0000
0001
1000
0000
,
0001
1000
0001
1000
0100
0000
0011
0000
,
0200
0000
0010
0000
0310
0000
0001
0100
,
0020
0000
0100
0000
0130
0000
0001
1000
,
0010
0000
1000
1000
0000
0001
0001
0000
,
0100
1100
1010
1100
,
0010
0001
1000
0100
1000
0000
0010
0100
,
0001
0000
1000
0100
0001
0000
0001
0100
,
1000
0000
0010
0100
0000
0100
0010
0000
,
0100
0001
1000
0100
1000
0001
1000
0000
,
0010
0100
0001
0000
0010
0100
1000
0000
,
0010
0000
0100
0001
0000
0001
1000
0000
,
0100
0010
0001
0000
0100
0010
1000
0000
,
0100
0000
0010
0001
0000
0001
1000
0000
,
0001
1100
0010
0101
,
0010
0000
1100
1000
0000
0001
1000
0001
,
1000
0000
0010
0100
0001
0000
1100
0000
,
0011
0000
0100
1000
0001
1000
0001
0000
,
2000
0000
0100
0000
3001
0000
0100
0010
,
0000
0010
0100
0001
1000
0100
0010
0000
,
1100
0000
0001
0000
0100
0010
0000
1000
,
0000
0100
1000
0001
1000
0000
0010
0100
,
0001
0000
1100
0000
0010
0001
0100
0000
,
1010
0000
0101
0000
0010
1000
0001
0000
,
1100
0000
0011
0000
0100
1000
0001
0000
,
0000
0000
0000
1000
0010
0100
0002
0000
,
1000
1003
0000
0000
;

//---------------dance-single - ----------------
#NOTES:
     dance-single:
     :
     Easy:
     3:
     0.217,0.228,0.075,0.000,0.000: // measure 1
0000
0000
0000
0000
,  // measure 2
1000
0010
0100
0000
,  // measure 3
0001
0000
0010
0100
,  // measure 4
0010
0000
0000
0000
,  // measure 5
0001
0001
1000
1000
,  // measure 6
0010
0100
0010
0000
,  // measure 7
0100
0000
0001
0000
,  // measure 8
1000
0001
0000
0010
,  // measure 9
0100
0000
1000
0010
,  // measure 10
0100
0000
0001
1000
,  // measure 11
0001
1000
0001
0010
,  // measure 12
0100
1000
0000
0000
,  // measure 13
0000
0010
0100
0001
,  // measure 14
1001
0000
0001
0000
,  // measure 15
0010
0000
0100
1000
,  // measure 16
0001
0000
0100
0000
,  // measure 17
0010
0100
0001
1000
,  // measure 18
1001
0000
0001
0010
,  // measure 19
0100
0000
1000
0010
,  // measure 20
0100
0000
0010
0100
,  // measure 21
0001
1000
0001
1000
,  // measure 22
1001
0000
0010
0100
,  // measure 23
0010
0000
0001
0100
,  // measure 24
0010
0000
0100
0001
,  // measure 25
1000
0100
1000
0010
,  // measure 26
0100
0010
0100
0001
,  // measure 27
1000
0001
0010
0100
,  // measure 28
1000
0000
0010
0000
,  // measure 29
0100
0001
1000
0001
,  // measure 30
1001
0000
0010
0100
,  // measure 31
0010
0000
0001
0100
,  // measure 32
0010
0000
0100
0001
,  // measure 33
1000
0000
0100
1000
,  // measure 34
0010
0000
0100
0001
,  // measure 35
1000
0000
0100
0010
,  // measure 36
0001
0000
1000
0010
,  // measure 37
0100
0000
0001
1000
,  // measure 38
1001
0000
0001
0010
,  // measure 39
0100
0000
1000
0000
,  // measure 40
0010
0000
0100
0001
,  // measure 41
1000
0001
0010
0100
,  // measure 42
1000
0000
0010
0100
,  // measure 43
0010
0000
0100
0001
,  // measure 44
1000
0000
0001
0000
,  // measure 45
0010
0100
1000
0010
,  // measure 46
0100
0000
0001
0000
,  // measure 47
1000
0000
0100
0010
,  // measure 48
0001
0000
1001
0000
,  // measure 49
0001
0000
0100
0010
,  // measure 50
1000
0000
0110
0000
,  // measure 51
0100
0000
0001
1000
,  // measure 52
0100
0000
0110
0000
,  // measure 53
0010
0000
0001
1000
,  // measure 54
0001
0000
0100
0000
,  // measure 55
0010
0000
1000
0100
,  // measure 56
0010
0000
0100
0000
,  // measure 57
1000
0000
0001
0100
,  // measure 58
0010
0000
1000
0000
,  // measure 59
0001
0000
1000
0100
,  // measure 60
0010
0000
0001
0000
,  // measure 61
0100
0000
0010
1001
;

//---------------dance-single - ----------------
#NOTES:
     dance-single:
     :
     Medium:
     5:
     0.371,0.432,0.109,0.476,0.000:
0000
0000
0000
0000
,
1000
0001
0100
0010
,
1000
0000
0001
1000
0001
0000
1000
0001
,
1000
0200
0000
0000
,
0310
0000
0010
0000
0001
0010
0001
0000
,
1000
0010
0100
0010
,
1000
0000
0001
0000
0010
0000
0100
1000
,
0100
2000
0000
0000
,
3010
0000
0100
0001
,
1000
0001
1000
0100
,
1000
0100
1000
0000
0001
0100
0001
0000
,
1000
0001
2000
0000
0000
0000
0100
0000
,
3100
0010
0001
1000
,
2002
0003
0100
3100
,
0010
0000
0001
0000
1000
0001
0000
0100
,
0000
0000
0000
0010
0000
0000
1000
0000
,
0100
1000
0001
0100
,
2020
0030
0001
3001
,
0010
0000
0100
0000
1000
0001
0000
0100
,
0000
0000
0000
0010
0000
0000
0010
0000
,
1000
0100
0010
0001
,
2002
0003
0100
3100
,
1000
0000
0010
0000
0100
0001
0000
1000
,
0000
0001
1000
0001
0000
1000
0000
0001
,
0000
0010
0100
0010
,
0002
0203
0320
2030
,
3200
0000
0320
0000
0032
0000
1003
0001
,
1000
0000
0000
0100
0000
0000
0010
0000
,
1001
0010
0100
0001
,
2020
0030
0100
3100
,
0010
0000
0001
0000
0100
0010
0000
1000
,
0000
0000
0000
0001
0000
0000
0010
0000
,
0100
1000
0001
1000
,
2200
0300
0010
3010
,
0100
0000
0001
0000
1000
0100
0000
0010
,
0000
0100
1000
0000
0001
0000
0100
0010
,
0000
1000
0001
0000
0001
0000
0010
0000
,
2200
0300
0001
3001
,
0100
0000
0010
0000
1000
0001
0000
1000
,
0000
0000
0000
0010
0000
0000
0100
0000
,
0001
0010
0100
1001
,
0020
0230
2300
3020
,
0230
0000
0302
0000
2003
0000
3100
1000
,
0001
0000
0000
0100
0000
0010
1000
0000
,
1100
0010
0101
1001
,
0020
0230
0302
2003
,
3200
0000
2300
0000
3020
0000
0130
0001
,
2000
3200
0320
0032
,
0203
0000
0320
0000
2030
0000
3001
0010
,
0200
2300
3002
0203
,
0320
0000
0230
0000
0302
0000
1003
0010
,
0200
0302
2003
3200
,
0302
0000
0203
0000
2300
0000
3010
0100
,
0001
0000
1000
0000
1001
0000
0010
0100
,
0000
0001
0000
1000
0001
0000
1001
0000
,
0000
0000
0010
0000
0100
0001
0000
1000
,
0000
0001
0000
0010
0100
0000
1000
0001
,
1000
0000
0010
0000
,
0100
0000
0000
0001
1000
0000
0100
0010
,
0001
0000
0000
0000
0100
0010
0100
0010
,
0000
0000
0000
1000
0001
1000
0001
0000
;

//---------------dance-single - ----------------
#NOTES:
     dance-single:
     :
     Beginner:
     1:
     0.129,0.152,0.000,0.000,0.000: // measure 1
0000
0000
0000
0000
,  // measure 2
1000
0000
0001
0000
,  // measure 3
1000
0000
0001
0000
,  // measure 4
1000
0000
0000
0000
,  // measure 5
0001
0000
1000
1000
,  // measure 6
1000
0000
0010
0000
,  // measure 7
0100
0000
0001
0000
,  // measure 8
0100
0000
0000
0000
,  // measure 9
0010
0000
0000
0000
,  // measure 10
0100
0000
0001
0000
,  // measure 11
1000
0000
0001
0000
,  // measure 12
0010
0000
0000
0000
,  // measure 13
0100
0000
1000
1000
,  // measure 14
1000
0000
0000
0000
,  // measure 15
0001
0000
0100
0000
,  // measure 16
0010
0000
0000
0000
,  // measure 17
0100
0000
0001
0001
,  // measure 18
0001
0000
0000
0000
,  // measure 19
0010
0000
0100
0000
,  // measure 20
1000
0000
0000
0000
,  // measure 21
0010
0000
0100
0100
,  // measure 22
0100
0000
0000
0000
,  // measure 23
0001
0000
1000
0000
,  // measure 24
0001
0000
0000
0000
,  // measure 25
1000
0000
0010
0010
,  // measure 26
0010
0000
0100
0000
,  // measure 27
0001
0000
1000
0000
,  // measure 28
0001
0000
0000
0000
,  // measure 29
0010
0000
0100
0100
,  // measure 30
0100
0000
1000
0000
,  // measure 31
0001
0000
1000
0000
,  // measure 32
0001
0000
0000
0000
,  // measure 33
0000
0000
1000
1000
,  // measure 34
1000
0000
0010
0000
,  // measure 35
0100
0000
0010
0000
,  // measure 36
0100
0000
0000
0000
,  // measure 37
0000
0000
0001
0001
,  // measure 38
0001
0000
0000
0000
,  // measure 39
1000
0000
0100
0000
,  // measure 40
1000
0000
0000
0000
,  // measure 41
0010
0000
0100
0100
,  // measure 42
0100
0000
0001
0000
,  // measure 43
1000
0000
0001
0000
,  // measure 44
1000
0000
0000
0000
,  // measure 45
0100
0000
0010
0000
,  // measure 46
0001
0000
0100
0000
,  // measure 47
0010
0000
1000
0000
,  // measure 48
0100
0000
0010
0000
,  // measure 49
0001
0000
1000
0000
,  // measure 50
0001
0000
0100
0000
,  // measure 51
0010
0000
1000
0000
,  // measure 52
0100
0000
0010
0000
,  // measure 53
0001
0000
1000
0000
,  // measure 54
0001
0000
0100
0000
,  // measure 55
0010
0000
0100
0000
,  // measure 56
0000
0000
0001
0000
,  // measure 57
0010
0000
0100
0000
,  // measure 58
1000
0000
0000
0000
,  // measure 59
0001
0000
0000
0000
,  // measure 60
1000
0000
0000
0000
,  // measure 61
0010
0000
0100
0100
;
