#TITLE:EDEN;
#SUBTITLE:;
#ARTIST:TERRA;
#TITLETRANSLIT:;
#SUBTITLETRANSLIT:;
#ARTISTTRANSLIT:;
#CREDIT:Steps and graphics by Xythar, BPM sync/effects by Krazy (illustration: GOLI);
#BANNER:EDEN.png;
#BACKGROUND:EDEN-bg.png;
#LYRICSPATH:;
#CDTITLE:beatmania IIDX.png;
#MUSIC:EDEN.mp3;
#OFFSET:0.797;
#SAMPLESTART:39.300;
#SAMPLELENGTH:12.000;
#SELECTABLE:YES;
#BPMS:0.000=100.000,34.042=104.890,34.146=109.550,34.250=114.010,34.354=118.330,34.458=122.480,34.542=126.490,34.646=130.390,34.750=134.160,34.854=137.840,34.958=141.130,35.042=144.910,35.146=148.330,35.250=151.660,35.354=154.930,35.458=158.110,35.542=161.250,35.646=164.310,35.750=167.340,35.854=170.300,35.958=173.200,36.042=176.060,36.146=178.890,36.250=181.660,36.354=184.390,36.458=187.090,36.542=189.740,36.646=192.350,36.750=194.940,36.854=197.490,36.958=200.000;
#STOPS:;
#BGCHANGES:1.500=EDEN.avi=1.000=1=1=0,
99999=-nosongbg-=1.000=0=0=0 // don't automatically add -songbackground-
;

//---------------dance-single - ----------------
#NOTES:
     dance-single:
     :
     Easy:
     3:
     0.250,0.247,0.119,0.024,0.000:
0000
0000
0000
0000
,
1000
0000
0001
0000
,
0010
0000
0100
0000
,
0010
0000
0001
0000
,
0100
0000
0010
0000
,
1000
0000
0010
0000
,
1000
0000
0100
0000
,
0010
0000
0001
0000
,
2002
0000
0000
0000
,
3003
0010
0000
0100
,
0000
0010
0000
0001
,
0000
1000
0000
0010
,
0000
0100
0000
0001
,
0010
0100
0000
0010
,
0000
0001
0000
0010
,
0000
0100
0000
1000
,
0100
0010
0000
0100
,
0000
1000
0000
0010
,
0000
1000
0000
0001
,
0000
0100
0000
0010
,
1000
0100
0000
1000
,
0100
0010
0000
0100
,
0010
0001
0000
0100
,
0010
1000
0000
0000
,
0000
1001
0000
0010
,
0100
1000
0000
0100
,
0000
0010
0000
0100
,
1000
0100
0000
1000
,
0000
0010
0000
0100
,
0000
0001
0000
0010
,
0000
0001
0000
0010
,
0100
1000
0000
0100
,
0010
0001
0000
0110
,
0000
1000
0000
0001
,
0000
0010
0000
0001
,
0000
0100
0000
0010
,
0000
0100
0000
0001
,
0100
0010
0000
0100
,
0000
0001
0000
1000
,
0000
0010
0000
1000
,
0000
0100
0000
1001
,
0000
0001
0010
0100
,
0000
0010
0100
1000
,
0000
0001
0100
0010
,
0000
0100
0010
1000
,
0000
1001
0000
0001
,
0000
0011
0000
0010
,
0000
0110
0000
0100
,
0000
1100
0000
1001
,
0000
1000
0001
0010
,
0000
0001
0010
0100
,
0000
0010
0001
0100
,
0000
0010
1000
0100
,
0000
1000
0100
0010
,
0001
0010
0100
1000
,
0000
0001
0000
0100
,
0000
0010
0000
0110
,
0000
1000
0000
0000
,
0000
0100
0000
0000
,
0000
0010
0000
0000
;

//---------------dance-single - ----------------
#NOTES:
     dance-single:
     :
     Hard:
     8:
     0.531,0.501,0.000,0.048,0.024:
0000
0000
0000
0000
,
1000
0001
0010
0100
,
1000
0100
0010
0000
0010
0100
1000
0000
,
0001
0100
0010
0100
,
0001
0010
0100
0000
0100
0010
0001
0000
,
0100
1000
0100
0001
,
1000
0010
0100
0000
0100
0010
1000
0000
,
0100
1000
0010
0100
,
0020
0000
0000
0000
0000
0000
0000
0000
0000
0000
0000
0000
0000
0000
0000
0000
0000
0000
0000
0000
0000
0000
0000
0000
0000
0000
0000
0000
0000
0000
0000
0000
0100
0000
0000
0000
0000
0000
0000
0000
0000
0100
0000
0000
0000
0000
0000
0000
0000
0000
0000
0000
0100
0000
0000
0000
0000
0000
0000
0000
0000
0000
0000
0000
,
0000
0000
0000
0100
0030
0000
0000
0000
0000
0000
0000
0000
0000
0000
0000
0000
0000
0000
0000
0000
0000
0000
0000
0000
0000
0000
0000
0000
0000
0000
0000
0000
0000
0000
0000
0000
0000
0000
0000
0000
0000
0000
0000
0000
0000
0000
0000
0000
0001
0000
0000
0000
0000
0000
0000
0000
0000
0000
0000
0000
0000
0000
0000
0000
0000
0000
0000
0000
0000
0000
0000
0000
0000
0000
0000
0000
0000
0000
0000
0000
0000
0000
0000
0000
0000
0000
0000
0000
0000
0000
0000
0000
0000
0000
0000
0000
1000
0000
0000
0000
0000
0000
0000
0000
0000
0000
0000
0000
0000
0000
0000
0000
0000
0000
0000
0000
0000
0000
0000
0000
0001
0000
0000
0000
0000
0000
0000
0000
0000
0000
0000
0000
0000
0000
0000
0000
0000
0000
0000
0000
0000
0000
0000
0000
0000
0000
0000
0000
0000
0000
0000
0000
0000
0000
0000
0000
0000
0000
0000
0000
0000
0000
0000
0000
0000
0000
0000
0000
0001
0000
0000
0000
0000
0000
0000
0000
0000
0000
0000
0000
0000
0000
0000
0000
0000
0000
0000
0000
0000
0000
0000
0000
,
1000
0000
0001
0000
0010
0001
0000
0001
,
0010
0000
0100
0000
1000
0100
0000
0100
,
1000
0000
0001
0000
0000
0010
0100
1000
,
0001
0000
0100
0000
0010
0100
0000
0100
,
0010
0000
1000
0000
0100
1000
0000
1000
,
0100
0000
0010
0000
0001
0010
0000
0010
,
0001
0000
0100
0000
0000
0010
1000
0000
,
0001
0000
1000
0000
0100
1000
0000
1000
,
0100
0000
0010
0000
0100
0010
0000
0010
,
0100
0000
1000
0000
0001
1000
0000
1000
,
0001
0100
0000
0010
,
1000
0000
0100
0000
1000
0100
0000
0100
,
1000
0000
0001
0000
0010
0001
0000
0001
,
0010
0000
0001
0000
1000
0001
0000
0001
,
1000
0001
0010
0100
,
1000
0000
0100
0010
0100
0010
0001
0010
,
0100
0010
0001
0010
0100
1000
0100
0010
,
0100
0000
1000
0000
0000
0010
0000
0000
,
0001
0010
1000
0100
,
0010
0000
0001
0100
0010
1000
0010
1000
,
0100
0010
0100
1000
0001
0100
0010
1000
,
0100
1000
0010
0000
0000
0100
0000
0000
,
0001
0010
0000
0100
,
1000
0000
0001
0010
0100
0010
0001
0100
,
0010
0100
0001
1000
0100
0010
0100
1000
,
0010
0100
0001
0000
0000
0010
0000
0000
,
0100
1000
0010
0100
,
0001
0000
1000
0100
0010
0001
1000
0001
,
0010
0100
1000
0001
0010
0100
1000
0001
,
1000
0100
0010
0001
0000
0010
0000
0000
,
0100
0000
0000
0000
1000
0000
0000
0000
0000
0000
0100
1000
0100
0000
0000
0000
,
0000
1000
0100
0010
,
0100
0000
1000
0001
0100
0010
0000
1000
,
0100
0010
0001
0000
0010
0000
1000
0000
,
0010
0000
0001
0010
0100
0010
0001
0100
,
0010
1000
0100
0000
0010
0000
0100
0000
,
1000
0000
0001
0100
0010
1000
0000
0100
,
0010
0001
0010
0100
0010
0001
0000
1000
,
0010
0100
0001
0100
0010
1000
0000
1000
,
0100
0010
0001
0010
,
0100
0000
0010
0001
0100
0010
0000
1000
,
0001
0100
0010
0000
0100
0000
0001
0000
,
0010
0000
0001
0010
0100
1000
0000
0100
,
0010
0001
0100
1000
,
0100
0000
0010
0000
1000
0100
0000
0010
,
0001
0000
0100
0000
0010
1000
0000
0001
,
0100
0000
0010
0100
1000
0100
0001
0100
,
0001
0010
0200
0000
1000
0000
1000
0000
,
1300
0002
0010
0010
,
0013
0200
0010
0010
,
0310
0000
0000
0000
;

//---------------dance-single - ----------------
#NOTES:
     dance-single:
     :
     Challenge:
     10:
     0.904,0.930,0.513,0.000,0.286: // measure 1
0000
0000
0000
0000
,  // measure 2
1000
0100
0010
0100
0010
0001
0100
0010
,  // measure 3
0100
0010
0100
0000
0010
0000
1000
0100
0000
0100
0000
0100
1000
0000
0100
0000
,  // measure 4
0010
0100
1000
0010
0100
0001
0100
0010
,  // measure 5
1000
0100
0010
0000
0100
0000
1000
0001
0000
0010
0000
0001
0100
0000
0010
0000
,  // measure 6
1000
0000
0000
1010
1010
0000
0000
0000
0100
0000
0000
0110
0110
0000
0000
0000
,  // measure 7
0001
1000
0010
0000
1000
0000
0100
0001
0000
0100
0000
0100
1000
0000
0100
0000
,  // measure 8
0010
0000
0000
0011
0011
0000
0100
0000
1000
0000
0000
1010
1010
0000
0100
0000
,  // measure 9
0001
0000
0000
0000
0000
0000
0000
0000
0000
0000
0000
0000
1001
0000
0000
0000
1001
0000
0000
0000
0000
0000
0000
0000
0000
0000
0000
0000
0000
0000
0000
0000
1000
0000
0000
0000
0000
0000
0000
0000
0000
0100
0000
0000
0000
0000
0000
0000
0000
0000
0000
0000
0010
0000
0000
0000
0000
0000
0000
0000
0000
0000
0000
0000
,  // measure 10
0000
0001
0000
0000
0000
0000
0000
0000
0000
0000
0000
0000
0000
0000
0000
0000
0001
0000
0000
0000
0000
0000
0000
0000
0010
0000
0000
0000
0000
0000
0000
0000
0100
0000
0000
0000
0000
0000
0000
0000
1000
0000
0000
0000
0000
0000
0000
0000
0100
0000
0000
0000
0000
0000
0000
0000
0010
0000
0000
0000
0000
0000
0000
0000
,  // measure 11
0100
0010
0100
0000
1000
0000
0010
0000
0100
0001
0100
0000
0001
0000
1000
0000
,  // measure 12
0010
1000
0010
0000
1000
0000
0100
0000
0001
0000
0100
0000
1000
0000
0001
0000
,  // measure 13
0010
0000
0100
0000
0010
0000
0001
0000
0100
0001
0100
0000
0001
0000
0100
0000
,  // measure 14
1000
0100
0010
0100
0001
0010
1000
0010
,  // measure 15
0001
0000
0100
0000
1000
0000
0100
0000
0010
0100
0010
0000
0100
0000
0001
0000
,  // measure 16
0010
0100
0001
0100
1000
0100
1000
0010
,  // measure 17
0100
0000
0001
0000
0010
0000
0001
0000
0010
0100
0010
0000
0100
0000
1000
0000
,  // measure 18
0010
0100
1000
0100
0001
0010
0100
1000
,  // measure 19
0001
0000
0010
0000
0100
0000
0010
0000
0001
0010
0001
0000
1000
0000
0100
0000
,  // measure 20
0010
0001
0010
0100
0001
0100
1000
0010
,  // measure 21
0100
0000
0001
0000
0100
0000
0010
0000
1000
0100
1000
0000
0100
0000
1000
0000
,  // measure 22
0010
0100
1000
0100
0001
0010
0100
0001
,  // measure 23
0100
0000
1000
0000
0010
0000
0001
0000
0010
0100
0010
0000
1000
0000
0001
0000
,  // measure 24
0010
0100
0010
0001
1000
0100
0010
0100
,  // measure 25
1000
0000
0010
0000
0100
0000
0001
0000
0010
0001
0010
0000
0100
0000
1000
0001
,  // measure 26
1000
0001
1000
0001
1000
0000
0001
0000
0010
0000
0100
0000
0010
0000
0001
0000
,  // measure 27
0010
0100
1100
0100
0010
0001
0010
0100
,  // measure 28
0010
0100
0110
0010
0100
0010
0001
0100
,  // measure 29
1000
0100
0101
1000
0001
0010
0100
0010
,  // measure 30
0001
1000
0011
0100
0010
0100
0001
0010
,  // measure 31
0100
0001
0110
0010
0100
0001
0100
1000
,  // measure 32
0100
1000
1100
1000
0010
0100
0010
1000
,  // measure 33
0001
0010
0110
0010
0100
1000
0001
0100
,  // measure 34
0010
0100
0101
0100
0001
0010
0100
0010
,  // measure 35
1000
0100
0110
0001
0100
0010
0110
1000
,  // measure 36
0100
0010
0011
0100
0010
1000
1001
0100
,  // measure 37
0001
0100
0101
0001
0100
1000
1100
0010
,  // measure 38
1000
0001
1001
1000
0001
0010
0110
1000
,  // measure 39
1001
0100
1100
1000
1010
0100
0101
0001
,  // measure 40
0011
0100
0110
1000
1001
1000
1010
0010
,  // measure 41
0110
0000
0100
0000
0001
0000
0010
0000
0001
0010
0001
0010
0100
0000
0000
0000
,  // measure 42
0000
0000
1000
0100
0010
0001
0010
0100
,  // measure 43
0010
0000
0001
0000
0100
0000
1000
0000
0100
0000
0001
0000
0000
0000
0010
0001
,  // measure 44
0010
0001
0010
0100
0010
0100
1000
0010
,  // measure 45
0100
0000
0010
0000
0001
0000
0010
0000
1000
0000
0100
0000
0000
0000
0010
0001
,  // measure 46
0010
0000
0001
0010
0100
1000
0010
0100
,  // measure 47
0001
1000
0010
0100
0001
1000
0100
0010
,  // measure 48
0100
1000
0001
0100
0010
1000
0010
0100
,  // measure 49
0001
0000
1000
0000
0100
1000
0100
0000
0010
0100
0010
0000
0001
0010
0001
0000
,  // measure 50
1000
0001
1000
0000
0100
0000
0001
0000
0100
0000
1000
0000
0100
0000
0001
0000
,  // measure 51
0100
0000
1000
0000
0010
0000
0001
0000
0010
0000
1000
0000
0100
0000
0010
0001
,  // measure 52
0010
0100
0010
0000
0100
0000
0010
0000
0001
0000
1000
0000
0010
0000
0100
0000
,  // measure 53
0001
0000
0010
0000
0001
0000
1000
0000
0100
0000
1000
0000
0010
0000
0100
0010
,  // measure 54
0100
0001
0100
0000
0001
0000
1001
0000
0010
0000
0100
0000
1000
0000
1001
0000
,  // measure 55
0100
0010
0100
0110
0010
0100
1000
1100
,  // measure 56
0100
0000
0010
0000
1000
0000
0001
0000
1000
0000
0001
0000
1000
0001
1000
0001
,  // measure 57
1000
0001
1000
0000
1001
0000
1001
0000
1001
0000
1001
0000
0010
0000
0100
0000
,  // measure 58
1000
0000
1000
0100
0010
0001
1000
0010
,  // measure 59
0100
0001
1000
0000
0100
0000
0010
0000
,  // measure 60
0001
1000
0010
0100
,  // measure 61
0001
0000
0000
0000
;

//---------------dance-single - ----------------
#NOTES:
     dance-single:
     :
     Medium:
     6:
     0.409,0.465,0.012,0.000,0.018:
0000
0000
0000
0000
,
1000
0100
0010
0001
,
1000
0100
1000
0000
0001
0100
0001
0000
,
0010
0100
1000
0001
,
1000
0010
1000
0000
0001
0010
0001
0000
,
1000
0010
0100
0001
,
0100
0010
0100
0000
0001
1000
0001
0000
,
0100
0010
1000
0100
,
1000
0000
0000
0000
0000
0000
0000
0000
0000
0000
0000
0000
0000
0000
0000
0000
0001
0000
0000
0000
0000
0000
0000
0000
0000
0000
0000
0000
0000
0000
0000
0000
1000
0000
0000
0000
0000
0000
0000
0000
0000
0100
0000
0000
0000
0000
0000
0000
0000
0000
0000
0000
1000
0000
0000
0000
0000
0000
0000
0000
0000
0000
0000
0000
,
0000
0100
0000
0000
0000
0000
0000
0000
0000
0000
0000
0000
0000
0000
0000
0000
1000
0000
0000
0000
0000
0000
0000
0000
0000
0000
0000
0000
0000
0000
0000
0000
0001
0000
0000
0000
0000
0000
0000
0000
1000
0000
0000
0000
0000
0000
0000
0000
0000
0000
0000
0000
0000
0000
0000
0000
0000
0000
0000
0000
0000
0000
0000
0000
,
0100
0000
0010
0000
0001
0010
0000
0000
,
0100
0000
1000
0000
0010
1000
0000
0000
,
0001
0100
0000
0001
,
1000
0000
0010
0000
1000
0010
0000
0000
,
0100
0000
0001
0000
0010
0001
0000
0000
,
0010
0000
0100
0000
0010
0001
0000
0000
,
1000
0000
0010
0000
1000
0001
0000
0000
,
0010
0000
0100
0000
1000
0100
0000
0000
,
0010
0000
0001
0000
0100
0001
0000
0000
,
1000
0000
0010
0000
1000
0001
0000
0000
,
0010
0100
0000
1000
,
0100
0010
0000
0001
,
0100
0010
0000
1000
,
0001
0010
0000
0100
,
0000
0000
1000
0001
1000
0001
1000
0000
,
0000
1000
0100
0010
,
0100
1000
0100
0010
,
0001
0100
0010
0100
,
0001
1000
0010
1000
,
0100
1000
0001
0010
,
0100
0010
0001
0010
,
0100
1000
0010
0100
,
0001
0100
0010
0100
,
0000
0001
0010
0100
,
1000
0001
0010
0100
,
1000
0001
0100
0010
,
0100
0001
1000
0010
,
0100
0010
0100
0001
,
1000
0001
0010
0001
,
1000
0100
1000
0001
,
0100
0010
1000
1001
,
0000
0001
0010
0100
,
1000
0100
1000
0000
0000
0100
0000
0000
,
0010
0001
0100
0010
,
1000
0010
1000
0000
0000
0001
0000
0000
,
0000
0001
0010
0100
,
1000
0000
0100
0000
0000
0010
0000
0000
,
0001
0000
0100
0000
0000
0010
0000
0000
,
0100
0000
0001
0010
0001
0010
0001
0000
,
1000
0010
0100
0010
,
0100
0010
0100
0000
0000
0001
0000
0000
,
0010
0100
1000
0100
,
1000
0010
1000
0000
0001
0010
0000
0100
,
0010
1000
0100
0010
,
0100
1000
0100
0000
0010
0001
0010
0000
,
0001
0100
0001
0000
1000
0010
1000
0000
,
0001
0010
0001
0010
0100
0010
0100
0000
,
0000
1000
0000
0100
,
0000
0010
0000
0001
,
0000
0100
0000
0010
,
1000
0000
0000
0000
;

//---------------dance-single - ----------------
#NOTES:
     dance-single:
     :
     Beginner:
     1:
     0.135,0.141,0.060,0.000,0.000:
0000
0000
0000
0000
,
1000
0000
0000
0000
,
0001
0000
0000
0000
,
1000
0000
0000
0000
,
0010
0000
0000
0000
,
0100
0000
0000
0000
,
0010
0000
0000
0000
,
1000
0000
0000
0000
,
1001
0000
0000
0000
,
0000
1000
0000
0000
,
0000
0100
0000
0000
,
0000
0010
0000
0000
,
0000
0100
0000
0010
,
0000
0100
0000
0000
,
0000
1000
0000
0000
,
0000
0001
0000
0000
,
0000
0100
0000
0000
,
0000
0010
0000
1000
,
0000
0010
0000
0000
,
0000
1001
0000
0000
,
0000
0110
0000
0000
,
0000
0001
0000
0010
,
0000
0100
0000
0000
,
0000
1000
0000
0000
,
0000
1001
0000
0000
,
0000
0001
0000
0010
,
0000
0100
0000
0010
,
0000
0001
0000
0000
,
0000
0000
0000
0000
,
0000
1000
0000
0010
,
0000
0100
0000
0001
,
0000
1000
0000
0000
,
0000
0000
0000
0000
,
0000
0001
0000
1000
,
0000
0010
0000
1000
,
0000
0001
0000
0000
,
0000
0000
0000
0000
,
0000
1000
0000
0100
,
0000
0001
0000
0100
,
0000
1000
0000
0000
,
0000
0000
0000
1001
,
0000
0010
0000
0000
,
0000
0100
0000
0000
,
0000
1000
0000
0100
,
0000
0010
0000
0000
,
0000
0100
0000
0000
,
0000
1000
0000
0000
,
0000
0001
0000
0010
,
0000
0100
0000
0000
,
0000
1000
0000
0100
,
0000
0010
0000
0000
,
0000
0100
0000
0010
,
0000
0001
0000
0000
,
0000
1000
0000
0100
,
0000
0010
0000
0001
,
0000
0010
0000
0100
,
0000
1000
0000
0000
,
0000
0010
0000
0000
,
0000
0100
0000
0000
,
0000
1000
0000
0000
;
