#TITLE:dragonfly;
#SUBTITLE:;
#ARTIST:島谷ひとみ;
#TITLETRANSLIT:;
#SUBTITLETRANSLIT:;
#ARTISTTRANSLIT:hitomi shimatani;
#CREDIT:Xythar;
#BANNER:Dragonfly.png;
#BACKGROUND:Dragonfly-bg.png;
#LYRICSPATH:Dragonfly.lrc;
#CDTITLE:PRIMA ROSA.png;
#MUSIC:Dragonfly.mp3;
#OFFSET:-0.642;
#SAMPLESTART:57.800;
#SAMPLELENGTH:11.294;
#SELECTABLE:YES;
#BPMS:0.000=170.000;
#STOPS:;
#BGCHANGES:-0.816=Dragonfly.avi=1.000=1=0=1,
99999=-nosongbg-=1.000=0=0=0 // don't automatically add -songbackground-
;

//---------------dance-single - ----------------
#NOTES:
     dance-single:
     :
     Hard:
     7:
     0.469,0.453,0.000,0.117,0.003: // measure 1
0000
0000
0000
0000
,  // measure 2
0000
0000
0000
0000
,  // measure 3
0000
0000
0000
0000
,  // measure 4
0000
0000
0000
0000
,  // measure 5
0002
0000
0000
0000
,  // measure 6
0000
0000
0000
0000
,  // measure 7
2003
0000
0000
0000
,  // measure 8
0000
0000
0000
0000
3000
0000
0000
0100
,  // measure 9
0010
0000
0001
0000
0100
0000
0010
0100
,  // measure 10
0000
0001
0000
1000
0000
0100
1000
0100
,  // measure 11
1000
0000
0010
0000
0100
0000
1000
0100
,  // measure 12
0000
0010
0000
1000
0000
0001
1000
0001
,  // measure 13
1000
0000
0100
0000
0010
0000
0001
0100
,  // measure 14
0000
0010
0000
0100
0000
0001
0100
0001
,  // measure 15
0100
0000
0001
0000
0010
0000
0100
1000
,  // measure 16
0000
0001
0000
1000
0000
0000
0000
0000
,  // measure 17
0000
0100
0010
0000
0001
0000
0100
0010
,  // measure 18
1000
0000
0010
0100
0000
0001
0000
0000
,  // measure 19
0000
1000
0100
0000
1000
0000
0001
0100
,  // measure 20
0010
0000
0010
1000
0000
0001
0001
0000
,  // measure 21
1000
0001
0010
0000
0100
1000
0001
0000
,  // measure 22
0100
0010
0100
0001
0000
1000
0000
0010
,  // measure 23
0100
0000
0100
0001
0000
1000
0100
1000
,  // measure 24
0000
0000
0001
0000
0010
0000
0000
0100
0000
0000
1000
0000
0100
0000
0000
0000
,  // measure 25
1000
0000
0010
0000
0100
0001
0100
0001
,  // measure 26
0000
1000
0100
2000
0000
0001
3001
0000
,  // measure 27
0010
0000
0100
0000
1000
0001
0100
0001
,  // measure 28
0000
1000
0100
2000
0000
0010
3010
0000
,  // measure 29
0100
0000
0001
0010
0100
0000
1000
0010
,  // measure 30
0100
0000
0001
1000
0100
0000
1000
0001
,  // measure 31
0100
0000
0010
1000
0001
0000
0010
0100
,  // measure 32
1000
0000
0010
0100
0000
0001
1000
0100
,  // measure 33
1000
0000
1000
0000
0010
0100
0001
0200
,  // measure 34
0000
0010
0000
0310
0000
1000
0010
1000
,  // measure 35
0001
0000
0001
0000
0010
0100
1000
0010
,  // measure 36
0000
0100
0001
1000
0000
0001
1000
0000
,  // measure 37
0100
0000
0010
0000
0001
1000
0001
0200
,  // measure 38
0000
0010
0000
0310
0000
1000
0100
1000
,  // measure 39
0001
0000
0001
0000
0100
0010
0100
0001
,  // measure 40
0000
0010
0000
0100
0000
1000
0001
1000
,  // measure 41
0000
0000
0000
0000
0001
0100
0000
0010
,  // measure 42
0000
0001
0010
0100
0000
0001
0010
0100
,  // measure 43
0000
1000
0010
0000
0100
0000
0010
1000
,  // measure 44
0000
0001
0010
0100
0000
1000
0000
1000
,  // measure 45
0000
0010
0100
0000
0001
0000
1000
0100
,  // measure 46
1000
0000
0001
0100
0001
0000
1000
0010
,  // measure 47
0000
1000
0001
0010
0100
0000
0001
0100
,  // measure 48
0000
1000
0001
0100
0000
0010
0000
1000
,  // measure 49
0000
0001
1000
0000
0100
0010
0000
0100
,  // measure 50
0000
1000
0010
0100
0000
0001
0010
0100
,  // measure 51
0000
1000
0001
1000
0001
0000
0100
0020
,  // measure 52
0000
1000
0000
2030
0000
0100
0000
3100
,  // measure 53
0000
0000
0010
0001
1000
0000
0010
0000
,  // measure 54
0100
0001
1000
0001
0100
0000
0010
1000
,  // measure 55
0000
0100
0010
0100
0010
0001
0000
1000
,  // measure 56
0000
0010
0000
0100
0000
0001
0000
0010
,  // measure 57
0000
0100
0000
1000
0100
0000
1000
0000
,  // measure 58
0001
0000
1000
0010
0000
0010
0000
0100
,  // measure 59
0000
0001
0100
0001
0100
0000
0010
0000
,  // measure 60
1000
0000
0100
0010
0000
0100
0000
0100
,  // measure 61
0000
1000
0001
0100
0001
1000
0000
0100
,  // measure 62
0000
0010
0000
0001
0000
0100
0010
0100
,  // measure 63
0001
0000
0001
1000
0000
0100
0000
0100
,  // measure 64
0000
0010
0000
0010
0000
0100
0000
0100
,  // measure 65
0000
0000
0000
0000
1000
0001
0100
0010
,  // measure 66
0000
0100
0001
1000
0000
0100
0010
0001
,  // measure 67
0000
1000
0000
1000
0001
0000
0100
0000
,  // measure 68
1000
0000
0100
0010
0000
1000
0000
0001
,  // measure 69
0000
0010
0100
0010
0100
0000
1000
0000
,  // measure 70
0010
0000
0100
1000
0000
0100
0000
0001
,  // measure 71
0000
1000
0000
0000
0200
0000
0010
0000
,  // measure 72
0310
0001
1000
0020
0000
0100
0000
0130
,  // measure 73
0000
0001
0100
0001
1000
0000
1000
0000
,  // measure 74
0100
0010
0100
0010
0000
0001
0000
0001
,  // measure 75
0000
1000
0001
0000
0200
0000
0010
0000
,  // measure 76
0310
0100
0001
2000
0000
0100
0000
3100
,  // measure 77
0000
1000
0001
1000
0001
0000
0100
0000
,  // measure 78
0010
0100
0001
1000
0000
0001
0000
1000
,  // measure 79
0000
0001
1000
0001
0000
0000
0000
0000
,  // measure 80
0000
0000
0000
0000
0100
1000
0000
0100
,  // measure 81
0000
0010
0000
0100
0000
0001
0000
1000
,  // measure 82
0000
0100
1000
0000
0001
0000
0010
0100
,  // measure 83
0000
0010
0001
2000
0000
0010
0000
3010
,  // measure 84
0000
0100
0001
1000
0001
0000
0010
0000
,  // measure 85
0100
1000
0001
0000
1000
0000
0010
0010
,  // measure 86
0000
0100
0100
0000
0010
1000
0001
0010
,  // measure 87
0000
0100
1000
0001
0000
1000
0000
0001
,  // measure 88
0000
1000
0100
0000
1000
0010
0100
0010
,  // measure 89
0000
0100
0001
0100
0000
0001
1000
0100
,  // measure 90
0000
0100
0000
0000
0010
0001
0010
0002
,  // measure 91
0000
1000
0000
1003
0000
0010
0000
0100
,  // measure 92
0000
0010
1000
0000
0200
0000
0010
0000
,  // measure 93
0310
0000
1000
0000
0010
0000
0001
0001
,  // measure 94
0000
1000
0001
1000
0001
0010
0000
0100
,  // measure 95
0000
1000
0000
0001
0000
0100
0001
1000
,  // measure 96
0000
0000
0001
0100
0001
0100
0000
0010
,  // measure 97
0000
1000
0000
0200
0000
0010
0000
0310
,  // measure 98
0000
0100
1000
0000
,  // measure 99
0000
0001
0000
0001
0000
0000
0000
1000
,  // measure 100
0000
0000
0000
0000
,  // measure 101
0000
0200
0000
0000
0000
0000
0000
0000
,  // measure 102
0000
0000
0000
0000
0000
0300
0000
0000
;

//---------------dance-single - ----------------
#NOTES:
     dance-single:
     :
     Challenge:
     8:
     0.588,0.549,0.268,0.000,0.000: // measure 1
0000
0000
0000
0000
,  // measure 2
0000
0000
0000
0000
,  // measure 3
0000
0000
0000
0000
,  // measure 4
0000
0000
0000
0000
,  // measure 5
1000
0000
0100
0010
0000
0001
0100
0010
,  // measure 6
0000
0100
0001
1000
0000
0100
1000
0001
,  // measure 7
1000
0000
0010
0100
0000
1000
0100
0001
,  // measure 8
0000
0010
0100
1000
0000
0001
0100
0010
,  // measure 9
1000
0100
0010
0100
1000
0000
0010
0100
,  // measure 10
0000
0001
0100
0010
0000
1000
0100
0010
,  // measure 11
0001
0100
1000
0100
0001
0000
0010
0100
,  // measure 12
0000
1000
0010
0100
0000
0001
0010
0100
,  // measure 13
0010
0001
0100
0010
1000
0000
0100
0010
,  // measure 14
0000
0001
0100
1000
0000
0100
0010
1000
,  // measure 15
0001
0100
0010
0100
0001
0000
1000
0100
,  // measure 16
0000
1000
0000
1001
0000
0000
0000
0000
,  // measure 17
0000
0010
0100
0001
0100
0010
1000
0100
,  // measure 18
0010
0100
1000
0001
0000
0100
0000
0000
,  // measure 19
0010
1000
0001
1000
0100
0001
0100
1000
,  // measure 20
0010
0000
0100
0001
0000
0001
1000
0000
,  // measure 21
0100
0010
0001
0100
0010
0100
0001
1000
,  // measure 22
0010
0000
0100
1000
0000
1000
0100
0000
,  // measure 23
0001
0000
0010
0100
0000
0100
1000
0001
,  // measure 24
0000
0100
0010
0100
0001
0000
1100
0000
,  // measure 25
0001
0010
0100
0000
1000
0010
0100
0001
,  // measure 26
0000
1000
0100
1000
0000
0001
0100
0000
,  // measure 27
1010
0000
0100
0000
0010
0001
0010
0001
,  // measure 28
0000
1000
0010
0100
0000
0001
1000
0000
,  // measure 29
0110
0000
0001
0010
0100
1000
0010
0100
,  // measure 30
0010
0000
0100
0001
0000
0001
1000
0100
,  // measure 31
1000
0000
0001
0100
0000
0010
0000
0100
,  // measure 32
0001
0100
0001
1000
0000
0100
0010
0100
,  // measure 33
0010
0000
0001
0000
0100
0010
0100
0001
,  // measure 34
0000
1100
0000
0011
0000
0100
1000
0001
,  // measure 35
1000
0000
0010
0000
0001
0010
0100
0001
,  // measure 36
0000
1000
0000
0110
0000
0001
0100
0010
,  // measure 37
1000
0000
0100
0000
0010
0001
0100
0010
,  // measure 38
0000
0101
0000
1010
0000
0100
0001
1000
,  // measure 39
0001
0000
1100
0000
0001
0100
1000
0001
,  // measure 40
0000
1000
0000
0001
0000
1001
0000
0000
,  // measure 41
0000
0000
0000
0000
0001
0010
0000
0100
,  // measure 42
0000
1000
0000
0001
0000
0100
0010
0100
,  // measure 43
0000
0001
1000
0000
1100
0000
0010
0001
,  // measure 44
0000
0100
0010
0100
0000
0001
0000
1100
,  // measure 45
0000
0001
0100
0010
1000
0000
0100
0010
,  // measure 46
0001
0100
0010
0000
0100
0001
1000
0100
,  // measure 47
1000
0000
0001
1000
0001
0100
0000
0011
,  // measure 48
0000
0100
1000
0001
0000
0110
0000
1001
,  // measure 49
0000
0000
0010
0000
0100
1000
0001
0100
,  // measure 50
0000
1000
0100
0001
0000
1000
0100
1000
,  // measure 51
0001
0100
0010
0000
0001
0010
1000
0001
,  // measure 52
0000
1100
0000
0011
0000
0100
1000
0001
,  // measure 53
0000
1000
0100
1000
0001
0000
0100
0010
,  // measure 54
0100
0001
1000
0000
1100
0000
0010
0001
,  // measure 55
0100
0010
0100
0000
0001
1000
0100
1000
,  // measure 56
0000
0001
0100
0010
0000
1100
0000
0011
,  // measure 57
0000
0100
1000
0001
1000
0010
0100
0010
,  // measure 58
1000
0000
0001
0100
0000
0010
1000
0001
,  // measure 59
0000
1000
0100
1000
0001
0010
0100
0010
,  // measure 60
0001
0000
0100
0010
0000
0100
0001
1000
,  // measure 61
0000
0001
0100
0010
1000
0001
0000
1000
,  // measure 62
0100
1000
0001
0010
0000
0100
1000
0001
,  // measure 63
0100
0010
0100
0001
0000
1000
0100
0010
,  // measure 64
0001
0000
0100
0010
0100
0001
1000
0000
,  // measure 65
1001
0000
0000
1000
0100
1000
0001
0010
,  // measure 66
0001
1000
0010
1000
0001
0100
0001
1000
,  // measure 67
0100
0010
0001
0100
0010
0000
0100
0001
,  // measure 68
1000
0000
0100
0010
0000
0001
0000
1000
,  // measure 69
0000
0001
0100
0010
1000
0100
0010
0001
,  // measure 70
1000
0000
0100
1000
0000
0001
0000
0110
,  // measure 71
0000
0001
1000
0000
0100
0000
0010
0000
,  // measure 72
0100
1000
0001
1000
0000
0010
0000
0101
,  // measure 73
0000
0010
1000
0001
0010
0000
1100
0000
,  // measure 74
0001
0100
0010
1000
0000
0100
0000
0011
,  // measure 75
0000
0100
1000
0001
1000
0000
0010
0000
,  // measure 76
0100
0001
1000
0100
0000
0011
0000
1100
,  // measure 77
0000
0010
0100
0001
1000
0000
0100
0000
,  // measure 78
0010
0001
0100
0010
0000
1001
0000
0110
,  // measure 79
0000
0001
1000
0010
0100
0001
0100
0001
,  // measure 80
0000
0001
1000
0000
0100
0010
0001
0100
,  // measure 81
0000
0010
1000
0001
0000
0010
0100
1000
,  // measure 82
0000
0001
1000
0100
1000
0000
0010
0100
,  // measure 83
0000
0001
1000
0100
0000
1000
0000
0001
,  // measure 84
0000
0100
0010
1000
0001
0000
0010
0100
,  // measure 85
1000
0000
0001
0100
1000
0000
0100
0010
,  // measure 86
1000
0001
0010
0100
1000
0001
0000
1100
,  // measure 87
0000
0010
0100
0001
0000
1000
0100
1000
,  // measure 88
0000
0001
1000
0001
1000
0001
0000
0110
,  // measure 89
0000
1000
0001
0010
0000
0100
1000
0001
,  // measure 90
0000
0100
0010
0100
0010
1000
0100
0010
,  // measure 91
0000
0001
0100
0010
0000
1100
0000
1001
,  // measure 92
0000
0010
0100
0001
0010
0000
0001
1000
,  // measure 93
0010
0100
0001
0000
1000
0000
0100
0010
,  // measure 94
0001
0100
0010
0000
0001
0010
1000
0001
,  // measure 95
0000
0010
0001
1000
0000
0100
0010
0001
,  // measure 96
0000
1000
0100
1000
0001
1000
0000
0110
,  // measure 97
0000
0100
0001
1000
0000
0100
0010
0001
,  // measure 98
0000
0100
0010
0100
0101
0000
0000
1000
,  // measure 99
0000
1100
0000
0011
0000
0100
0000
1001
,  // measure 100
0000
0100
0000
0010
0000
0000
0000
0000
,  // measure 101
0000
1000
0000
0000
0000
0000
0000
0000
;

//---------------dance-single - ----------------
#NOTES:
     dance-single:
     :
     Easy:
     4:
     0.300,0.314,0.000,0.178,0.000: // measure 1
0000
0000
0000
0000
,  // measure 2
0000
0000
0000
0000
,  // measure 3
0000
0000
0000
0000
,  // measure 4
0000
0000
0000
0000
,  // measure 5
2000
0000
0000
0000
,  // measure 6
0000
0000
0000
0000
,  // measure 7
3002
0000
0000
0000
,  // measure 8
0000
0000
0000
0000
,  // measure 9
1003
0100
1000
0000
,  // measure 10
0001
0100
0001
0000
,  // measure 11
1000
0010
1000
0000
,  // measure 12
0001
0010
0001
0000
,  // measure 13
1000
0010
0100
0000
,  // measure 14
0001
0010
0100
0000
,  // measure 15
1000
0001
0100
0000
,  // measure 16
0001
1000
0010
0000
,  // measure 17
1000
0100
0010
0100
,  // measure 18
2000
0000
3001
0000
,  // measure 19
1000
0010
0100
0010
,  // measure 20
2000
0000
3100
0000
,  // measure 21
0010
0001
0100
0010
,  // measure 22
0100
0000
0001
0000
,  // measure 23
1000
0000
0100
1000
,  // measure 24
0010
0000
0100
0000
,  // measure 25
0001
0010
0100
1000
,  // measure 26
0010
0100
0001
0000
,  // measure 27
1000
0100
0010
0001
,  // measure 28
0100
0010
1000
0000
,  // measure 29
0001
0010
0100
0010
,  // measure 30
0100
1000
0010
0000
,  // measure 31
0100
0001
1000
0000
,  // measure 32
0100
1000
0001
0000
,  // measure 33
2000
0000
3020
0000
,  // measure 34
0230
0000
0302
0000
,  // measure 35
2003
0100
3100
0010
,  // measure 36
0001
0000
0000
0000
,  // measure 37
0200
0000
0320
0000
,  // measure 38
2030
0000
3002
0000
,  // measure 39
0023
0100
0130
1000
,  // measure 40
0001
0000
0000
0000
,  // measure 41
0000
0000
1000
0001
,  // measure 42
1000
0100
1000
0010
,  // measure 43
0100
0000
0001
0010
,  // measure 44
0100
0010
0001
0000
,  // measure 45
1000
0000
0020
0000
,  // measure 46
0000
0130
0002
0000
,  // measure 47
0000
0013
0100
1000
,  // measure 48
0001
1000
0100
1000
,  // measure 49
0010
0000
0100
0001
,  // measure 50
1000
0100
1000
0001
,  // measure 51
0100
0001
1000
0010
,  // measure 52
0100
0001
1000
0000
,  // measure 53
0100
0000
2000
0010
,  // measure 54
3010
0000
0200
0001
,  // measure 55
0301
0000
1000
0100
,  // measure 56
0010
0001
0100
0010
,  // measure 57
0100
0001
1000
0000
,  // measure 58
0001
0000
0010
0100
,  // measure 59
1000
0000
0010
0000
,  // measure 60
0100
0000
0001
1000
,  // measure 61
0001
1000
0100
0000
,  // measure 62
1000
0000
0010
0100
,  // measure 63
0001
0100
0010
0010
,  // measure 64
1000
1000
0100
0100
,  // measure 65
1000
0000
0001
0010
,  // measure 66
0100
1000
0001
0100
,  // measure 67
0010
1000
0001
0000
,  // measure 68
1000
0000
0010
0100
,  // measure 69
0001
0100
0010
0000
,  // measure 70
1000
0000
0100
0010
,  // measure 71
0001
0000
0200
0010
,  // measure 72
0310
1000
0001
1000
,  // measure 73
0001
0000
0020
0100
,  // measure 74
0130
1000
0001
0000
,  // measure 75
0000
0000
2000
0010
,  // measure 76
3010
0100
0001
1000
,  // measure 77
0100
0000
1000
0010
,  // measure 78
0100
0010
1000
0000
,  // measure 79
0000
0000
0001
0000
,  // measure 80
0000
0000
0001
0010
,  // measure 81
0100
1000
0001
1000
,  // measure 82
0010
0000
0100
0001
,  // measure 83
1000
0100
1000
0000
,  // measure 84
0010
0000
0200
0001
,  // measure 85
0301
0000
2000
0100
,  // measure 86
3100
0000
1000
0010
,  // measure 87
0100
0010
1000
0100
,  // measure 88
0010
0000
0001
0100
,  // measure 89
0010
0100
0001
0010
,  // measure 90
0100
1000
0010
0100
,  // measure 91
0001
1000
0001
0000
,  // measure 92
0000
1000
0200
1000
,  // measure 93
1300
0010
0200
0001
,  // measure 94
0301
0000
0010
0100
,  // measure 95
0010
0001
0100
0010
,  // measure 96
0100
0000
0001
1000
,  // measure 97
0100
1000
0001
0100
,  // measure 98
0010
0000
1000
0000
,  // measure 99
0000
0001
0000
1000
0000
0000
0000
0001
,  // measure 100
0000
0000
0000
0000
,  // measure 101
0000
0200
0000
0000
0000
0000
0000
0000
,  // measure 102
0000
0000
0000
0000
0000
0300
0000
0000
;

//---------------dance-single - ----------------
#NOTES:
     dance-single:
     :
     Medium:
     6:
     0.394,0.412,0.082,0.000,0.000: // measure 1
0000
0000
0000
0000
,  // measure 2
0000
0000
0000
0000
,  // measure 3
0000
0000
0000
0000
,  // measure 4
0000
0000
0000
0000
,  // measure 5
1000
0000
0000
0001
0000
0000
1000
0100
,  // measure 6
0000
0000
1000
0010
0000
0010
0100
0000
,  // measure 7
0001
0000
0000
1000
0000
0000
0001
0100
,  // measure 8
0000
0000
0010
1000
0000
1000
0001
0000
,  // measure 9
1000
0000
0010
0000
0100
0000
0000
0001
,  // measure 10
0000
0010
0000
0100
0000
1000
0001
0000
,  // measure 11
1000
0000
0100
0000
0010
0000
0000
0100
,  // measure 12
0000
1000
0000
0010
0000
0100
0001
0000
,  // measure 13
1000
0000
0010
0000
0100
0000
0000
0010
,  // measure 14
0000
1000
0000
0001
0000
0001
1000
0000
,  // measure 15
0100
0000
1000
0000
0010
0000
0100
0001
,  // measure 16
0000
1000
0000
1001
0000
0000
0000
0000
,  // measure 17
1000
0100
0010
0001
,  // measure 18
0100
0000
0000
0010
0000
1000
0000
0000
,  // measure 19
0100
0010
0001
0100
,  // measure 20
0010
0000
0000
1000
0000
0000
0001
0000
,  // measure 21
0100
0010
1000
0100
,  // measure 22
1000
0000
0000
0010
0000
0000
0100
0000
,  // measure 23
0001
0000
0000
1000
0000
0000
0100
0000
,  // measure 24
1000
0010
0100
0001
,  // measure 25
1000
0000
0100
0000
1000
0000
0010
0100
,  // measure 26
0000
0001
0000
1000
0000
0100
1000
0000
,  // measure 27
0001
0000
0010
0000
0100
0000
1000
0010
,  // measure 28
0000
0100
0000
0001
0000
1000
0001
0000
,  // measure 29
1000
0100
1000
0010
,  // measure 30
0100
0000
0001
0100
0000
0001
0000
0000
,  // measure 31
1001
0000
0100
1000
0000
0001
0000
0000
,  // measure 32
1100
0000
0001
0100
0000
0010
0000
0000
,  // measure 33
1000
0000
0100
0000
1000
0000
0010
0100
,  // measure 34
0000
0001
0000
0101
0000
0001
0010
0000
,  // measure 35
0100
0000
0100
0000
1000
0000
0001
1000
,  // measure 36
0000
0010
0000
0100
0000
0001
1000
0000
,  // measure 37
0100
0000
0010
0000
0010
0000
0001
0100
,  // measure 38
0000
0010
0000
1010
0000
1000
0100
0000
,  // measure 39
1000
0000
0001
0000
1000
0000
1000
0001
,  // measure 40
0000
1000
0000
0001
0000
1000
0000
0000
,  // measure 41
0000
0000
0000
0000
0001
0000
0000
0100
,  // measure 42
0000
0010
0000
1000
0000
0100
0000
1000
,  // measure 43
0000
0001
1000
0000
0010
0000
0100
0001
,  // measure 44
0000
1000
0000
0100
0000
1000
0000
0001
,  // measure 45
0000
1000
0001
0000
1000
0000
0010
0000
,  // measure 46
0100
0000
0010
0000
1000
0000
0100
0010
,  // measure 47
0000
0010
0100
0000
1000
0010
0000
0100
,  // measure 48
0000
0001
0000
1000
0000
0100
0000
1000
,  // measure 49
0000
0001
1000
0000
0001
0010
0000
0100
,  // measure 50
0000
1000
0000
0010
0000
0100
0000
0010
,  // measure 51
0000
0100
0001
0000
1000
0000
0100
1000
,  // measure 52
0000
0010
0000
0100
0000
0001
0000
1000
,  // measure 53
0000
0001
1000
0000
0100
0000
0010
0000
,  // measure 54
0001
0100
0010
0100
,  // measure 55
0001
0000
0000
0000
1000
0100
0000
1000
,  // measure 56
0000
0010
0000
0100
0000
0010
0000
1000
,  // measure 57
0000
0100
0000
0010
0001
0000
0100
0000
,  // measure 58
0010
0000
0000
0100
0000
0001
0000
1000
,  // measure 59
0000
0001
1000
0000
0100
0000
0010
0000
,  // measure 60
0001
0000
0000
0100
0000
0010
0000
1000
,  // measure 61
0000
0001
1000
0000
1001
0000
0000
0010
,  // measure 62
0000
0100
0000
0001
0000
1000
0100
0000
,  // measure 63
1000
0000
0001
0100
0000
0010
0000
1000
,  // measure 64
0000
0100
1000
0100
0000
1000
0001
0000
,  // measure 65
0110
0000
0001
0010
0000
0100
0000
1000
,  // measure 66
0000
0001
0000
0010
0000
0100
0000
1000
,  // measure 67
0000
0010
0100
0000
1001
0000
0100
0000
,  // measure 68
0010
0000
0100
1000
0000
0001
0000
0100
,  // measure 69
0000
0010
0000
1000
0100
0000
0010
0000
,  // measure 70
0001
0000
0100
0010
0000
1000
0000
0001
,  // measure 71
0000
0000
1000
0100
,  // measure 72
1000
0000
0010
0100
0000
0001
0000
1000
,  // measure 73
0000
0001
1000
0000
0100
0000
0100
0000
,  // measure 74
0010
0000
0001
0100
0000
0010
0000
1000
,  // measure 75
0000
0100
0010
0000
0100
0000
1000
0000
,  // measure 76
0001
0000
0100
0001
0000
1000
0000
1100
,  // measure 77
0000
0001
0010
0000
0100
0000
1000
0000
,  // measure 78
0010
0000
0100
0001
0000
1000
0000
0100
,  // measure 79
0000
1000
0001
1000
0001
0000
0000
0010
,  // measure 80
0000
0000
0100
0000
1000
0000
0000
0001
,  // measure 81
0000
0100
0000
0010
0000
0100
0000
0001
,  // measure 82
0000
1000
0001
0000
0010
0000
0000
0100
,  // measure 83
0000
0100
0000
1000
0000
1000
0000
0010
,  // measure 84
0000
0010
0100
0000
0001
0000
1000
0000
,  // measure 85
0100
0000
1000
0000
0001
0000
1000
0001
,  // measure 86
0000
0001
1000
0000
0010
0100
0000
0001
,  // measure 87
0000
0010
0000
0100
0000
1000
0000
0001
,  // measure 88
0000
1000
0001
0000
1000
0000
0000
0100
,  // measure 89
0000
0010
0000
0001
0000
0100
0000
0010
,  // measure 90
0000
1000
0000
0000
0001
0000
0000
1000
,  // measure 91
0000
0001
0000
1000
0000
0100
0000
1000
,  // measure 92
0000
0010
0100
0000
0001
0000
1000
0000
,  // measure 93
0100
0000
1000
0001
,  // measure 94
0010
0000
0000
0000
0110
0000
0000
1000
,  // measure 95
0000
0010
0000
0100
0000
0010
0000
1000
,  // measure 96
0000
0000
0001
0000
1001
0000
0000
0100
,  // measure 97
0000
0010
0000
0001
0000
0010
0000
0100
,  // measure 98
0000
0000
1000
0000
1001
0000
0000
0010
,  // measure 99
0000
0100
0000
0001
0000
1000
0000
0100
,  // measure 100
0000
1000
0000
0001
0000
0000
0000
0000
,  // measure 101
0000
1000
0000
0000
0000
0000
0000
0000
;

//---------------dance-single - ----------------
#NOTES:
     dance-single:
     :
     Beginner:
     2:
     0.152,0.206,0.000,0.000,0.000: // measure 1
0000
0000
0000
0000
,  // measure 2
0000
0000
0000
0000
,  // measure 3
0000
0000
0000
0000
,  // measure 4
0000
0000
0000
0000
,  // measure 5
1000
0000
0000
0000
,  // measure 6
0000
0000
0000
0000
,  // measure 7
0001
0000
0000
0000
,  // measure 8
0000
0000
0000
0000
,  // measure 9
1000
0000
0100
0000
,  // measure 10
1000
0000
0010
0000
,  // measure 11
0100
0000
0001
0000
,  // measure 12
0010
0000
0100
0000
,  // measure 13
1000
0000
0010
0000
,  // measure 14
0100
0000
0010
0000
,  // measure 15
1000
0000
0100
0000
,  // measure 16
0010
0000
0001
0000
,  // measure 17
1000
0000
0000
0000
,  // measure 18
0010
0000
0100
0000
,  // measure 19
0001
0000
0000
0000
,  // measure 20
0010
0000
0100
0000
,  // measure 21
1000
0000
0000
0000
,  // measure 22
0001
0000
1000
0000
,  // measure 23
0001
0000
0000
0000
,  // measure 24
1000
0000
0100
0000
,  // measure 25
1000
0000
0000
0000
,  // measure 26
0010
0000
0000
0000
,  // measure 27
0100
0000
0000
0000
,  // measure 28
0001
0000
0000
0000
,  // measure 29
1000
0000
0000
0000
,  // measure 30
0100
0000
0000
0000
,  // measure 31
1000
0000
0010
0000
,  // measure 32
0100
0000
0001
0000
,  // measure 33
1000
0000
0000
0000
,  // measure 34
0001
0001
0001
0000
,  // measure 35
1000
0000
0100
0000
,  // measure 36
1000
0000
0010
0000
,  // measure 37
0100
0000
0000
0000
,  // measure 38
0001
0001
0001
0000
,  // measure 39
0010
0000
0100
0000
,  // measure 40
1000
0000
0010
0000
,  // measure 41
0000
0000
0100
0000
,  // measure 42
0001
0000
1000
0000
,  // measure 43
0100
0000
1000
0000
,  // measure 44
0010
0000
0100
0000
,  // measure 45
0000
0000
0001
0000
,  // measure 46
0010
0000
0100
0000
,  // measure 47
1000
0000
0010
0000
,  // measure 48
0100
0000
0010
0000
,  // measure 49
1000
0000
0100
0000
,  // measure 50
1000
0000
0010
0000
,  // measure 51
0100
0000
0001
0000
,  // measure 52
0010
0000
0100
0000
,  // measure 53
0000
0000
0010
0000
,  // measure 54
0001
0000
0100
0000
,  // measure 55
0010
0000
1000
0000
,  // measure 56
0001
0000
1000
0000
,  // measure 57
0100
0000
1000
0000
,  // measure 58
0000
0000
0000
0000
,  // measure 59
0000
0000
0010
0000
,  // measure 60
0000
0000
0000
0000
,  // measure 61
0000
0000
0100
0000
,  // measure 62
0001
0000
1000
0000
,  // measure 63
0100
0000
1000
1000
,  // measure 64
0000
0001
0001
0000
,  // measure 65
0001
0000
1000
0000
,  // measure 66
0010
0000
0100
0000
,  // measure 67
0001
0000
0010
0000
,  // measure 68
0000
0000
0000
0000
,  // measure 69
0100
0000
1000
0000
,  // measure 70
0000
0000
0010
0000
,  // measure 71
0100
0000
0001
0000
,  // measure 72
0000
0000
1000
1000
,  // measure 73
1000
0000
0001
0000
,  // measure 74
0000
0000
0010
0010
,  // measure 75
0010
0000
0100
0000
,  // measure 76
0000
0000
1000
1000
,  // measure 77
1000
0000
0010
0000
,  // measure 78
0100
0000
0001
0000
,  // measure 79
0000
0000
1000
0000
,  // measure 80
0000
0000
0001
0000
,  // measure 81
1000
0000
0100
0000
,  // measure 82
0010
0000
0001
0000
,  // measure 83
0100
0000
0010
0000
,  // measure 84
1000
0000
0100
0000
,  // measure 85
0000
0000
1000
0000
,  // measure 86
0000
0000
0001
0000
,  // measure 87
0100
0000
0010
0000
,  // measure 88
1000
0000
0100
0000
,  // measure 89
0010
0000
0001
0000
,  // measure 90
0100
0000
0010
0000
,  // measure 91
0010
0000
1000
0000
,  // measure 92
0000
0000
0001
0000
,  // measure 93
0010
0000
0100
0000
,  // measure 94
1000
0000
0010
0000
,  // measure 95
0000
0000
0100
0000
,  // measure 96
0001
0000
1000
0000
,  // measure 97
0000
0000
0100
0000
,  // measure 98
1000
0000
0010
0000
,  // measure 99
0000
0000
0000
0000
,  // measure 100
0000
0000
0000
0000
,  // measure 101
0000
0100
0000
0000
;
