#TITLE:どんなときも。;
#SUBTITLE:;
#ARTIST:槇原敬之;
#TITLETRANSLIT:Donnatokimo;
#SUBTITLETRANSLIT:;
#ARTISTTRANSLIT:Noriyuki Makihara;
#CREDIT:Xythar;
#BANNER:Donnatokimo.png;
#BACKGROUND:Donnatokimo-bg.png;
#LYRICSPATH:;
#CDTITLE:blank.png;
#MUSIC:Donnatokimo.mp3;
#OFFSET:-14.095;
#SAMPLESTART:81.904;
#SAMPLELENGTH:12.000;
#SELECTABLE:YES;
#BPMS:0.000=123.800;
#STOPS:;
#BGCHANGES:;

//---------------dance-single - ----------------
#NOTES:
     dance-single:
     :
     Hard:
     5:
     0.338,0.347,0.090,0.082,0.000:
0000
0000
0000
0000
,
1000
0100
1000
0001
0000
0100
0000
0010
,
0100
0001
0100
0001
0000
0010
0000
0100
,
1000
0100
1000
0010
0000
0100
0000
0001
,
0000
0010
0100
0010
0000
0001
1000
0000
,
0100
1000
0100
0010
0000
0001
0000
0100
,
0010
0100
0010
1000
0000
0001
0000
1000
,
0010
0100
0010
0100
0000
0001
0000
1000
,
0000
0100
0010
0001
0000
0010
0100
0000
,
1100
0000
0110
0000
0001
1000
1001
0000
,
1000
0000
0100
0000
1000
0000
0010
0100
,
0010
0000
0100
0001
0001
0000
1000
0000
,
0100
0000
0010
0000
0001
0000
1000
0010
,
0000
0100
0001
1000
0000
0100
0100
0000
,
0010
0000
0001
0100
0020
0000
0000
0130
,
0001
0000
1000
0000
0100
0000
0100
1000
,
0010
0000
0100
0001
0000
0010
0000
0100
,
0020
0001
0031
0100
,
0020
0000
0100
0000
0130
0000
0001
0100
,
0001
0000
1000
0100
0000
0010
0000
0100
,
0020
0000
0001
0000
0031
0000
0000
1000
,
0010
0000
0100
0001
0000
1000
0100
0000
,
0010
0000
0001
1000
0100
0000
0000
0100
,
1000
0000
0001
0100
0010
0000
0000
0100
,
0001
0100
0010
0100
0010
0000
1000
0100
,
0010
0000
0001
0000
1000
0000
0000
0100
,
1000
0000
0010
0000
0100
0000
0001
0001
,
1000
0000
0010
0100
0010
0000
0000
0100
,
0001
0000
1000
0100
1000
0000
0001
0000
,
0200
0010
0310
0100
,
0001
0000
1000
0100
0000
0100
1000
0000
,
0010
0000
0100
0001
0000
0001
0001
0100
,
0010
1000
0100
0010
,
0002
1000
1003
0100
,
1010
0000
0110
0000
0100
0001
1001
0000
,
1100
0000
0010
0001
0010
0000
0100
0000
,
1010
0000
0100
0001
0100
0000
0010
0000
,
1000
0100
0010
0000
0001
0100
0010
0000
,
0200
0001
0301
1000
,
0200
0000
0010
0000
0310
0001
1000
0000
,
0020
0000
0100
0000
0130
0000
0000
0001
,
1000
0000
0100
1000
0001
0000
0000
0100
,
0010
0000
1000
0010
1000
0001
0000
0000
,
1001
0000
0100
0010
0100
0000
1000
0000
,
0110
0000
0100
0001
0100
0000
0001
0000
,
0010
0100
1000
0000
0100
0010
0001
0000
,
0100
0000
0010
1000
0010
0000
1000
0000
,
0200
0000
0010
0000
0310
0000
0001
0100
,
0020
0000
0100
0000
0130
0000
0001
1000
,
0100
1000
0001
0000
0100
0000
0010
0000
,
1010
0000
0100
0001
0000
1000
0100
1000
,
0100
0000
0010
0001
0000
0100
0010
0000
,
0100
0001
0100
0001
0000
1000
0000
0100
,
0000
1000
0100
1000
0000
0001
1000
0000
,
1001
0000
0010
0100
0000
0001
0100
0001
,
0100
0000
0010
1000
0000
0100
1000
0000
,
0001
0010
0100
1000
0000
0010
0000
0100
,
0000
0001
1000
0100
0000
1000
0100
1000
,
0001
0000
0000
0000
;

//---------------dance-single - ----------------
#NOTES:
     dance-single:
     :
     Medium:
     3:
     0.221,0.238,0.015,0.000,0.000:
0000
0000
0000
0000
,
0001
0000
0000
1000
0000
0000
0000
0000
,
0001
0000
0000
0100
0000
0000
0000
0000
,
0010
0000
0000
1000
0000
0100
0000
0010
,
0000
0000
0000
0001
0000
0000
0000
0000
,
1000
0000
0000
0010
0000
0000
0000
0000
,
0100
0000
0000
0001
0000
0000
0000
0000
,
1000
0000
0000
0010
0000
0100
0000
0010
,
0000
0000
0000
0100
0000
0000
0000
0000
,
0001
0001
1000
1001
,
0001
0000
0100
0000
0010
0000
0100
0001
,
0100
0001
1000
0000
,
0100
0000
0010
0000
0100
0000
0010
0001
,
0000
0000
1000
0001
0000
0000
0100
0000
,
0010
0000
1000
0010
1000
0000
0000
0000
,
0001
0000
0000
1000
0001
0000
0000
1000
,
0100
0000
0100
1000
0000
0010
0000
0100
,
0001
0000
1000
0000
,
0100
0000
0010
0000
0100
0000
1000
0100
,
1000
0001
0100
0000
,
0001
0000
0010
0000
0100
0000
0000
1000
,
0010
0000
0100
0001
0000
0000
1000
0000
,
0100
0000
0010
0100
0010
0000
0001
0000
,
1000
0000
0010
0100
0010
0000
0100
0000
,
0001
1000
0100
1000
,
0001
0000
0000
0100
0010
0000
0000
0100
,
0001
1000
0100
0010
,
0100
0000
1000
0010
1000
0000
0000
0001
,
0100
0010
1000
0001
,
1000
0000
0000
0010
,
0100
0000
0001
0100
0000
0000
0001
0000
,
1000
0000
0100
0010
0000
0000
0100
0000
,
0010
0001
1000
0010
,
0100
0000
0000
0001
,
1000
1000
0001
1001
,
1000
0000
0010
0100
0010
0000
0100
0000
,
0001
0000
0010
0100
0010
0000
0100
0000
,
1000
0010
0100
0001
,
1000
0000
0001
1000
0001
0000
0000
0000
,
1000
0000
0010
0000
0100
0001
0100
0000
,
0001
0010
0100
0000
,
1000
0010
0100
0000
,
0001
1000
0100
0000
,
1000
0000
0001
1000
0001
0000
0100
0000
,
0010
0000
1000
0001
1000
0000
0100
0000
,
0010
0001
0100
0010
,
1000
0000
0010
0100
0010
0000
0000
0000
,
0100
0000
0001
0000
1000
0000
0100
1000
,
0100
0000
0010
0000
0001
0000
1000
0001
,
1000
0010
0100
0001
,
1000
0000
0000
0100
0000
0000
0000
0000
,
1000
0000
0000
0010
0000
0000
0000
0000
,
0100
0000
0001
1000
0000
0100
0000
1000
,
0000
0000
0000
0010
0000
0000
0000
0000
,
0100
0000
0000
0001
0000
0000
0000
0000
,
0100
0000
0000
0010
0000
0000
0000
0000
,
1000
0000
0100
0010
0000
0001
0000
1000
,
0000
0000
0000
0010
0000
0000
0000
0000
,
0100
0000
0000
0000
;

//---------------dance-single - ----------------
#NOTES:
     dance-single:
     :
     Easy:
     1:
     0.121,0.173,0.015,0.000,0.000:
0000
0000
0000
0000
,
1000
0000
1000
0000
,
0001
0000
0001
0000
,
1000
0000
0100
0000
,
0010
0000
0001
0000
,
1000
0000
1000
0000
,
0001
0000
0001
0000
,
1000
0000
0010
0000
,
0100
0000
0010
0000
,
1000
1000
0000
1001
,
0000
0000
0010
0000
,
0100
0000
0000
0000
,
0001
0000
1000
0000
,
0001
0000
0000
0000
,
0010
0000
0100
0000
,
1000
0000
0010
0000
,
0100
0000
0001
0000
,
1000
0000
0000
0000
,
0001
0000
0010
0000
,
0100
0000
0000
0000
,
1000
0000
0010
0000
,
0100
0000
0000
0000
,
0001
0000
1000
0000
,
0001
0000
0100
0000
,
0010
0000
1000
0000
,
0100
0000
0010
0000
,
0001
0000
0000
0000
,
1000
0000
0000
0000
,
0010
0000
0100
0000
,
0010
0000
0000
1000
,
1000
0000
0001
0000
,
1000
0000
0010
0000
,
0100
0000
0000
0000
,
0001
0000
0000
0000
,
1000
1000
0000
1001
,
0001
1000
0001
0000
,
1000
0001
1000
0000
,
0010
0000
0100
0000
,
0001
0000
1000
0000
,
0100
0000
1000
0000
,
0010
0000
0100
0000
,
0001
0000
0010
0000
,
0100
0000
1000
0000
,
0001
1000
0001
0000
,
0100
0010
0100
0000
,
0001
0000
0010
0000
,
0100
0000
1000
0000
,
0010
0000
0100
0000
,
0010
0000
1000
0000
,
0001
0000
0010
0000
,
0100
0000
0100
0000
,
0010
0000
0010
0000
,
0001
0000
1000
0000
,
0010
0000
0100
0000
,
0010
0000
0010
0000
,
0100
0000
0100
0000
,
0001
0000
0010
0000
,
0100
0000
1000
0000
,
0001
0000
0000
0000
;
