#TITLE:Der Wald;
#SUBTITLE:;
#ARTIST:Elehamonika;
#TITLETRANSLIT:;
#SUBTITLETRANSLIT:;
#ARTISTTRANSLIT:;
#CREDIT:Xythar;
#BANNER:Der Wald.PNG;
#BACKGROUND:Der Wald-bg.PNG;
#LYRICSPATH:Der Wald.lrc;
#CDTITLE:blank.png;
#MUSIC:Der Wald.mp3;
#OFFSET:1.029;
#SAMPLESTART:61.910;
#SAMPLELENGTH:12.000;
#SELECTABLE:YES;
#BPMS:0.000=80.005;
#STOPS:;
#BGCHANGES:;

//---------------dance-single - ----------------
#NOTES:
     dance-single:
     :
     Hard:
     5:
     0.339,0.295,0.093,0.160,0.004: // measure 1
0000
0000
0000
0000
,  // measure 2
1000
0001
1000
0010
1000
0001
0100
0000
,  // measure 3
0001
0010
0100
0010
0001
1000
0001
0000
,  // measure 4
0100
0010
1000
0010
0100
0001
1000
0000
,  // measure 5
0001
0010
0100
1000
0001
1000
0001
0000
,  // measure 6
1000
0010
0100
0010
1000
0100
0010
0000
,  // measure 7
0100
0010
0001
0100
0010
0100
0001
0000
,  // measure 8
1000
0010
0100
0001
0010
0100
1000
0000
,  // measure 9
0001
0100
0010
1000
0100
0010
0001
0000
,  // measure 10
2000
0000
3010
0100
0001
0100
0020
0000
,  // measure 11
1000
0000
1030
0100
0010
0100
1000
0010
,  // measure 12
0200
0000
0001
0000
0301
0000
1000
0010
,  // measure 13
0100
0001
2000
0000
0010
0000
3100
0010
,  // measure 14
0002
0000
0103
1000
0100
0001
2000
0000
,  // measure 15
0010
0000
3100
0010
0001
0100
0010
0100
,  // measure 16
0002
0000
1000
0000
0013
0000
0100
1000
,  // measure 17
0010
0000
0100
0001
1000
0100
0010
0001
,  // measure 18
1000
0000
1001
0000
0001
0100
0010
0100
,  // measure 19
0001
0000
0101
0000
1000
0010
0100
0010
,  // measure 20
1000
0000
1010
0000
0001
0010
0100
1000
,  // measure 21
0100
0000
1100
0000
1000
0100
0010
0001
,  // measure 22
0010
0001
0011
0001
0100
0010
0100
0001
,  // measure 23
1000
0001
0010
0100
1000
0010
0100
0010
,  // measure 24
0100
0001
1000
0100
0001
0100
1000
0010
,  // measure 25
0100
0001
1000
0100
0010
0001
0100
0010
,  // measure 26
1000
0001
0101
0100
0010
0100
0001
1000
,  // measure 27
0001
0010
0100
0010
0001
1000
0010
0100
,  // measure 28
1000
0100
0001
0010
1000
0010
0001
1000
,  // measure 29
0010
0100
0001
1000
0001
0010
0100
1000
,  // measure 30
0020
0000
0130
0001
2000
0000
0100
0000
,  // measure 31
3010
0000
0102
0000
1003
0000
2100
0010
,  // measure 32
3010
0000
0100
0000
0002
0000
0000
0000
0013
0000
0000
0000
0100
0000
1000
0100
,  // measure 33
1000
0001
0100
0000
0010
0000
2000
0000
,  // measure 34
3200
0000
0320
0000
0032
0000
1003
0010
,  // measure 35
0100
0001
0020
0230
,  // measure 36
2300
0000
3010
0100
0001
0000
1000
0100
,  // measure 37
0010
0000
0001
0100
0010
0000
1010
0000
,  // measure 38
1000
0100
0010
0001
0100
0010
0100
0001
,  // measure 39
1000
0010
0100
0001
1000
0001
1001
1001
;

//---------------dance-single - ----------------
#NOTES:
     dance-single:
     :
     Medium:
     3:
     0.227,0.213,0.051,0.101,0.000:
0000
0000
0000
0000
,
1000
0000
0001
0000
1000
0001
1000
0000
,
0010
0000
0100
0000
0001
0100
0001
0000
,
1000
0000
0100
0000
0010
0001
0010
0000
,
0100
0000
1000
0000
0010
0100
0010
0000
,
0100
0000
0001
0000
1000
0001
1000
0000
,
0010
0000
0100
0000
0001
0100
0001
0000
,
1000
0000
0100
0000
0010
0001
0010
0000
,
0100
0000
1000
0000
0010
0100
0010
0000
,
1000
0000
0001
1000
0001
0000
0020
0000
,
0100
0000
0130
0000
1000
0100
1000
0000
,
0001
0101
0010
1000
,
0100
1000
0100
0000
1000
0000
0020
0000
,
0230
0000
0001
0000
0301
1000
0001
0000
,
1000
0000
0100
0000
0010
0100
0010
0000
,
0002
0000
2000
0000
3003
0000
0001
0100
,
0001
0000
1000
0000
0010
0100
0010
0000
,
0000
0101
0100
0010
,
0000
0110
0010
1000
,
0000
1010
1000
0001
,
0000
1001
1000
0100
,
0010
0001
0100
0010
,
0100
0001
1000
0100
,
0010
0001
0010
0100
,
1000
0000
0010
0000
0100
0001
0100
0001
,
1000
0100
0010
0001
,
1000
0010
0100
0001
,
1000
0001
0010
0100
,
1000
0000
0001
0000
0100
0010
0100
0010
,
2000
0000
0002
0000
,
3003
0020
0230
2300
,
3020
0000
0130
0000
0001
0000
0100
0001
,
1000
0000
0100
0000
0010
0000
0001
0010
,
0001
0000
1000
0000
0010
0000
0100
0001
,
0100
0010
2000
0100
,
3010
0000
0010
0100
0010
0000
0100
0000
,
0101
0001
0010
0100
,
1000
0000
0001
0000
0100
0010
0100
0000
,
0001
0000
0010
0000
0100
1000
0100
1000
;

//---------------dance-single - ----------------
#NOTES:
     dance-single:
     :
     Easy:
     1:
     0.151,0.147,0.000,0.160,0.000:
0000
0000
0000
0000
,
1000
0000
0010
0100
,
0010
0000
0100
0001
,
0100
0000
0010
1000
,
0010
0000
1000
0001
,
1000
0000
0100
0010
,
0100
0000
0010
0001
,
0010
0000
0100
1000
,
0100
0000
1000
0010
,
2000
0000
0000
3001
,
0200
0000
0310
0100
,
0020
2030
0000
3000
,
0100
0020
0000
0031
,
0200
0000
0310
2000
,
0000
3000
0100
0010
,
0002
1003
0000
0010
,
0200
0000
0301
0010
,
0100
0000
0000
0000
,
1000
0001
0000
0000
,
0100
0010
0000
0000
,
0100
0001
0000
0000
,
1000
0001
1000
0001
,
1000
0010
1000
0010
,
0100
0010
0100
0010
,
0100
0001
0100
0001
,
1000
0001
1000
0001
,
1000
0100
1000
0100
,
0010
0100
0010
0100
,
0010
0001
0010
0001
,
2000
0000
0002
0000
,
3003
0020
0000
0230
,
0000
0000
0000
0320
,
0032
0000
0003
1000
,
0010
0000
0100
0000
,
0001
0000
2000
3200
,
0320
0000
0000
0000
,
0032
0000
0000
0000
,
1003
0100
0010
0001
,
1000
0010
0100
0001
;
