#TITLE:Daydream Syndrome;
#SUBTITLE:;
#ARTIST:void(IOSYS) feat. 藤原鞠菜;
#TITLETRANSLIT:;
#SUBTITLETRANSLIT:;
#ARTISTTRANSLIT:void(IOSYS) feat. Marina Fujiwara;
#CREDIT:Xythar;
#BANNER:Daydream Syndrome.png;
#BACKGROUND:Daydream Syndrome-bg.png;
#LYRICSPATH:Daydream Syndrome.lrc;
#CDTITLE:cdtitle.png;
#MUSIC:Daydream Syndrome.ogg;
#OFFSET:-0.612;
#SAMPLESTART:55.940;
#SAMPLELENGTH:24.120;
#SELECTABLE:YES;
#BPMS:0.000=206.000,120.000=103.000,128.000=206.000,144.000=103.000,152.000=206.000;
#STOPS:;
#BGCHANGES:;

//---------------dance-single - ----------------
#NOTES:
     dance-single:
     :
     Hard:
     9:
     0.700,0.687,0.319,0.067,0.015: // measure 1
0000
0000
0000
0000
,  // measure 2
0000
0000
0000
0000
,  // measure 3
1000
0001
1000
0001
0000
0000
1000
0010
,  // measure 4
1000
0010
0000
0000
0100
0001
0100
0001
,  // measure 5
1000
0001
1000
0001
0000
0000
1000
0100
,  // measure 6
1000
0100
0000
0000
0010
0001
0000
0000
,  // measure 7
1100
0000
0001
0000
0100
0010
1000
0010
,  // measure 8
0000
0100
0001
0000
0010
0100
1000
0100
,  // measure 9
0010
0000
0001
0000
0100
0010
1000
0010
,  // measure 10
0000
0100
0001
0000
1000
0100
0010
0100
,  // measure 11
1000
0000
0101
0000
0010
1000
0001
1000
,  // measure 12
0000
0100
0010
0000
0001
0100
0010
0100
,  // measure 13
0001
1000
0000
0001
0010
0000
0100
2000
,  // measure 14
0000
0001
0001
3001
,  // measure 15
2000
0000
0000
0010
0000
0001
0000
3100
,  // measure 16
0000
0000
0010
0001
,  // measure 17
0200
0000
0000
1000
0000
0010
0000
0301
,  // measure 18
0000
0000
0010
0100
,  // measure 19
0020
0000
0000
1000
0000
0100
0000
0031
,  // measure 20
0000
0000
1000
0010
,  // measure 21
0200
0000
1300
0100
,  // measure 22
0002
0000
0013
0100
,  // measure 23
1000
0001
0010
0001
1000
0000
0001
0100
,  // measure 24
0010
0100
0001
0000
1000
0100
0010
0100
,  // measure 25
1000
0010
0100
0001
0100
0000
0010
1000
,  // measure 26
0001
1000
0010
0000
0100
0001
1000
0001
,  // measure 27
0100
0010
1000
0100
0010
0000
0100
1000
,  // measure 28
0001
1000
0010
0000
0100
0001
1000
0000
,  // measure 29
0110
0000
0001
0100
0000
0010
1000
0000
,  // measure 30
0001
0010
0100
1000
0001
0100
0010
1000
,  // measure 31
0001
0100
0010
1000
,  // measure 32
0200
0000
0000
0000
0000
0000
0000
0000
0310
0000
0000
0000
0001
0100
0000
1010
,  // measure 33
0000
0001
0010
0000
0100
1000
0000
1001
,  // measure 34
0000
0001
0100
0000
0010
0100
0000
1001
,  // measure 35
0000
0001
0100
0000
0010
1000
0001
0000
,  // measure 36
1000
0100
1000
0001
1000
0010
1000
0001
,  // measure 37
1000
0010
0100
0001
,  // measure 38
2000
0000
0000
0000
0000
0000
0000
0000
3100
0000
0000
0000
0010
0001
0000
1100
,  // measure 39
0000
0001
0100
0000
0010
0100
0000
1001
,  // measure 40
0000
1000
0100
0000
1000
0010
0000
0101
,  // measure 41
0000
0010
1000
0000
0001
0010
0100
0000
,  // measure 42
1000
0010
0100
0010
1000
0100
0010
0000
,  // measure 43
1100
0011
0101
1010
,  // measure 44
0001
1000
0001
0000
1000
0100
0000
1001
,  // measure 45
0000
0001
0100
0010
0100
0001
1000
0100
,  // measure 46
0000
1000
0010
0100
0010
1000
0001
0010
,  // measure 47
0100
0000
1000
0000
0010
0100
0001
1000
,  // measure 48
0000
0001
0100
0010
1000
0001
0000
1100
,  // measure 49
0000
0001
0100
0000
0010
1000
0001
1000
,  // measure 50
0000
0100
0010
0000
0001
0100
0010
0000
,  // measure 51
1100
0000
0101
0000
0010
1000
0001
1000
,  // measure 52
0000
0100
0010
0000
0001
0100
0000
1010
,  // measure 53
0000
0001
0010
0001
1000
0010
1000
0001
,  // measure 54
0000
1000
0100
1000
0001
0100
0010
1000
,  // measure 55
0001
0000
1100
0000
0001
0100
0010
1000
,  // measure 56
0000
0001
0010
0100
1000
0010
0000
0101
,  // measure 57
0000
0010
1000
0000
0001
0010
0100
1000
,  // measure 58
0000
0010
0100
0001
1000
0100
1000
0001
,  // measure 59
0100
0000
0010
0000
1000
0100
0010
0001
,  // measure 60
0000
1000
0010
1000
0001
0000
1000
0100
,  // measure 61
0010
0000
0001
0100
0000
0010
1000
0000
,  // measure 62
0001
0010
0000
0100
1000
0001
1000
0010
,  // measure 63
0100
0000
0001
0010
0000
0100
1000
0000
,  // measure 64
0001
0100
0000
0000
0010
1000
0010
0000
,  // measure 65
1000
0100
1000
0001
1000
0010
0100
0010
,  // measure 66
0000
1000
0100
1000
0001
0100
0010
0000
,  // measure 67
1100
0000
0101
0000
0001
0100
0010
1000
,  // measure 68
0000
0001
0010
0001
1000
0010
1000
0000
,  // measure 69
0001
0100
0010
1000
0100
1000
0001
0100
,  // measure 70
0000
0010
1000
0001
1000
0010
1000
0000
,  // measure 71
0011
0000
1100
0000
0001
0100
0010
1000
,  // measure 72
0000
0100
0010
0001
1000
0010
1000
0001
,  // measure 73
0100
0000
1010
0000
0001
0100
0010
1000
,  // measure 74
0000
0001
0010
0001
1000
0010
0100
0010
,  // measure 75
1000
0000
0100
0000
0010
0001
1000
0001
,  // measure 76
0000
1000
0010
1000
0001
0010
0001
0000
,  // measure 77
1000
0100
0010
0001
0100
0010
1000
0001
,  // measure 78
0010
0100
1000
0010
0100
0001
1000
0000
,  // measure 79
0101
0000
1100
0000
0001
0100
0010
1000
,  // measure 80
0001
0010
0100
1000
0010
0000
0000
1100
,  // measure 81
0000
0001
0100
0010
1000
0010
0000
0101
,  // measure 82
0000
0010
1000
0001
1000
0010
1000
0000
,  // measure 83
0011
0000
1100
0000
0001
0100
0010
1000
,  // measure 84
0000
0100
0010
0001
0100
0010
0100
0001
,  // measure 85
0000
1000
0100
0000
0010
0001
1000
0001
,  // measure 86
0000
1000
0010
0000
0100
0001
1000
0000
,  // measure 87
0011
0000
1100
0000
0001
0100
0010
1000
,  // measure 88
0000
0001
0010
0001
1000
0010
0000
0101
,  // measure 89
0000
0010
1000
0001
1000
0100
1000
0010
,  // measure 90
0000
0100
0001
0010
0100
1000
0010
0100
,  // measure 91
0001
0000
1100
0000
0001
0100
0010
1000
,  // measure 92
0000
0001
0010
0001
1000
0010
0000
0101
,  // measure 93
0000
0010
1000
0000
0001
0010
0100
1000
,  // measure 94
0000
0010
0100
0000
0010
1000
0001
1000
,  // measure 95
0010
0000
0101
0000
0001
0010
0001
1000
,  // measure 96
0000
0001
0100
0010
0100
0001
0010
0100
,  // measure 97
1000
0000
0001
0100
0000
0010
1000
0000
,  // measure 98
0001
0010
0000
0001
1000
0010
1000
0001
,  // measure 99
0010
0000
0100
1000
0000
0001
0100
0000
,  // measure 100
0010
1000
0000
0000
0001
1000
0001
0000
,  // measure 101
1000
0100
1000
0001
1000
0010
0100
0001
,  // measure 102
0000
1000
0100
1000
0001
0100
0010
0100
,  // measure 103
0001
0010
0100
1000
0010
0100
0010
1000
,  // measure 104
0000
0001
0100
0010
0100
0001
1000
0000
,  // measure 105
0101
0000
1100
0000
0011
0000
1010
0001
,  // measure 106
0000
1000
0100
0000
0011
0000
1100
0000
,  // measure 107
0001
0100
0000
0010
1000
0000
0001
0020
,  // measure 108
0000
0000
0000
0000
,  // measure 109
0000
0000
0000
0000
,  // measure 110
0030
0000
0000
0000
;

//---------------dance-single - X. Ythar----------------
#NOTES:
     dance-single:
     X. Ythar:
     Challenge:
     10:
     0.877,1.000,0.452,0.215,0.330: // measure 1
0000
0000
0000
0000
00M0
0000
0000
00M0
,  // measure 2
00M0
0000
0000
0000
0000
0000
00M0
0000
0000
0000
0000
0000
00M0
0000
0000
0000
00M0
0000
0000
0000
00M0
0000
0000
0000
00M0
0000
0000
00M0
0000
0000
00M0
0000
0000
00M0
0000
0000
00M0
0000
0000
0000
0000
0000
0000
0000
0000
0000
0000
0000
,  // measure 3
1M00
0001
1000
0001
0000
0000
0100
0010
,  // measure 4
0100
0010
0000
0000
1000
0100
1000
0100
,  // measure 5
M010
0001
0010
0001
0000
0000
1000
0010
,  // measure 6
1000
0010
0000
0000
0100
M1M1
0000
0000
,  // measure 7
M001
0100
0010
1000
0001
0010
0001
1M01
,  // measure 8
0000
1000
0100
1000
0001
0100
0010
1000
,  // measure 9
0M01
0010
0100
0010
0001
1000
0001
01M1
,  // measure 10
0000
0010
1000
0100
1000
0001
0100
0010
,  // measure 11
100M
0100
0010
0100
1000
0010
0100
M101
,  // measure 12
0000
0001
0010
0100
1000
0010
0100
0010
,  // measure 13
1000
1010
0000
0001
0011
0000
1000
2002
,  // measure 14
0000
00M0
0M00
30M3
,  // measure 15
2000
0000
0000
3200
0000
0000
0320
0000
,  // measure 16
0000
0032
0000
0000
2003
000M
3020
M000
,  // measure 17
023M
0000
0000
0302
0000
0000
0023
0000
,  // measure 18
0000
0230
0000
0000
2300
0M00
3002
M000
,  // measure 19
02M3
0000
0000
0320
0000
0000
2030
0000
,  // measure 20
0000
3200
0000
0000
0320
0M00
0032
00M0
,  // measure 21
2M03
0000
0000
3002
0000
0000
0203
0000
,  // measure 22
0000
0320
0000
0000
203M
0000
3M02
00M0
,  // measure 23
1M03
0010
0100
0001
0010
0000
0100
1000
,  // measure 24
0001
0000
1000
0000
0010
0000
0000
0000
0100
0000
0001
0000
1000
0001
1000
0001
,  // measure 25
1MM0
0001
0100
0010
1000
0000
0001
0010
,  // measure 26
0001
1000
0010
0000
0100
0001
M010
0100
,  // measure 27
10MM
0001
0100
0010
1000
0000
0100
0010
,  // measure 28
0001
0000
0100
0000
0010
0000
0000
0000
1000
0000
0010
0000
0100
0010
0100
0010
,  // measure 29
M100
0001
0100
M1M1
0000
1000
01MM
1100
,  // measure 30
0000
0001
1000
0100
1000
0010
0100
0001
,  // measure 31
10MM
0100
0001
0100
1000
0010
0001
0010
1000
0100
0010
0100
1000
0010
0100
0010
,  // measure 32
1000
0001
0010
0100
1000
0001
0100
0010
1000
0100
0010
0001
0100
0010
1000
0010
,  // measure 33
0M0M
1000
0001
0000
0010
0100
0010
1001
,  // measure 34
0000
0001
0100
0001
1000
0100
1000
1MM1
,  // measure 35
0000
0001
0100
0010
0100
1000
0100
0010
,  // measure 36
0100
0001
0010
0100
1000
0010
0100
0001
,  // measure 37
1MM0
0001
0100
0001
1000
0010
0100
0010
1000
0100
0010
0001
0100
0010
0100
0001
,  // measure 38
0010
0100
1000
0001
0100
0010
1000
0001
0010
0001
1000
0010
0100
0001
0010
0100
,  // measure 39
M00M
1000
0010
0000
1000
0100
1000
0110
,  // measure 40
0000
0001
0100
0010
0100
0001
1000
1100
,  // measure 41
0000
0001
0100
0010
1000
0001
0010
0001
,  // measure 42
1000
0000
0010
0000
0100
0000
0001
0000
1000
0001
1000
0001
1000
0000
0010
0000
,  // measure 43
0110
0101
1010
0011
,  // measure 44
1100
0001
1001
0000
M000
000M
0000
0110
,  // measure 45
0000
0001
0100
0010
0100
0001
1000
0100
,  // measure 46
0000
0010
0001
1000
0001
1000
0010
0100
,  // measure 47
0001
1000
0100
1000
0001
0100
0010
1000
,  // measure 48
0000
0000
1000
0000
0001
0000
1000
0010
1000
0000
0001
0000
0010
0000
M11M
0000
,  // measure 49
0000
0000
0100
0000
1000
0000
0001
0000
1000
0000
0001
0100
0001
0000
0101
0000
,  // measure 50
0000
1000
0100
1000
0001
0100
0010
0100
,  // measure 51
0001
0010
0100
1000
0001
0100
0010
1010
,  // measure 52
0000
100M
01M0
0000
10M0
0M01
0000
1MM1
,  // measure 53
0000
1000
0100
1000
0001
0100
0010
1000
,  // measure 54
0000
0001
0010
0001
1000
0010
0100
0001
,  // measure 55
1000
0100
1000
0001
0100
0010
1000
0001
,  // measure 56
0000
0000
1000
0000
0100
0000
1000
0100
1000
0000
0001
0100
0001
0000
1MM1
0000
,  // measure 57
0000
1000
0100
1000
0010
0100
0001
1000
,  // measure 58
0000
1000
0010
0100
0010
1000
0100
0010
,  // measure 59
0001
1000
0010
1000
0001
0010
0100
1MM1
,  // measure 60
0000
0000
1000
0000
0010
0000
1000
0000
0001
0000
0100
0000
0010
1000
0010
1000
,  // measure 61
0001
0000
1000
11MM
0000
0001
M1M1
0000
,  // measure 62
1000
0000
1M1M
0000
0000
0000
0001
0000
0010
0000
0100
0000
1000
0001
1000
0001
,  // measure 63
0100
0000
0010
1M1M
0000
0100
M1M1
0000
,  // measure 64
0001
1MM1
0000
0000
M000
0000
000M
0000
,  // measure 65
0110
0000
0001
0100
0010
1000
0001
1MM1
,  // measure 66
0000
1000
0100
1000
001M
0100
0001
0100
,  // measure 67
M1M1
0000
1000
0100
1000
0001
0100
M001
,  // measure 68
0000
1000
0100
1000
0000
0001
0100
0001
,  // measure 69
1MM1
0000
1000
0010
1000
0001
0010
0100
,  // measure 70
0000
1000
0001
10M0
0000
1000
0010
1000
,  // measure 71
0M01
0000
0010
0000
0100
0000
100M
0000
0001
00M0
0100
0000
001M
0000
1000
0000
,  // measure 72
0001
1000
0100
1000
0001
0100
0010
0100
,  // measure 73
00M1
1000
0100
1000
0001
1000
0010
M11M
,  // measure 74
0000
0001
1000
0100
0000
1000
0001
0100
,  // measure 75
0001
0000
1000
0000
0001
0000
0010
0000
0100
0000
1000
0000
,  // measure 76
0001
0000
0100
0000
0020
0000
0000
0000
0000
0000
0030
0000
,  // measure 77
1000
0000
0000
0000
0000
0000
0100
0000
0000
0010
0000
0000
0001
0000
0000
0000
1000
0000
0000
0000
0001
0000
0000
0000
0100
0000
0000
0000
0001
0000
0000
0000
0010
0000
0000
0000
0100
0000
0000
0000
1000
0000
0000
0000
0010
0000
0000
0000
,  // measure 78
1000
0000
0000
0000
0100
0000
0000
0000
0010
0000
0000
0000
0001
0000
0000
0000
1000
0000
0001
0000
0000
1000
0000
0000
0002
0000
0000
0000
0000
0000
0000
0000
0000
0000
0000
0000
0000
0000
0000
0000
0003
0000
0000
0000
0000
0000
0000
0000
,  // measure 79
1000
0100
0010
0001
0100
0010
1000
0100
0010
0001
0100
0010
,  // measure 80
1000
0000
0000
0000
0100
0000
0000
0000
0010
0000
0000
0000
0M01
0000
0000
M000
0000
0000
0000
0000
0000
1100
0000
0000
,  // measure 81
0000
0001
0100
0010
0100
0001
1000
1100
,  // measure 82
0000
0001
0100
0010
0100
0001
1000
0100
,  // measure 83
0010
0001
0100
0001
0010
0100
1000
1001
,  // measure 84
0000
0000
1000
0000
0010
0000
1000
0010
1000
0000
0001
0010
0001
0000
1MM1
0000
,  // measure 85
0000
1000
0010
0100
0010
1000
0100
1001
,  // measure 86
0000
1000
0010
1000
0001
0010
0100
1000
,  // measure 87
0010
0100
1000
0100
0010
1000
0001
1MM1
,  // measure 88
0000
100M
0M10
0000
10M0
0M01
0000
M11M
,  // measure 89
0000
0001
0100
0010
1000
0001
0010
1100
,  // measure 90
0000
0001
0100
0010
0100
0001
1000
0010
,  // measure 91
0100
0010
1000
0001
0010
0001
1000
0110
,  // measure 92
0000
0000
0001
0000
0100
0000
0010
1000
0001
0000
1000
0100
0010
0100
100M
0000
,  // measure 93
0000
0001
0100
0001
1000
0100
0010
1MM1
,  // measure 94
0000
0001
0100
0010
0100
0001
0010
0100
,  // measure 95
1001
0000
1000
0010
0100
0010
1000
0MM1
,  // measure 96
0000
0000
0010
0000
0100
0000
1000
0000
0010
0000
0100
0000
0001
0010
0100
0010
,  // measure 97
0001
0000
1000
M11M
0000
0001
M11M
0000
,  // measure 98
1000
0000
M1M1
0000
0000
0000
0001
0000
1000
0100
1000
0001
1000
0100
1000
0001
,  // measure 99
1000
0000
0100
1MM1
0000
0010
1MM1
0000
,  // measure 100
0100
1M1M
0000
0000
00M0
0000
M000
0000
,  // measure 101
M001
0100
0010
0100
0001
0010
0100
100M
,  // measure 102
0000
0010
0100
1000
0100
0010
1000
0100
,  // measure 103
M001
0100
1000
0001
0100
1000
0100
001M
,  // measure 104
0000
1000
0001
0010
0100
1000
0010
0100
,  // measure 105
0101
1000
0101
1000
0110
0001
0110
0001
,  // measure 106
0000
1000
1100
0001
1010
0001
1100
0001
,  // measure 107
10M0
1M00
0000
0M10
M010
0000
010M
02M0
,  // measure 108
0000
0000
0000
0000
,  // measure 109
0000
0000
0000
0000
,  // measure 110
0300
0000
0000
0000
;

//---------------dance-single - ----------------
#NOTES:
     dance-single:
     :
     Medium:
     7:
     0.470,0.485,0.274,0.297,0.007: // measure 1
0000
0000
0000
0000
,  // measure 2
0000
0000
0000
0000
,  // measure 3
1000
0010
0000
0100
,  // measure 4
0001
0000
1000
0100
,  // measure 5
0010
0001
0000
1000
,  // measure 6
0010
0000
0000
0000
0100
0001
0000
0000
,  // measure 7
1000
0000
0001
0000
0010
0000
0100
1000
,  // measure 8
0000
0001
0100
0010
,  // measure 9
1000
0000
0100
0000
0010
0000
0001
1000
,  // measure 10
0000
0001
1000
0010
,  // measure 11
0100
0000
0001
0000
0010
0000
0001
1000
,  // measure 12
0000
0001
0100
0010
,  // measure 13
1000
0100
0000
1000
0001
0000
1000
0020
,  // measure 14
0000
0100
0100
0130
,  // measure 15
0002
0000
0000
0023
0000
0000
0230
0000
,  // measure 16
0000
0000
2300
0000
,  // measure 17
3020
0000
0000
0230
0000
0000
0302
0000
,  // measure 18
0000
0000
2003
0000
,  // measure 19
3020
0000
0000
0230
0000
0000
0302
0000
,  // measure 20
0000
0000
0023
0000
,  // measure 21
0230
0000
2300
0000
,  // measure 22
3002
0000
2003
0000
,  // measure 23
3001
0100
0010
1000
,  // measure 24
0100
0000
1000
0010
,  // measure 25
1000
0100
0010
0001
,  // measure 26
1000
0000
0001
0100
,  // measure 27
0001
0010
0100
0010
,  // measure 28
0001
0000
1000
0010
,  // measure 29
0100
0000
0001
0010
0000
0100
1000
0000
,  // measure 30
0001
0100
1000
0100
,  // measure 31
0001
1000
0010
0100
,  // measure 32
0002
0000
0000
0000
0000
0000
0000
0000
1003
0000
0000
0000
0100
0000
0000
0110
,  // measure 33
0000
0000
0001
0000
0100
0000
0000
1001
,  // measure 34
0000
0000
1000
0000
0001
0000
0000
0110
,  // measure 35
0000
0100
1000
0001
,  // measure 36
1000
0010
0100
0001
,  // measure 37
1000
0100
0010
0001
,  // measure 38
0200
0000
0000
0000
0000
0000
0000
0000
0310
0000
0000
0000
1000
0000
0000
1001
,  // measure 39
0000
0000
0100
0000
0010
0000
0000
1100
,  // measure 40
0000
0000
0001
0000
0100
0000
0000
1010
,  // measure 41
0000
0001
0100
0010
,  // measure 42
0100
0001
0010
0100
,  // measure 43
1001
0010
1001
0100
,  // measure 44
1000
0001
1000
0000
0000
0000
0000
0001
,  // measure 45
0000
0000
0100
0000
0001
1000
0000
0001
,  // measure 46
0000
0000
0010
0000
0100
1000
0000
1000
,  // measure 47
0001
0000
0100
0000
0010
1000
0000
0001
,  // measure 48
0000
1000
0100
0000
0010
0001
0000
1001
,  // measure 49
0000
0000
0001
0000
0100
0000
0010
1000
,  // measure 50
0000
0001
0010
0100
,  // measure 51
1000
0000
0001
0000
0100
0000
0010
1000
,  // measure 52
0000
1000
0001
0000
1001
0000
0000
0010
,  // measure 53
0000
0000
0100
0000
0001
1000
0000
0100
,  // measure 54
0000
0010
0001
1000
,  // measure 55
0010
0000
0100
0000
0001
1000
0000
0100
,  // measure 56
0000
1000
0010
0000
0100
0000
0001
1000
,  // measure 57
0000
1000
0010
0000
0101
0000
0010
1000
,  // measure 58
0000
1000
0001
0000
0010
0000
0100
0000
,  // measure 59
1000
0000
0001
0000
0100
0000
0010
1000
,  // measure 60
0000
1000
0001
0000
1001
0000
0010
0000
,  // measure 61
1100
0000
0000
0101
0000
0000
1010
0000
,  // measure 62
0000
0011
0000
0000
0100
0000
1000
0000
,  // measure 63
1001
0000
0000
1010
0000
0000
0011
0000
,  // measure 64
0000
1100
0000
0000
0001
0000
1000
0000
,  // measure 65
0002
0000
0000
0000
0000
0000
0000
0203
,  // measure 66
0000
0000
0320
0000
,  // measure 67
2030
0000
0100
0000
0100
0000
0000
3200
,  // measure 68
0000
0000
0000
0000
,  // measure 69
0320
0000
0001
0000
0032
0000
0000
2003
,  // measure 70
0000
0000
3010
0100
,  // measure 71
0002
0000
0000
0023
0000
0230
0000
2300
,  // measure 72
0000
0000
0000
0000
,  // measure 73
3002
0000
0000
0000
0000
0203
0000
0320
,  // measure 74
0000
0000
2030
0000
,  // measure 75
3001
0010
0100
1000
,  // measure 76
0002
0000
2003
0000
,  // measure 77
3001
0100
0010
1000
,  // measure 78
0001
0000
0010
0100
2000
0000
0000
0000
,  // measure 79
3001
0100
1000
0100
,  // measure 80
0001
0000
1000
0000
1001
0000
0000
1000
,  // measure 81
0000
0000
0010
0000
0100
0000
0000
1001
,  // measure 82
0000
1000
0100
1000
,  // measure 83
0010
0000
0100
0000
0001
0000
0000
1100
,  // measure 84
0000
0000
0001
0000
0100
0000
0000
1010
,  // measure 85
0000
0000
0100
0000
0001
0000
0000
0101
,  // measure 86
0000
0001
1000
0100
,  // measure 87
2000
0000
0000
3001
0000
0000
1000
0010
,  // measure 88
0000
0100
0001
0000
0010
0100
0000
1001
,  // measure 89
0000
0000
0001
0000
0100
0000
0010
1000
,  // measure 90
0000
0001
0010
0100
,  // measure 91
1000
0000
0010
0000
0100
0000
0001
1000
,  // measure 92
0000
0100
0010
0000
0001
0000
0000
1100
,  // measure 93
0000
0000
0001
0000
0100
0000
0000
1010
,  // measure 94
0000
1000
0100
0010
,  // measure 95
0001
0000
0100
0000
0010
0000
0000
1001
,  // measure 96
0000
0001
0100
0010
,  // measure 97
1010
0000
0000
0101
0000
0000
1100
0000
,  // measure 98
0000
0011
0000
0000
0100
0000
0010
0000
,  // measure 99
1001
0000
0000
1100
0000
0000
0101
0000
,  // measure 100
0000
1010
0000
0000
0001
0000
1000
0000
,  // measure 101
0001
0000
0100
0000
0010
0000
1000
0100
,  // measure 102
0000
0010
0001
0000
1000
0000
0010
0000
,  // measure 103
0100
0000
0010
0000
1000
0000
0001
0010
,  // measure 104
0000
0100
1000
0000
0001
0000
0100
0000
,  // measure 105
1000
0000
0100
0000
0010
0000
1000
0100
,  // measure 106
0000
0010
0001
0000
1000
0000
0010
0000
,  // measure 107
0100
0001
0000
0010
0100
0000
1000
0002
,  // measure 108
0000
0000
0000
0000
,  // measure 109
0000
0000
0000
0000
,  // measure 110
0003
0000
0000
0000
;

//---------------dance-single - ----------------
#NOTES:
     dance-single:
     :
     Easy:
     4:
     0.319,0.364,0.059,0.074,0.000: // measure 1
0000
0000
0000
0000
,  // measure 2
0000
0000
0000
0000
,  // measure 3
1000
1000
0000
0001
,  // measure 4
0001
0000
1000
1000
,  // measure 5
0010
0010
0000
0100
,  // measure 6
0100
0000
0001
0000
,  // measure 7
1000
0000
0001
1000
,  // measure 8
0010
0000
0100
0001
,  // measure 9
1000
0000
0001
1000
,  // measure 10
0010
0000
1000
0001
,  // measure 11
0010
0000
0100
1000
,  // measure 12
0001
0000
1000
0010
,  // measure 13
1000
0000
0000
0001
0000
0000
1000
0000
,  // measure 14
0000
0000
0000
0000
,  // measure 15
0002
0000
0000
0203
,  // measure 16
0000
0000
0000
0000
,  // measure 17
0320
0000
0000
2030
,  // measure 18
0000
0000
0000
0000
,  // measure 19
3200
0000
0000
0320
,  // measure 20
0000
0000
0000
0000
,  // measure 21
0032
0000
0000
0203
,  // measure 22
0000
0000
0000
0000
,  // measure 23
0310
1000
0001
0000
,  // measure 24
1000
0100
1000
0000
,  // measure 25
0001
0100
0010
0000
,  // measure 26
1000
0100
0010
0000
,  // measure 27
0001
1000
0010
0000
,  // measure 28
1000
0001
0010
0000
,  // measure 29
0100
0000
1000
0000
,  // measure 30
0001
0000
1000
0000
,  // measure 31
0010
0000
0100
0000
,  // measure 32
0001
0000
1000
0000
,  // measure 33
0000
0001
0100
0000
,  // measure 34
0000
0010
1000
0000
,  // measure 35
0000
0001
0010
0000
,  // measure 36
0001
1000
0010
0000
,  // measure 37
0100
0000
0001
0000
,  // measure 38
1000
0000
0001
0000
,  // measure 39
0000
1000
0010
0000
,  // measure 40
0000
1000
0100
0000
,  // measure 41
0000
0010
0001
0000
,  // measure 42
1000
0010
1000
0000
,  // measure 43
0001
0010
0100
1000
,  // measure 44
0001
0001
0000
0000
,  // measure 45
0000
1000
0010
0000
,  // measure 46
1000
0001
0010
0000
,  // measure 47
0100
1000
0010
0000
,  // measure 48
1000
0001
0010
0000
,  // measure 49
0100
1000
0010
0000
,  // measure 50
0100
0001
0010
0000
,  // measure 51
0001
1000
0010
0000
,  // measure 52
0100
0001
0010
0000
,  // measure 53
0100
1000
0010
0000
,  // measure 54
0100
0001
0010
0000
,  // measure 55
0001
1000
0010
1000
,  // measure 56
0001
0000
1000
0001
,  // measure 57
0100
0000
0010
1000
,  // measure 58
0001
0000
1000
0100
,  // measure 59
0010
0000
0001
0100
,  // measure 60
0010
0000
1000
0001
,  // measure 61
0010
0000
0000
0100
0000
0000
1000
0000
,  // measure 62
0000
0001
0000
0000
1000
0000
0010
0000
,  // measure 63
0100
0000
0000
0001
0000
0000
0010
0000
,  // measure 64
0000
0100
0000
0000
1000
0000
0001
0000
,  // measure 65
1000
0010
1000
0000
,  // measure 66
0001
0010
0100
0000
,  // measure 67
1000
0010
0100
0010
,  // measure 68
1000
0000
0001
0000
,  // measure 69
1000
0100
0010
0000
,  // measure 70
0001
1000
0010
0000
,  // measure 71
0100
0001
1000
0000
,  // measure 72
1001
0000
0001
0000
,  // measure 73
1000
0010
0100
0000
,  // measure 74
0010
1000
0001
0000
,  // measure 75
1000
0100
0010
0001
,  // measure 76
0100
0010
1000
0000
,  // measure 77
0001
0010
0100
1000
,  // measure 78
0010
0100
0001
0000
,  // measure 79
1000
0100
0010
0001
,  // measure 80
0100
0010
1000
0000
,  // measure 81
0001
1000
0010
0000
,  // measure 82
1000
0001
0010
0000
,  // measure 83
1001
0000
0110
0000
,  // measure 84
1000
0100
0010
0000
,  // measure 85
0001
0100
0010
0000
,  // measure 86
1000
0001
0010
0000
,  // measure 87
0100
1000
0010
0000
,  // measure 88
0100
0001
0010
0000
,  // measure 89
0100
1000
0001
0000
,  // measure 90
1000
0010
1000
0001
,  // measure 91
1000
0001
0100
0000
,  // measure 92
0001
0010
0100
0000
,  // measure 93
1000
0010
0100
0000
,  // measure 94
0001
1000
0100
0000
,  // measure 95
1000
0001
0100
0000
,  // measure 96
0010
1000
0001
0000
,  // measure 97
1000
0000
0000
0001
0000
0000
1000
0000
,  // measure 98
0000
0010
0000
0000
0100
0000
0001
0000
,  // measure 99
1000
0000
0000
0100
0000
0000
0010
0000
,  // measure 100
0000
0001
0000
0000
1000
0000
0001
0000
,  // measure 101
1000
0010
0100
0000
,  // measure 102
0001
0010
0100
0000
,  // measure 103
1000
0010
0100
0000
,  // measure 104
0001
1000
0100
0000
,  // measure 105
1001
0000
0110
0000
,  // measure 106
1001
0000
0110
0000
,  // measure 107
0001
0000
0000
1000
0000
0000
2002
0000
,  // measure 108
0000
0000
0000
0000
,  // measure 109
0000
0000
0000
0000
,  // measure 110
3003
0000
0000
0000
;

//---------------dance-single - ----------------
#NOTES:
     dance-single:
     :
     Beginner:
     2:
     0.146,0.238,0.015,0.000,0.000: // measure 1
0000
0000
0000
0000
,  // measure 2
0000
0000
0000
0000
,  // measure 3
1000
0000
0000
0001
,  // measure 4
0000
0000
1000
0000
,  // measure 5
1000
0000
0000
0001
,  // measure 6
0000
0000
1000
0000
,  // measure 7
0010
0000
0000
0000
,  // measure 8
0100
0000
0000
0000
,  // measure 9
0001
0000
0000
0000
,  // measure 10
0010
0000
0000
0000
,  // measure 11
0100
0000
0000
0000
,  // measure 12
1000
0000
0000
0000
,  // measure 13
0001
0000
0000
1001
,  // measure 14
0000
0000
0000
0000
,  // measure 15
1000
0000
0000
0000
,  // measure 16
0000
0000
0010
0000
,  // measure 17
0100
0000
0000
0000
,  // measure 18
0000
0000
0001
0000
,  // measure 19
0010
0000
0000
0000
,  // measure 20
0000
0000
0100
0000
,  // measure 21
1000
0000
0000
0000
,  // measure 22
0001
0000
0000
0000
,  // measure 23
1000
0000
0010
0000
,  // measure 24
0100
0000
0001
0000
,  // measure 25
1000
0000
0010
0000
,  // measure 26
0100
0000
0001
0000
,  // measure 27
1000
0000
0010
0000
,  // measure 28
0100
0000
0001
0000
,  // measure 29
1000
0000
0000
0000
,  // measure 30
0001
0000
0000
0000
,  // measure 31
1000
0000
0000
0000
,  // measure 32
0001
0000
0000
0000
,  // measure 33
0000
1000
0000
0000
,  // measure 34
0000
0001
0000
0000
,  // measure 35
0000
1000
0000
0010
,  // measure 36
0000
0100
0000
0000
,  // measure 37
0001
0000
1000
0000
,  // measure 38
0010
0000
0000
0000
,  // measure 39
0000
0100
0000
0000
,  // measure 40
0000
0001
0000
0000
,  // measure 41
0000
1000
0000
0001
,  // measure 42
0000
1000
0000
0000
,  // measure 43
0001
0001
0001
0001
,  // measure 44
0001
0000
0000
0000
,  // measure 45
1000
0000
0000
0000
,  // measure 46
0010
0000
0000
0000
,  // measure 47
0100
0000
0001
0000
,  // measure 48
1000
0000
0000
0000
,  // measure 49
0001
0000
0000
0000
,  // measure 50
1000
0000
0000
0000
,  // measure 51
0010
0000
0100
0000
,  // measure 52
0010
0000
0000
0000
,  // measure 53
1000
0000
0000
0000
,  // measure 54
0001
0000
0000
0000
,  // measure 55
1000
0000
0100
0000
,  // measure 56
0010
0000
0000
0000
,  // measure 57
0001
0000
0000
0000
,  // measure 58
1000
0000
0000
0000
,  // measure 59
0010
0000
0100
0000
,  // measure 60
0001
0000
0000
0000
,  // measure 61
1000
0000
0000
0000
,  // measure 62
0001
0000
0000
0000
,  // measure 63
1000
0000
0000
0000
,  // measure 64
0001
0000
0000
0000
,  // measure 65
1000
0000
0000
0000
,  // measure 66
0010
0000
0000
0000
,  // measure 67
0100
0000
0001
0000
,  // measure 68
1000
0000
0000
0000
,  // measure 69
0001
0000
0000
0000
,  // measure 70
0010
0000
0000
0000
,  // measure 71
0100
0000
1000
0000
,  // measure 72
0001
0000
0000
0000
,  // measure 73
1000
0000
0000
0000
,  // measure 74
0010
0000
0000
0000
,  // measure 75
0100
0000
0001
0000
,  // measure 76
1000
0000
0000
0000
,  // measure 77
0001
0000
0100
0000
,  // measure 78
0010
0000
1000
0000
,  // measure 79
0100
0000
0010
0000
,  // measure 80
0001
0000
0000
0000
,  // measure 81
1000
0000
0000
0000
,  // measure 82
0010
0000
0000
0000
,  // measure 83
0100
0000
0001
0000
,  // measure 84
1000
0000
0000
0000
,  // measure 85
0001
0000
0000
0000
,  // measure 86
0010
0000
0000
0000
,  // measure 87
0100
0000
1000
0000
,  // measure 88
0001
0000
0000
0000
,  // measure 89
1000
0000
0000
0000
,  // measure 90
0010
0000
0000
0000
,  // measure 91
0100
0000
0001
0000
,  // measure 92
1000
0000
0000
0000
,  // measure 93
0001
0000
0000
0000
,  // measure 94
1000
0000
0000
0000
,  // measure 95
0010
0000
0100
0000
,  // measure 96
0001
0000
0000
0000
,  // measure 97
1000
0000
0000
0000
,  // measure 98
0001
0000
0000
0000
,  // measure 99
1000
0000
0000
0000
,  // measure 100
0001
0000
0000
0000
,  // measure 101
1000
0000
0000
0000
,  // measure 102
0010
0000
0000
0000
,  // measure 103
0100
0000
0000
0000
,  // measure 104
0001
0000
0000
0000
,  // measure 105
1000
0000
0100
0000
,  // measure 106
1000
0000
0010
0000
,  // measure 107
0100
0000
0000
0000
,  // measure 108
0110
0000
0000
0000
;
