#TITLE:Dar[k]wish;
#SUBTITLE:;
#ARTIST:akino;
#TITLETRANSLIT:;
#SUBTITLETRANSLIT:;
#ARTISTTRANSLIT:;
#CREDIT:X[y]thar;
#BANNER:Dar[k]wish.PNG;
#BACKGROUND:Dar[k]wish-bg.PNG;
#LYRICSPATH:;
#CDTITLE:popnmusic.png;
#MUSIC:Dar[k]wish.mp3;
#OFFSET:-3.088;
#SAMPLESTART:51.370;
#SAMPLELENGTH:11.980;
#SELECTABLE:YES;
#BPMS:0.000=124.000;
#STOPS:;
#BGCHANGES:;

//---------------dance-single - ----------------
#NOTES:
     dance-single:
     L[i]ght:
     Easy:
     4:
     0.272,0.280,0.153,0.153,0.000:
0000
0000
0000
0000
,
1000
0000
0100
0000
,
0010
0001
0100
0000
,
0010
0000
1000
0000
,
0100
0010
0001
0000
,
1000
0010
0100
0001
,
0200
0000
0010
0310
,
1000
0100
0010
0001
,
2000
0000
0001
3001
,
0010
0100
0001
1000
,
1001
1001
1001
0000
,
0010
0100
0010
0100
,
2000
0010
3010
0000
,
0100
0001
0100
0001
,
2000
0001
3001
0000
,
1000
0100
1000
0100
,
0020
0001
0031
0000
,
0100
0010
1000
0010
,
0100
0001
1000
0000
,
0100
0010
0001
0000
,
1000
0010
0100
0000
,
0002
0000
0000
0000
,
2003
0000
3200
0000
,
0320
0000
0230
2300
,
3020
0000
0230
0000
,
0301
1000
1001
1000
,
0100
0010
0001
0100
,
0010
0100
0110
0010
,
1000
0100
1000
0001
,
1000
0001
1001
1000
,
0100
0010
0100
1000
,
0010
0100
0110
0010
,
1000
0001
0100
0001
,
2000
0001
3001
0200
,
0010
0010
0010
0310
,
1000
0100
0010
0001
,
0100
0010
0100
0001
,
1000
1001
0001
1001
,
0010
0110
0100
0110
,
0100
0001
0100
0101
,
1000
0010
1000
1010
,
0001
0010
0100
1000
,
0010
0100
0001
1000
,
0100
0010
0110
0100
,
1000
0010
0100
0001
,
1000
0001
1000
1001
;

//---------------dance-single - ----------------
#NOTES:
     dance-single:
     H[e]avy:
     Hard:
     7:
     0.489,0.444,0.061,0.173,0.071:
0000
0000
0000
0000
,
0001
0000
0010
0000
0100
0000
1000
0100
0000
0100
1000
0000
0001
0000
0100
0000
,
0010
0000
1000
0000
0010
0000
1000
0001
0000
0001
1000
0000
0100
0000
0010
0000
,
0100
0000
1000
0000
0010
0000
0100
0001
0000
0001
0100
0000
0010
0000
0100
0000
,
0001
0000
1000
0000
0100
0000
0010
0100
0000
0100
0010
0000
0001
0000
0100
0000
,
0010
1000
0001
1000
0100
0010
0100
0010
,
0001
0100
0010
1000
0200
0000
0310
0000
,
0001
0100
0010
0100
0001
1000
0100
1000
,
0001
0010
0100
1000
0020
0000
0130
0000
,
0001
0100
1000
0100
0001
0010
1000
0010
,
0001
0001
1000
1000
0100
1000
0010
0000
,
0100
0001
0100
0010
1000
0100
0010
0100
,
0010
0001
0100
0010
0200
0000
0301
0000
,
1000
0100
0010
0100
0010
0001
0100
0010
,
1000
0100
0010
0100
2000
0000
3001
0000
,
1000
0010
0100
0010
0100
0001
1000
0001
,
0010
0100
0010
0001
1000
0000
0010
0000
,
0100
0001
1000
0001
0010
0001
1000
0100
,
0010
0001
0100
0010
2000
0000
3001
0000
,
1000
0100
1000
0000
0001
0010
0001
0000
,
1000
0010
0100
0010
1000
0100
0010
0000
,
0002
0203
0320
2030
,
3200
0010
0320
0001
,
0032
2003
3020
0230
,
0320
1000
2030
3100
,
1000
0001
1000
0000
1001
0000
0001
0010
,
0100
1000
0010
0100
0010
1000
0100
0000
,
1000
0010
1000
0000
0101
0000
1000
0100
,
1000
0001
0100
0010
0100
0001
1000
0000
,
0001
0010
0100
0000
1100
0000
1000
0010
,
0100
0001
1000
0100
0010
0100
1000
0000
,
0001
0010
0100
0000
0110
0000
0100
0001
,
0100
1000
0010
0001
0010
1000
0100
0010
,
0001
0000
1000
0000
0010
0000
0100
0001
0000
0001
0100
0000
0010
0000
0000
0000
,
1000
0100
0010
0001
0100
0010
1000
0000
,
0001
0000
0010
0000
0100
0000
1000
0100
0000
0010
0000
0000
0001
0000
1000
0000
,
0010
0100
0010
1000
0100
0010
0001
0000
,
1000
0000
0010
0000
0100
0000
0001
0000
1000
0001
1000
0000
0100
0000
0000
0000
,
0010
0001
0100
0010
1000
0100
0010
0000
,
0001
0000
0010
0000
0100
0000
1000
0000
0100
1000
0100
0000
1000
0000
0000
0000
,
0010
0100
0001
0100
0010
1000
0100
0000
,
1000
0100
0010
0001
1000
0010
0100
0001
,
1000
0100
0010
0001
0100
1000
0100
0001
,
1000
0100
0010
0000
0011
0000
0001
0100
,
0010
0100
0001
1000
0100
0010
0100
1000
,
1001
0000
0001
0000
0010
0100
1000
0001
;

//---------------dance-single - ----------------
#NOTES:
     dance-single:
     St[a]ndard:
     Medium:
     6:
     0.391,0.350,0.081,0.000,0.000:
0000
0000
0000
0000
,
1000
0100
0010
0000
0100
0010
0100
0000
,
0010
0001
0010
0000
0001
1000
0001
0000
,
1000
0010
0100
0000
0010
0100
0010
0000
,
0100
0001
0100
0000
0001
1000
0001
0000
,
1000
0001
0100
0010
0100
0000
0001
0100
,
0001
1000
0100
1000
0001
0000
0010
0000
,
0100
0010
0100
0000
0010
0001
0010
0001
,
1000
0000
0010
0100
0001
0000
1000
0000
,
0001
0010
0100
0010
0001
0000
1000
0000
,
0010
0100
0001
0100
0010
0000
1000
0000
,
0100
0010
0100
0010
0001
0000
1000
0000
,
0010
0100
0001
0100
0010
0000
1000
0000
,
0010
1000
0010
0100
0010
0000
0100
0000
,
0001
0010
0001
1000
0001
0000
1000
0000
,
0100
0010
0001
0010
0100
0000
1000
0000
,
0010
0100
0001
0100
0010
0000
1000
0000
,
0100
1000
0010
1000
0100
0010
0100
1000
,
0001
0000
0100
0010
1000
0000
0001
0000
,
0010
0100
0010
0000
0001
0010
0001
0000
,
1000
0010
1000
0000
0100
0010
0100
0000
,
1000
0010
0100
0001
,
1000
0100
1000
0010
,
0100
0001
0100
0010
,
1000
0100
0010
0001
,
1000
0000
0001
0000
1001
0000
0001
0010
,
0100
0000
0100
0010
0001
0100
0010
0000
,
1000
0000
0010
0000
1010
0000
0100
0001
,
0100
0000
0010
1000
0100
1000
0010
0000
,
0100
0000
0001
0000
0101
0000
0001
0100
,
0010
0100
0001
1000
0100
1000
0001
0000
,
0010
0000
0100
0000
0110
0000
0010
0001
,
1000
0010
1000
0000
0001
0000
0100
0000
,
0010
1000
0100
0000
0010
0001
0100
0000
,
0010
0100
0001
0000
1000
0100
0010
0000
,
0001
0100
0010
0000
1000
0010
0100
0000
,
0001
0010
0100
1000
0010
0100
0001
0000
,
1001
0000
0001
0010
0100
0000
0110
0000
,
1000
0010
0100
0000
0100
0001
1000
0000
,
0001
0100
0010
0100
0001
0000
1001
0000
,
1000
0100
0001
0000
0001
0100
1000
0000
,
0010
0100
0001
0100
0010
0100
0001
0100
,
0010
1000
0100
0000
0010
0001
0100
0000
,
0001
0000
1000
0000
1001
0000
0001
0010
,
0100
0000
0100
1000
0010
0100
0010
1000
,
0100
0000
1000
0000
0010
0000
0100
0001
;

//---------------dance-single - ----------------
#NOTES:
     dance-single:
     :
     Beginner:
     1:
     0.138,0.163,0.020,0.000,0.000:
0000
0000
0000
0000
,
1000
0000
0000
0000
,
0001
0000
0100
0000
,
0001
0000
0000
0000
,
1000
0000
0100
0000
,
1000
0000
0001
0000
,
1000
0000
0001
0000
,
0100
0000
0010
0000
,
0100
0000
0010
0000
,
0100
0000
0001
0000
,
1000
1000
1000
0000
,
0001
0000
0010
0000
,
0100
0000
1000
0000
,
0001
0000
0100
0000
,
0010
0000
1000
0000
,
0001
0000
1000
0000
,
0001
0000
1000
0000
,
0010
0000
0100
0000
,
0010
0000
0100
0000
,
0001
0000
0000
0000
,
1000
0000
0000
0000
,
0010
0000
0000
0000
,
0100
0000
0001
0000
,
1000
0000
0001
0000
,
1000
0000
1001
0000
,
0001
0001
0001
0000
,
0100
0000
0010
0000
,
1000
1000
1000
0000
,
0100
0000
0010
0000
,
0001
0001
0001
0000
,
0100
0000
0010
0000
,
1000
1000
1000
0000
,
0001
0000
1000
0000
,
0010
0000
0100
0000
,
0001
0000
0100
0000
,
0010
0000
1000
0000
,
0100
0000
0010
0000
,
0001
0000
1000
0000
,
0010
0000
0100
0000
,
0001
0000
1000
0000
,
0100
0000
1000
0000
,
0010
0010
0010
0000
,
0100
0100
0100
0000
,
0001
0000
1001
0000
,
1000
0000
0100
0000
,
0010
0000
0001
0001
;
