#TITLE:男女;
#SUBTITLE:;
#ARTIST:先生;
#TITLETRANSLIT:Danjo;
#SUBTITLETRANSLIT:;
#ARTISTTRANSLIT:Sensei;
#CREDIT:Xythar;
#BANNER:Danjo_BN.avi;
#BACKGROUND:Danjo_BG.png;
#LYRICSPATH:Danjo.lrc;
#CDTITLE:uudetowotsumi.png;
#MUSIC:Danjo.mp3;
#OFFSET:-0.073;
#SAMPLESTART:49.570;
#SAMPLELENGTH:11.980;
#SELECTABLE:YES;
#BPMS:0.000=160.000;
#STOPS:;
#BGCHANGES:-0.205=Danjo.avi=1.000=1=1=0,
99999=-nosongbg-=1.000=0=0=0 // don't automatically add -songbackground-
;

//---------------dance-single - ----------------
#NOTES:
     dance-single:
     :
     Hard:
     8:
     0.534,0.502,0.589,0.010,0.000:
0000
0000
0000
0000
,
0000
0000
0000
0000
,
0000
0000
0000
0000
,
0000
0000
0000
0000
,
0100
0000
0000
0100
1000
0000
0000
1000
,
0000
0001
0000
1000
0001
0000
1100
0000
,
0001
0000
0100
0010
1000
0000
0001
1000
,
0000
0100
0000
0010
0001
0000
1010
0000
,
0100
0001
1000
0000
0100
1000
0010
0000
,
0100
0001
0100
0001
0010
0100
1000
0000
,
0010
0100
0001
0000
0010
0100
1000
0000
,
0001
0100
0001
0100
0010
1000
0001
0000
,
1100
0000
0010
0000
0100
0001
1000
0000
,
0100
0010
0001
0010
0100
0000
1001
0000
,
0010
1100
0010
0101
,
1000
0000
0001
1000
0001
0000
1010
0000
,
0100
0000
0001
1000
0000
1000
0010
1000
,
0100
1000
0010
0100
0001
0000
1100
0000
,
0001
0000
1000
0010
0000
0010
0100
0001
,
1000
0100
1000
0010
0100
0000
1001
0000
,
0100
0000
1000
0001
0000
1000
0100
1000
,
0010
0000
0100
0010
0000
1000
0100
1000
,
0001
0010
0100
1000
,
0101
1100
1001
0010
,
1000
0100
0001
0000
0001
0100
1000
0000
,
0010
0100
0001
0100
0010
0000
1100
0000
,
0001
0010
1000
0000
1000
0010
0001
0000
,
1100
0101
1100
1100
,
0101
1100
0101
0000
,
1010
0011
1010
0011
,
1010
0000
1010
0000
0011
0010
0100
0000
,
0101
0000
0010
0000
1000
0100
0010
0000
,
0100
1000
0010
0000
0101
0000
0010
0000
,
1100
0000
0001
0100
0000
1010
0000
0001
,
0010
0000
1100
0000
0001
1000
0001
0000
,
1010
0000
0100
0001
0000
1100
0000
0001
,
0100
0000
1010
0000
0001
1000
0001
0000
,
1100
0000
0010
0100
0000
1001
0000
0100
,
0010
0001
0000
1000
0010
0000
0101
0000
,
0010
1000
0001
0000
1000
0010
0000
0100
,
0001
1100
0101
1001
,
0100
0000
1000
0010
0000
0100
0001
0000
,
1000
0100
0000
1000
0010
1000
0001
0000
,
0110
0000
1000
0100
0000
0010
0001
0000
,
1000
0010
0000
0100
0001
1000
0001
0000
,
1100
0000
0001
0010
0000
0100
1000
0010
,
0000
0100
0001
0100
0010
1000
0001
0000
,
1100
0000
0001
0100
0000
0010
1000
0000
,
2100
0001
3010
0101
,
0010
0000
1000
0001
0000
0110
0000
0001
,
1000
0100
0011
1100
,
0001
0000
0100
0010
0000
1100
0000
0001
,
0100
0010
1100
0101
,
0010
0000
1000
0001
0000
0110
0000
0001
,
0100
0010
0000
1000
0100
0000
0011
0000
,
0100
1000
0010
0000
0100
0001
1000
0000
,
0011
1100
1001
0010
,
0100
0000
0001
1000
0100
0000
1000
0010
,
0100
0010
1000
0001
0010
0000
1100
0000
,
0001
0000
0100
0010
1000
0000
0001
0010
,
0100
1000
0010
0100
0001
0000
1010
0000
,
0100
0000
0001
1000
0100
0000
0011
0000
,
0100
1000
0010
0100
0001
0000
1100
0000
,
0001
0100
0010
0100
0001
0100
0010
0100
,
0001
0010
0100
1000
0010
0100
0001
1000
,
0001
0000
0000
0000
;

//---------------dance-single - ----------------
#NOTES:
     dance-single:
     :
     Medium:
     6:
     0.439,0.408,0.357,0.010,0.000:
0000
0000
0000
0000
,
0000
0000
0000
0000
,
0000
0000
0000
0000
,
0000
0000
0000
0000
,
0001
0000
0000
1000
0001
0000
0000
1000
,
0000
0010
0000
1000
0001
0000
1001
0000
,
0100
0000
1000
0010
1000
0000
0000
0001
,
0000
1000
0000
0100
1000
0000
0001
0000
,
1100
0001
1000
0010
,
0100
0001
0100
0000
0010
0000
1100
0000
,
0001
0010
0100
1000
,
0001
0100
0001
0000
1000
0000
0011
0000
,
0100
0000
1000
0000
0001
1000
0001
0000
,
1000
0000
0010
0000
0100
0001
1000
0000
,
0001
1100
0001
1100
,
0010
0100
0100
1001
,
0100
0000
1000
0010
0000
0100
0000
0001
,
1000
0100
0011
0100
,
1000
0000
0010
0100
0000
0001
0000
1000
,
0100
1000
0101
0010
,
1000
0000
0001
0100
0000
0010
1000
0000
,
0001
0000
0010
0100
0000
1000
0010
0000
,
0100
1001
0010
1001
,
1000
0001
1000
0101
,
0010
1000
0000
0001
0100
0000
0010
0000
,
1000
0000
0100
0000
0010
0001
0010
0000
,
0100
1000
0010
0100
,
0101
1000
0101
0101
,
1000
0000
0101
0000
1000
0100
0000
0000
,
1010
0001
1010
0001
,
1010
0000
1010
0000
0001
1000
0100
0000
,
0010
0000
0001
0000
1000
0100
1000
0000
,
0001
0010
1100
0001
,
1000
0000
0010
0100
0000
0001
0000
1000
,
0100
0010
1001
1001
,
0010
0000
0100
0001
0000
1000
0000
0001
,
0100
0010
1100
1100
,
0001
0000
0010
0100
0000
1000
0000
0010
,
0100
0001
0000
1000
0100
0000
1000
0000
,
0000
0001
0100
0000
0010
1000
0000
0001
,
0010
1001
1001
0100
,
1000
0000
0001
0100
0000
0000
0010
0000
,
0000
1000
0000
0000
0100
0000
1000
0000
,
0010
0000
0100
0001
0000
0000
1000
0000
,
0001
0100
0000
0000
0010
0000
1000
0000
,
0001
0000
1000
0100
0000
0010
0001
0000
,
1000
0010
0000
0000
0100
0000
0100
0000
,
0001
0000
1000
0100
0000
1000
0010
0000
,
0200
1000
0010
1300
,
0101
0000
0010
1000
0000
0001
0000
1000
,
0100
0010
0101
1010
,
0001
0000
0100
0010
0000
1000
0000
0100
,
0010
0001
1100
0011
,
1000
0000
0010
0100
0000
0001
0000
1000
,
0100
1000
0000
0001
1000
0000
0110
0000
,
0001
1000
0100
0000
1000
0001
0000
0100
,
0010
1001
1001
0100
,
1000
0000
0010
0100
0000
0001
0000
0010
,
0100
0000
1000
0001
1000
0000
0001
0000
,
0100
0000
0010
1000
0000
0100
0000
0010
,
0001
0000
1000
0100
1000
0000
0010
0000
,
0100
0000
0001
1000
0000
0100
0000
1000
,
0001
0000
1000
0010
1000
0000
0001
0000
,
1100
0001
1010
0001
,
1000
0100
1000
0001
0100
0001
1000
0001
,
1000
0000
0000
0000
;

//---------------dance-single - ----------------
#NOTES:
     dance-single:
     :
     Easy:
     4:
     0.294,0.345,0.126,0.010,0.000: // measure 1
0000
0000
0000
0000
,  // measure 2
0000
0000
0000
0000
,  // measure 3
0000
0000
0000
0000
,  // measure 4
0000
0000
0000
0000
,  // measure 5
1000
0000
0001
0000
,  // measure 6
1000
0000
0001
0000
,  // measure 7
1000
0010
0100
0001
,  // measure 8
1000
0100
1000
0000
,  // measure 9
1001
0000
0100
0000
,  // measure 10
1000
1000
0010
0000
,  // measure 11
1001
0000
0100
0000
,  // measure 12
0010
0010
0001
0000
,  // measure 13
0110
0000
0001
0000
,  // measure 14
1000
1000
0001
0010
,  // measure 15
0100
0010
0100
0010
,  // measure 16
0100
0100
0000
1001
,  // measure 17
0001
0000
1000
0001
,  // measure 18
0010
0001
1000
0000
,  // measure 19
0110
0000
0001
1000
,  // measure 20
0100
1000
0001
0000
,  // measure 21
1000
0010
1000
0010
,  // measure 22
0100
0001
0100
0001
,  // measure 23
1000
0000
1000
0000
,  // measure 24
0001
1000
0001
1001
,  // measure 25
1000
0000
0100
0000
,  // measure 26
1000
0010
0100
0100
,  // measure 27
0001
0000
0010
0000
,  // measure 28
0001
1000
0001
0001
,  // measure 29
1000
0001
1000
0000
,  // measure 30
0010
0100
0010
0100
,  // measure 31
0010
0010
0100
0001
,  // measure 32
1000
0000
0100
0000
,  // measure 33
1000
0001
1001
0000
,  // measure 34
1000
0001
1000
0001
,  // measure 35
1000
0001
1000
1000
,  // measure 36
0001
0100
0001
1000
,  // measure 37
0001
0010
0001
0001
,  // measure 38
1000
0010
1000
0001
,  // measure 39
1000
0100
1000
0010
,  // measure 40
0100
0000
0001
0000
,  // measure 41
1000
0001
1001
0000
,  // measure 42
0010
0000
1000
0010
,  // measure 43
0000
0100
0001
1000
,  // measure 44
0001
0000
0010
0100
,  // measure 45
1000
0000
0001
1000
,  // measure 46
0010
0000
0100
0001
,  // measure 47
1000
0000
0100
1000
,  // measure 48
0010
0000
0100
0001
,  // measure 49
0020
0000
0000
0130
,  // measure 50
1000
0010
0100
0001
,  // measure 51
1000
0100
1000
1001
,  // measure 52
0001
0100
0010
1000
,  // measure 53
0100
1000
0010
0110
,  // measure 54
0100
0001
0100
0010
,  // measure 55
1000
0100
1000
0010
,  // measure 56
0100
0000
0001
0000
,  // measure 57
1001
1001
1001
0000
,  // measure 58
1000
0010
0100
0001
,  // measure 59
0010
0100
1000
0000
,  // measure 60
0001
0100
0010
1000
,  // measure 61
0100
0010
0001
0000
,  // measure 62
1000
0010
0100
0010
,  // measure 63
1000
0001
0010
0000
,  // measure 64
0100
1000
0001
0010
,  // measure 65
0100
1000
0010
0100
,  // measure 66
0001
0000
0000
0000
;

//---------------dance-single - ----------------
#NOTES:
     dance-single:
     :
     Beginner:
     2:
     0.186,0.282,0.029,0.000,0.000: // measure 1
0000
0000
0000
0000
,  // measure 2
0000
0000
0000
0000
,  // measure 3
0000
0000
0000
0000
,  // measure 4
0000
0000
0000
0000
,  // measure 5
1000
0000
0000
0000
,  // measure 6
0000
0000
0000
0000
,  // measure 7
0001
0000
0001
0000
,  // measure 8
0001
0000
0000
0000
,  // measure 9
1000
0000
0001
0000
,  // measure 10
1000
0000
0010
0000
,  // measure 11
0100
0000
0001
0000
,  // measure 12
0010
0000
0100
0000
,  // measure 13
1000
0000
0001
0000
,  // measure 14
1000
0000
0010
0000
,  // measure 15
0100
0100
0100
0100
,  // measure 16
0000
0000
0000
0000
,  // measure 17
0001
0000
1000
0000
,  // measure 18
0001
0001
0001
0000
,  // measure 19
1000
0000
0100
0000
,  // measure 20
1000
1000
1000
0000
,  // measure 21
0010
0000
0100
0000
,  // measure 22
0001
0000
1000
0000
,  // measure 23
0001
0000
1000
0000
,  // measure 24
0001
0000
0000
0000
,  // measure 25
1000
0000
0010
0000
,  // measure 26
0100
0000
0001
0000
,  // measure 27
1000
0000
0100
0000
,  // measure 28
1000
0000
0001
0001
,  // measure 29
0001
0000
1000
0000
,  // measure 30
0001
0000
1000
0000
,  // measure 31
0001
0001
0001
0000
,  // measure 32
1000
0000
0001
0000
,  // measure 33
1000
1000
1000
0000
,  // measure 34
0010
0000
0100
0000
,  // measure 35
0001
0001
0001
0000
,  // measure 36
1000
0000
0100
0000
,  // measure 37
1000
1000
1000
0000
,  // measure 38
0010
0000
0100
0000
,  // measure 39
0001
0000
1000
0000
,  // measure 40
0001
0000
1000
0000
,  // measure 41
0001
0001
0001
0000
,  // measure 42
1000
0000
0100
0000
,  // measure 43
1000
0000
0010
0000
,  // measure 44
0100
0000
0001
0000
,  // measure 45
1000
0000
0100
0000
,  // measure 46
1000
0000
0010
0000
,  // measure 47
0100
0000
0001
0000
,  // measure 48
0010
0000
0100
0000
,  // measure 49
1000
0000
0000
0000
,  // measure 50
0001
0000
1000
0000
,  // measure 51
0001
0001
0001
0000
,  // measure 52
1000
0000
0010
0000
,  // measure 53
0100
0100
0100
0000
,  // measure 54
0001
0000
0010
0000
,  // measure 55
0100
0000
1000
0000
,  // measure 56
0010
0000
0100
0000
,  // measure 57
1001
1001
1001
0000
,  // measure 58
0001
0000
1000
0000
,  // measure 59
0010
0010
0010
0000
,  // measure 60
0100
0000
0001
0000
,  // measure 61
0010
0010
0010
0000
,  // measure 62
0100
0000
1000
0000
,  // measure 63
0010
0010
0010
0000
,  // measure 64
0100
0000
0001
0000
,  // measure 65
1000
1000
1000
0000
,  // measure 66
0001
0000
0000
0000
;
