#TITLE:Dances with Snow Fairies;
#SUBTITLE:;
#ARTIST:Dr. Honda;
#TITLETRANSLIT:;
#SUBTITLETRANSLIT:;
#ARTISTTRANSLIT:;
#CREDIT:Xythar;
#BANNER:Dances with Snow Fairies.png;
#BACKGROUND:Dances with Snow Fairies-bg.png;
#LYRICSPATH:;
#CDTITLE:iidx.png;
#MUSIC:Dances with Snow Fairies.ogg;
#OFFSET:-4.264;
#SAMPLESTART:81.398;
#SAMPLELENGTH:12.420;
#SELECTABLE:YES;
#DISPLAYBPM:154.000;
#BPMS:0.000=77.000,2.000=154.000,256.000=308.000,258.000=256.667,259.667=205.333,261.000=154.000,276.000=231.000,278.000=154.000;
#STOPS:276.000=0.097
,276.750=0.098
,277.500=0.065
;
#BGCHANGES:;

//---------------dance-single - ----------------
#NOTES:
     dance-single:
     :
     Hard:
     9:
     0.635,0.578,0.079,0.087,0.460:
0000
0000
0000
0000
,
1000
0100
1000
0010
0100
0001
0000
0001
,
1000
0010
0000
0010
0100
0001
0010
0100
,
0010
0001
1000
0010
1000
0001
0000
0100
,
0010
1000
0000
1000
0001
0010
0001
1000
,
0010
0100
1000
0100
0010
1000
0000
0001
,
0010
0100
0000
1000
0010
0100
0010
1000
,
0100
0010
0001
0100
0010
1000
0000
0001
,
0100
0010
0000
1000
0100
0010
0001
1000
,
0001
0100
1000
0100
0001
0010
0000
0100
,
1000
0010
0000
0100
0001
0010
0100
1000
,
0001
0010
1000
0010
0001
0100
0000
0010
,
1000
0100
0000
0010
0001
1000
0001
0010
,
0100
1000
0010
0100
0010
1000
0000
0100
,
0010
0001
0000
0100
0010
1000
0001
0010
,
0001
1000
0010
1000
0001
0010
0100
1000
,
0001
0100
0010
1000
0001
0010
0100
1000
,
0001
0100
0000
0010
0000
1000
0000
0001
0000
1000
0000
0010
0000
1000
0000
0001
,
0000
1000
0000
0010
0000
1000
0000
0001
0000
1000
0100
0000
0010
0000
0001
0000
,
0100
1000
0000
0100
0000
0010
0000
0100
0000
0001
0000
0100
0000
0010
0000
0100
,
0000
1000
0000
0100
0000
0010
0000
0100
0000
0001
1000
0000
0100
0000
0010
0000
,
0001
1000
0000
0010
0000
1000
0000
0001
0000
0010
0000
0001
0000
1000
0000
0010
,
0000
1000
0000
0001
0000
0010
0000
0100
0000
1000
0010
0000
0100
0001
0100
0000
,
1000
0100
0001
0100
1000
0100
0001
0100
,
1000
0100
0001
0010
0200
0000
0000
0300
,
1000
0000
0010
0000
0100
0000
0001
1000
0000
0001
1000
0000
0100
0000
0010
0000
,
0001
0000
1000
0000
0010
0000
0100
0001
0000
0100
0001
0000
1000
0000
0100
0000
,
0010
0000
0100
0000
1000
0000
0001
0100
0000
0001
0100
0000
0010
0000
1000
0000
,
0001
0000
0010
0000
0001
0000
1000
0010
0000
1000
0010
0000
0100
0000
0001
0000
,
1000
0000
0100
0000
0010
0000
0001
1000
0000
0001
1000
0000
0001
0000
0100
0000
,
0010
0000
1000
0000
0100
0000
0010
0100
0000
0010
0100
0000
1000
0000
0010
0000
,
1000
0000
0001
0000
0010
0000
0100
1000
0000
0100
1000
0000
0001
0000
0100
0000
,
0001
0000
1000
0000
0100
0000
0010
0001
0000
0010
0001
0000
1000
0000
0010
0000
,
1000
0000
0100
0000
0010
0000
0001
0100
0000
0001
1000
0000
0001
0000
1000
0000
,
0010
0000
1000
0000
0001
0000
1000
0100
0000
1000
0001
0000
1000
0001
1000
0000
,
0001
0000
0100
0000
0010
0000
1000
0010
0000
1000
0001
0000
0010
0000
0100
0000
,
1000
0000
0001
0000
0100
0000
0010
1000
0000
0001
1000
0000
0001
1000
0001
0000
,
1000
0000
0010
0000
0100
0000
1000
0100
0000
0010
0100
0000
0001
0000
0010
0000
,
0100
0000
1000
0000
0010
0000
0100
1000
0000
0100
0010
0000
0100
0010
0100
0000
,
0001
0000
1000
0000
0100
0000
0001
0100
0000
0010
0100
0000
1000
0000
0010
0000
,
0100
0000
0001
0000
0010
0000
0100
1000
0000
0000
0001
0000
1000
0000
0010
0000
,
0100
0000
0001
0000
0010
0000
0100
1000
0000
0000
0001
0000
0100
0000
0010
1000
,
0000
0000
0001
0000
1000
0000
0010
0100
0000
0000
0001
0000
1000
0000
0100
0010
,
0000
0000
0001
0000
0100
0000
1000
0100
0000
0000
0001
0000
1000
0000
0100
0010
,
0000
0001
1000
0010
0100
1000
0100
0010
,
1000
0000
0100
0000
0010
0000
0100
1000
0000
0000
0001
0000
0010
0000
0100
1000
,
0000
0000
0001
0000
1000
0000
0010
0100
0000
0000
0010
0000
1000
0000
0001
0010
,
0000
0000
0100
0000
1000
0000
0001
0100
0000
0000
1000
0000
0100
0000
0001
1000
,
0000
0001
0100
0010
1000
0100
0010
0001
,
2000
0000
0000
0100
0000
3100
0000
0000
1000
0000
0010
0000
0100
0000
0001
0000
,
0020
0000
0000
0100
0000
0130
0000
0000
1000
0000
0001
0000
0100
0000
0001
0000
,
2000
0000
0000
0010
0000
3010
0000
0000
0100
0000
0001
0000
0010
0000
0001
0000
,
0200
0000
0000
0010
0000
0310
0000
0000
1000
0000
0100
0000
0010
0000
0001
0000
,
2000
0000
0000
0010
0000
3010
0000
0000
0100
0000
0001
0000
0010
0000
0001
0000
,
2000
0000
0000
0100
0000
3100
0000
0000
0010
0000
0001
0000
0100
0000
0010
0000
,
2000
0000
0000
0001
0000
3001
0000
0000
1000
0000
0010
0000
0100
0000
0010
0000
,
2000
0000
0000
0100
0000
3100
0000
0000
0010
0000
0001
0000
1000
0000
0010
0000
,
1001
0000
0000
0000
0100
0000
0000
0000
1000
0010
1000
0000
0000
0000
0001
0000
,
0000
0100
0000
0010
0000
1000
0000
0001
,
0010
0000
0000
0000
0100
0000
0000
0000
1000
0001
1000
0000
0000
0000
0010
0000
,
0000
0100
0000
0001
0000
0000
0000
0000
,
1100
0000
0000
0000
0001
0000
0000
0000
0100
0010
0100
0000
0000
0000
0001
0000
,
0000
0010
0000
0100
1000
0000
0001
0100
,
0110
0000
0000
1000
0000
0000
0001
0000
0100
0000
0010
0000
,
2002
0000
0000
0000
,
0000
0000
3003
0000
1000
0100
0010
0001
,
0100
0010
1000
0001
0010
0100
1000
0001
,
1000
0010
0000
1010
0000
0000
0001
0000
1000
0000
0010
0000
0100
0000
0010
0000
,
1000
0100
0010
0001
1000
0010
0100
0010
,
1001
0000
0000
1100
0000
0000
0101
0000
0001
0000
0100
0000
1000
0000
0100
0000
,
0001
0010
0100
1000
0010
0001
0010
1000
,
0001
1000
0000
1010
0000
0000
0100
0000
0001
0000
0010
0000
0100
0000
1000
0000
,
0001
0000
0100
0000
0010
0000
1000
0000
0001
1000
0000
0010
0000
1000
0000
0001
,
0000
1001
0000
0000
0100
0000
0010
0000
1000
0000
0000
0000
0000
0000
0000
0000
;

//---------------dance-single - ----------------
#NOTES:
     dance-single:
     X. Ythar:
     Challenge:
     12:
     1.000,1.000,0.173,0.016,1.000:
0000
0000
0000
0000
0000
0000
0000
0000
0000
0000
0000
0000
M000
0M00
M000
0M00
M000
0M00
M000
0M00
M000
0M00
M000
0M00
,
M001
0010
0100
0010
0001
1000
0000
0001
0100
0010
0100
0001
0000
1000
0100
0010
,
0100
1000
0000
0001
1000
0010
1000
0100
0000
0010
0001
0100
0010
0100
0001
0010
,
0100
1000
0001
0100
0001
1000
0000
0100
0010
0001
1000
0001
0000
1000
0010
0100
,
0010
1000
0000
0001
0010
0100
1000
0001
0000
1000
0001
0100
0001
1000
0100
0010
,
0001
1000
0010
1000
0001
0010
0000
0001
0100
0010
0100
0001
0000
1000
0010
0100
,
0010
1000
0001
1000
0100
1000
0001
0100
0000
0010
1000
0001
1000
0010
1000
0001
,
1000
0100
0010
0001
0100
0010
1000
0001
0010
0100
1000
0010
0100
0001
1000
0100
,
0010
0000
0000
0001
0000
0000
0100
0000
0000
0010
0000
0000
1000
0000
0000
0010
0000
0000
1000
0000
0000
0100
0000
0000
1000
0000
0100
0000
1000
0000
0100
0000
1000
0000
0100
0000
1000
0000
0001
0000
1000
0000
0001
0000
1000
0000
0001
0000
,
1000
0010
0100
0010
1000
0001
0000
1000
0100
1000
0001
0100
0010
0100
0001
1000
,
0000
0001
0010
0100
1000
0010
1000
0001
0000
1000
0100
1000
0001
0100
0001
1000
,
0000
0001
0100
0010
1000
0010
1000
0100
1000
0001
0000
1000
0100
1000
0001
0100
,
0010
0100
0000
0001
0010
0100
1000
0001
0000
1000
0010
1000
0001
0010
0001
1000
,
0010
0100
0010
1000
0100
0010
0001
1000
0010
1000
0001
0010
0100
1000
0000
0001
,
0100
0001
1000
0100
0010
0001
1000
0001
0000
1000
0010
1000
0001
0010
0100
1000
,
0001
0100
0010
0100
0001
0010
0100
1000
0001
0100
0010
1000
0100
1000
0010
0100
,
0001
0000
0000
0010
0000
0000
0100
0000
0000
1000
0000
0000
0010
0000
0000
0100
0000
0000
0010
0000
0000
1000
0000
0000
0010
0000
1000
0000
0010
0000
1000
0000
0010
0000
1000
0000
0001
0000
1000
0000
0001
0000
1000
0000
0001
0000
1000
0000
,
0001
1000
0010
1000
0000
0001
0010
0001
0000
1000
0100
1000
0000
0001
0100
0001
,
0000
0100
0010
0100
0000
0001
1000
0001
0000
1000
0100
1000
0001
0100
0001
0000
,
1000
0100
1000
0010
0000
0100
0001
0100
0000
0001
1000
0001
0000
1000
0100
1000
,
0000
0000
0000
0001
0000
0000
0010
0000
0000
0001
0000
0000
0000
0000
0000
0100
0000
0000
0010
0000
0000
0100
0000
0000
0001
0000
0100
0000
0001
0000
0100
0000
0001
0000
0100
0000
0010
0000
0100
0000
0010
0000
0100
0000
0010
0000
0100
0000
,
0010
1000
0001
1000
0000
1000
0001
0010
0000
0010
0100
1000
0000
1000
0001
0100
,
0000
0100
0010
1000
0000
1000
0001
0010
0000
0010
0001
1000
0010
1000
0001
0000
,
1000
0100
0010
0000
0001
0100
0010
0000
1000
0001
0010
0000
0100
1000
0001
1000
,
0010
0000
0000
1000
0000
0000
0001
0000
0000
0000
0000
0000
0100
0000
0000
0010
0000
0000
1000
0000
0000
0000
0000
0000
1000
0000
0100
0000
1000
0000
0100
0000
0010
0000
0100
0000
0010
0000
0100
0000
0010
0000
0001
0000
0010
0000
0001
0000
,
1000
0001
0000
1000
0010
1000
0001
0010
0000
0100
1000
0001
1000
0010
0000
1000
,
0100
0010
0000
0001
0010
0001
1000
0010
0000
0100
0010
1000
0010
0100
0000
0001
,
0010
0100
0000
1000
0010
1000
0001
0010
0000
0100
1000
0001
1000
0010
0000
0100
,
0010
1000
0000
0001
0010
0001
1000
0010
0000
0100
0001
0010
0001
1000
0000
0001
,
0100
0010
0000
1000
0100
1000
0001
0010
0000
0100
1000
0001
1000
0010
0000
0100
,
0010
1000
0000
0001
0010
0100
1000
0010
0000
0100
0010
1000
0010
0100
0000
0010
,
1000
0001
0000
1000
0100
1000
0001
0100
0000
0010
1000
0001
1000
0010
0000
0100
,
0001
0000
0000
1000
0000
0000
0000
0000
0000
0001
0000
0000
0010
0000
0000
0100
0000
0000
1000
0000
0000
0010
0000
0000
1000
0000
0010
0000
1000
0000
0010
0000
1000
0000
0010
0000
0100
0000
0010
0000
0100
0000
0010
0000
0100
0000
0010
0000
,
0100
0010
1000
0001
1000
0000
0001
0010
0000
0100
1000
0001
1000
0010
0000
0100
,
0010
1000
0010
0100
0001
0000
1000
0100
0000
0010
0001
1000
0010
1000
0000
0001
,
0100
0010
0100
0001
1000
0000
0001
0010
0000
0100
1000
0010
1000
0001
0000
1000
,
0100
1000
0010
1000
0001
0000
1000
0100
0000
0010
0001
1000
0010
1000
0000
0001
,
0100
0010
1000
0001
1000
0000
0001
0010
0000
0100
1000
0010
1000
0001
0000
1000
,
0100
1000
0010
1000
0001
0000
0100
0010
0000
0100
0010
1000
0001
1000
0000
0001
,
0010
0100
1000
0010
0100
0000
0010
1000
0000
0010
1000
0001
1000
0010
0000
0100
,
0001
0000
0000
0010
0000
0000
0001
0000
0000
1000
0000
0000
0010
0000
0000
0000
0000
0000
1000
0000
0000
0010
0000
0000
1000
0000
0010
0000
1000
0000
0010
0000
0100
0000
0010
0000
0100
0000
0010
0000
0100
0000
0001
0000
0100
0000
0001
0000
,
1000
0100
0010
0001
0100
0010
1000
0001
0000
1000
0100
1000
0001
0100
0010
1000
,
0000
0001
0010
0001
1000
0100
0010
0001
0000
0100
0010
0100
0001
0010
0100
1000
,
0000
0010
0100
0010
1000
0100
0010
0001
0000
1000
0010
1000
0001
0010
0100
1000
,
0000
0001
0100
0010
1000
0100
0010
0001
1000
0010
0100
0001
0010
0100
1000
0010
,
0100
0001
0100
0001
1000
0100
0010
0001
0000
1000
0010
1000
0001
0010
0100
1000
,
0000
0001
0100
0001
1000
0100
0010
0001
0000
1000
0010
1000
0001
0100
0010
1000
,
0000
0001
0010
0001
1000
0010
0100
0001
0000
1000
0100
1000
0001
0100
0010
1000
,
0000
0000
0000
0001
0000
0000
0010
0000
0000
0001
0000
0000
1000
0000
0000
0010
0000
0000
0100
0000
0000
0010
0000
0000
1000
0000
0010
0000
1000
0000
0010
0000
1000
0000
0010
0000
1000
0000
0001
0000
1000
0000
0001
0000
1000
0000
0001
0000
,
1000
0100
0010
0001
0100
0010
1000
0001
0000
0010
0100
1000
0010
0100
0001
1000
,
0000
0100
0010
0001
0100
0010
1000
0001
0000
1000
0100
0010
0001
0100
0010
1000
,
0000
0001
0010
0100
1000
0010
0100
0001
0000
1000
0100
0010
0001
0100
0010
1000
,
0000
0001
0010
0100
0010
0001
0100
0010
1000
0001
0010
0100
1000
0010
0100
0001
,
1000
0100
1000
0010
0100
0001
0010
0001
0000
1000
0010
1000
0001
0010
0100
1000
,
0000
0000
0010
0000
0100
0000
0001
0100
0001
0000
1000
0100
1000
0000
0001
1000
0001
0000
1000
0000
0010
1000
0010
1000
0010
0000
0100
0000
0001
0100
0001
0100
,
0001
1000
0100
1000
0001
0100
0010
1000
0000
0001
0010
0100
1000
0010
0100
0001
,
0000
0000
1000
0000
0100
0000
1000
0001
1000
0000
0010
0000
0100
0010
0100
0010
0100
0000
0001
0000
0010
0001
0010
0001
0010
0000
0100
0000
1000
0000
0000
0000
,
1001
0000
0000
0000
1100
0000
0000
0000
0001
0100
0001
0000
0000
0000
1000
0000
,
0000
0010
0000
1000
0000
0001
0000
0010
,
0100
0000
0000
0000
1001
0000
0000
0000
0001
1000
0001
0000
0000
0000
1000
0000
,
0000
0000
0000
0010
0000
0000
0000
0000
0000
0100
0000
0000
0000
0000
0000
0000
0000
0000
0001
1000
0001
1000
0001
1000
,
0001
0000
0000
0000
0110
0000
0000
0000
0010
0100
0010
0000
0000
0000
1000
0000
,
0000
0001
0000
1000
0010
0000
0100
0001
,
1001
0000
0000
1000
0000
0000
0101
0000
0110
0000
1010
0000
,
2MM2
0M00
00M0
0M00
,
00M0
0000
0000
0000
3M03
0000
0000
0000
1000
0100
0010
0100
1000
0001
0100
0010
,
1000
0001
0010
0100
0010
0001
1000
0010
0100
0001
0010
0100
0010
0001
1000
0010
,
0100
0100
0000
0110
0000
0000
1001
0000
0001
0100
0010
0100
0001
0010
0100
1000
,
0010
0100
0010
1000
0100
0010
0001
1000
0010
0100
0010
1000
0100
0010
0001
0000
,
0011
0000
0000
1100
0000
0000
1001
0000
1000
0100
0010
0100
1000
0010
0100
0001
,
1000
0010
0100
0010
1000
0001
0010
0100
1000
0001
0100
0001
1000
0100
0010
0001
,
1000
1000
0000
1001
0000
0000
1010
0000
0001
0010
0100
1000
0001
1000
0100
0010
,
0001
1000
0001
0010
0100
1000
0001
1000
0001
0001
0000
1010
0000
0101
0000
1100
,
0000
0011
0000
0000
1001
0000
0110
0000
0001
0000
0000
0000
0000
0000
0000
0000
;

//---------------dance-single - ----------------
#NOTES:
     dance-single:
     :
     Medium:
     8:
     0.507,0.491,0.031,0.236,0.102:
0000
0000
0000
0000
,
1000
0001
0010
0000
0100
1000
0000
0001
,
0100
0000
0010
1000
0000
0001
0010
0001
,
1000
0010
0100
0000
0010
1000
0000
0001
,
1000
0000
0100
0010
0000
0001
0100
0001
,
1000
0100
0010
0000
0100
1000
0000
0001
,
0100
0000
0010
1000
0000
0001
0010
0001
,
1000
0010
0100
0010
1000
0100
0010
0001
,
0100
1000
0100
0001
0020
0000
0230
0000
,
1300
0010
0100
0010
0100
0001
0000
1000
,
0100
0000
0010
0001
0000
1000
0010
1000
,
0001
0010
0001
1000
0100
0010
0000
0001
,
0100
0000
0010
1000
0000
0001
0010
0001
,
1000
0010
0100
0001
0010
0100
0000
1000
,
0010
0000
0100
0010
0000
1000
0100
1000
,
0001
0100
0010
1000
0001
0010
0100
1000
,
0010
0100
0001
1000
0200
0000
0320
0000
,
0031
0100
0000
0010
0000
1000
0000
0001
,
0000
0010
0000
0100
0000
1000
0010
1000
,
0001
0100
0000
0010
0000
1000
0000
0100
,
0000
0010
0000
0001
0100
0010
1000
0100
,
0010
0001
0000
1000
0000
0010
0000
1000
,
0000
0001
0000
0010
0000
0100
1000
0001
,
1000
0010
0100
0001
,
1000
0100
2000
3020
,
0130
0000
0001
0000
0010
0000
0000
0100
0000
0000
1000
0000
0010
0000
0000
0000
,
1000
0000
0001
0000
0010
0000
0000
0100
0000
0000
1000
0000
0001
0000
0000
0000
,
1000
0000
0010
0000
0100
0000
0000
0001
0000
0000
0100
0000
0010
0000
0000
0000
,
1000
0000
0100
0000
0010
0000
0000
0001
0000
0000
1000
0000
0010
0000
0000
0000
,
0100
0000
0010
0000
1000
0000
0000
0001
0000
0000
1000
0000
0100
0000
0000
0000
,
0010
0000
0001
0000
1000
0000
0000
0010
0000
0000
1000
0000
0001
0000
0000
0000
,
0010
0000
0100
0000
1000
0000
0000
0010
0000
0000
0100
0000
0001
0000
0000
0000
,
1000
0000
0100
0000
0010
0000
0000
0001
0000
0000
1000
0000
0010
0000
0000
0000
,
0100
0000
0001
0000
1000
0000
0000
0001
0000
0000
1000
0000
0010
0000
0000
0000
,
0100
0000
0001
0000
0010
0000
0000
0100
0000
0000
1000
0000
0010
0000
0000
0000
,
0100
0000
0001
0000
1000
0000
0000
0100
0000
0000
0010
0000
0001
0000
0000
0000
,
0100
0000
1000
0000
0100
0000
0000
0010
0000
0000
1000
0000
0001
0000
0000
0000
,
0010
0000
0100
0000
1000
0000
0000
0010
0000
0000
0100
0000
0001
0000
0000
0000
,
0010
0000
0100
0000
1000
0000
0000
0001
0000
0000
0100
0000
0010
0000
0000
0000
,
0001
0000
0010
0000
1000
0000
0000
0001
0000
0000
1000
0000
0100
0000
0000
0000
,
0010
0000
0001
0000
0100
0000
0000
0010
0200
0000
0000
0000
0302
0000
0000
0000
,
1003
0100
0010
0001
0000
0100
0010
1000
,
0000
0001
0010
0100
0000
1000
0010
0100
,
0000
1000
0100
0001
0000
1000
0010
0001
,
0000
0010
1000
0100
0001
0100
1000
0010
,
0100
0001
1000
0100
0000
0010
0001
0100
,
0000
0010
1000
0100
0000
1000
0001
0100
,
0000
0010
1000
0001
0000
0010
0100
1000
,
0000
0001
0100
1000
0100
0001
0010
0100
,
2000
0100
3002
0203
,
0320
0001
1000
0100
,
2030
0001
0010
3200
,
0320
0100
0032
0203
,
0320
0001
2030
3002
,
0023
1000
0100
0001
,
0230
0001
0010
2300
,
3020
0001
1000
0230
,
0301
0000
0001
0000
1000
0020
0000
0100
,
0000
0130
0000
0001
0000
0010
0000
0001
,
1000
0000
1000
0000
0010
0200
0000
0001
,
0000
0301
0000
0010
0000
0000
0100
0000
,
1001
0000
1000
0000
0010
0200
0000
0001
,
0000
0301
0000
0010
0100
0000
1000
0001
,
1001
0000
0000
1000
0000
0000
0001
0000
0100
0000
0010
0000
,
2002
0000
0000
0000
,
0000
0000
3003
0000
1000
0100
1000
0010
,
0100
0001
0100
0010
1000
0100
0010
0001
,
1000
0000
0000
0001
0000
0000
0100
0000
0010
0000
1000
0000
0001
0000
0010
0000
,
0100
1000
0010
0100
0010
1000
0100
0010
,
0001
0000
0000
1000
0000
0000
1001
0000
1000
0000
0010
0000
0100
0000
0010
0000
,
1000
0100
0010
0001
0100
0010
0100
0001
,
0010
0000
0000
0100
0000
0000
1000
0000
0001
0000
0100
0000
1000
0000
0100
0000
,
0001
0000
0010
0000
0100
0000
1000
0000
0001
1000
0000
0010
0000
0100
0000
0001
,
0000
1000
0000
0000
0100
0000
0010
0000
0001
0000
0000
0000
0000
0000
0000
0000
;

//---------------dance-single - ----------------
#NOTES:
     dance-single:
     :
     Easy:
     4:
     0.325,0.376,0.039,0.189,0.000: // measure 1
0000
0000
0000
0000
,  // measure 2
1000
0010
0100
0010
,  // measure 3
1000
0100
0010
0001
,  // measure 4
1000
0010
1000
0001
,  // measure 5
0010
0100
1000
0010
,  // measure 6
1000
0100
0010
0001
,  // measure 7
0100
0010
0100
0001
,  // measure 8
0010
0100
1000
0010
,  // measure 9
0100
0001
2000
0000
,  // measure 10
3001
0100
0010
1000
,  // measure 11
0001
0010
0001
1000
,  // measure 12
0010
0100
0010
1000
,  // measure 13
0100
0010
0001
0100
,  // measure 14
0010
1000
0001
0010
,  // measure 15
0100
1000
0010
0100
,  // measure 16
0010
1000
0100
0010
,  // measure 17
0001
1000
0002
0000
,  // measure 18
1003
1000
1000
1000
,  // measure 19
1000
1000
1000
1000
,  // measure 20
0010
0010
0010
0010
,  // measure 21
0010
0010
0010
0010
,  // measure 22
0100
0100
0100
0100
,  // measure 23
0100
0100
0100
0100
,  // measure 24
0001
0001
0001
0001
,  // measure 25
0001
0001
0002
0000
,  // measure 26
1003
0010
1000
0100
,  // measure 27
0010
0001
0100
0010
,  // measure 28
0100
0001
0010
0100
,  // measure 29
1000
0010
1000
0001
,  // measure 30
1000
0100
0010
0001
,  // measure 31
0100
1000
0100
0001
,  // measure 32
1000
0100
0010
0001
,  // measure 33
0100
0010
2000
0000
,  // measure 34
3001
0100
0010
1000
,  // measure 35
0100
1000
0010
0100
,  // measure 36
0001
0010
0100
1000
,  // measure 37
0010
0100
0010
1000
,  // measure 38
0100
0010
0001
0100
,  // measure 39
0010
1000
0100
0010
,  // measure 40
0001
0100
0010
1000
,  // measure 41
0001
0010
0200
0000
,  // measure 42
1300
0010
1000
0001
,  // measure 43
0010
0001
1000
0010
,  // measure 44
0100
0001
0010
0100
,  // measure 45
1000
0010
0100
0001
,  // measure 46
1000
0100
0010
0001
,  // measure 47
0100
1000
0100
0001
,  // measure 48
1000
0100
0001
0100
,  // measure 49
1000
0010
0100
0001
,  // measure 50
2000
0000
3200
0320
,  // measure 51
0032
0000
0000
0000
,  // measure 52
2003
0000
0000
3020
,  // measure 53
0230
0000
0302
0023
,  // measure 54
0230
0000
2300
3020
,  // measure 55
0230
0000
0000
0000
,  // measure 56
0302
0000
0000
0023
,  // measure 57
0230
0000
0000
2300
,  // measure 58
3010
0010
0100
0100
,  // measure 59
0001
0001
1000
1000
,  // measure 60
0001
0001
0100
0100
,  // measure 61
0010
0010
1000
0000
,  // measure 62
1001
1000
0001
0001
,  // measure 63
1000
1000
0010
0100
,  // measure 64
0010
0000
0110
0000
,  // measure 65
2002
0000
0000
0000
,  // measure 66
0000
3003
1000
0100
,  // measure 67
0010
0001
0100
0010
,  // measure 68
1000
1000
0001
0100
,  // measure 69
0010
1000
0100
0010
,  // measure 70
1001
0000
1000
0010
,  // measure 71
0100
0010
1000
0100
,  // measure 72
0010
0010
0001
0100
,  // measure 73
0010
1000
1001
0000
,  // measure 74
0000
1000
0001
0000
;

//---------------dance-single - ----------------
#NOTES:
     dance-single:
     :
     Beginner:
     1:
     0.145,0.173,0.039,0.102,0.000: // measure 1
0000
0000
0000
0000
,  // measure 2
1000
0000
1000
0000
,  // measure 3
1000
0000
1000
0000
,  // measure 4
0001
0000
0001
0000
,  // measure 5
0001
0000
0001
0000
,  // measure 6
0100
0000
0100
0000
,  // measure 7
0100
0000
0100
0000
,  // measure 8
0010
0000
0010
0000
,  // measure 9
0010
0000
0010
0000
,  // measure 10
1000
0000
0001
0000
,  // measure 11
1000
0000
0001
0000
,  // measure 12
0010
0000
0100
0000
,  // measure 13
0010
0000
0100
0000
,  // measure 14
1000
0000
0010
0000
,  // measure 15
1000
0000
0010
0000
,  // measure 16
1000
0000
0100
0000
,  // measure 17
0010
0000
0001
0000
,  // measure 18
2000
0000
0000
0000
,  // measure 19
3000
0000
0000
0000
,  // measure 20
0002
0000
0000
0000
,  // measure 21
0003
0000
0000
0000
,  // measure 22
0200
0000
0000
0000
,  // measure 23
0300
0000
0000
0000
,  // measure 24
0020
0000
0000
0000
,  // measure 25
0030
0000
0000
0000
,  // measure 26
1000
0000
0100
0000
,  // measure 27
1000
0000
0100
0000
,  // measure 28
0010
0000
0001
0000
,  // measure 29
0010
0000
0001
0000
,  // measure 30
1000
0000
0010
0000
,  // measure 31
1000
0000
0010
0000
,  // measure 32
0100
0000
0001
0000
,  // measure 33
0100
0000
0001
0000
,  // measure 34
1000
0000
0100
0000
,  // measure 35
0010
0000
0001
0000
,  // measure 36
1000
0000
0100
0000
,  // measure 37
0010
0000
0001
0000
,  // measure 38
1000
0000
0010
0000
,  // measure 39
0100
0000
0001
0000
,  // measure 40
1000
0000
0010
0000
,  // measure 41
0100
0000
0001
0000
,  // measure 42
1000
0000
0100
0000
,  // measure 43
1000
0000
0010
0000
,  // measure 44
1000
0000
0100
0000
,  // measure 45
1000
0000
0100
0000
,  // measure 46
0010
0000
0001
0000
,  // measure 47
0100
0000
0001
0000
,  // measure 48
0010
0000
0001
0000
,  // measure 49
0100
0000
0010
0000
,  // measure 50
2000
0000
0000
0000
,  // measure 51
3200
0000
0000
0000
,  // measure 52
0320
0000
0000
0000
,  // measure 53
0032
0000
0000
0000
,  // measure 54
2003
0000
0000
0000
,  // measure 55
3020
0000
0000
0000
,  // measure 56
0230
0000
0000
0000
,  // measure 57
0302
0000
0000
0000
,  // measure 58
2003
0000
0000
0000
,  // measure 59
0000
0000
0000
0000
,  // measure 60
3000
0000
0000
0000
,  // measure 61
0000
0000
0000
0000
,  // measure 62
1001
0000
0000
0000
,  // measure 63
0000
0000
0000
0000
,  // measure 64
1001
0000
0000
0000
,  // measure 65
0000
0000
0000
0000
,  // measure 66
0000
0000
0001
0000
,  // measure 67
0100
0000
0010
0000
,  // measure 68
1001
0000
1000
0000
,  // measure 69
0100
0000
0010
0000
,  // measure 70
1001
0000
0001
0000
,  // measure 71
0100
0000
0010
0000
,  // measure 72
1000
0000
0001
0000
,  // measure 73
0010
0000
1001
0000
,  // measure 74
0000
0000
1000
0000
;
