#TITLE:DAYDREAMER;
#SUBTITLE:;
#ARTIST:ピンクターボ;
#TITLETRANSLIT:;
#SUBTITLETRANSLIT:;
#ARTISTTRANSLIT:Pink Turbo;
#CREDIT:Xythar;
#BANNER:DAYDREAMER.png;
#BACKGROUND:DAYDREAMER-bg.png;
#LYRICSPATH:;
#CDTITLE:iidx.png;
#MUSIC:DAYDREAMER.ogg;
#OFFSET:-0.387;
#SAMPLESTART:39.120;
#SAMPLELENGTH:19.612;
#SELECTABLE:YES;
#BPMS:0.000=195.000;
#STOPS:;
#BGCHANGES:;

//---------------dance-single - ----------------
#NOTES:
     dance-single:
     :
     Hard:
     8:
     0.558,0.576,0.109,0.093,0.000:
0000
0000
0000
0000
,
0000
0000
0000
0000
,
0000
0000
0000
0000
,
0000
0000
0000
0000
,
1000
0000
0001
0000
0100
0000
0000
0010
,
0000
1000
0100
0000
0010
0001
0100
0000
,
0010
0000
1000
0000
0100
0000
0000
0010
,
0000
0001
0100
0000
0010
1000
0001
0000
,
1000
0100
0010
0100
0000
1000
0010
0100
,
0000
0001
1000
0010
1000
0001
0010
0000
,
0100
1000
0001
1000
0000
0010
0100
0001
,
0000
1000
0010
1000
0001
0100
0010
0000
,
1000
0100
0010
0000
0001
0000
1000
0010
,
0000
0100
0001
0000
1000
0000
0010
0000
,
0100
0001
0010
0000
0100
0000
1000
0010
,
0000
1000
0100
1000
0001
0000
1000
0000
,
1001
0001
0001
0001
,
0101
0100
0100
0100
,
1010
0010
0010
0010
,
1000
0100
0010
0001
0100
0010
1000
0000
,
1100
0100
0100
0100
,
0011
0001
0001
0001
,
1010
1000
1000
1000
,
0001
0100
0010
1000
0001
0000
1000
0000
,
0100
0010
0100
0010
0001
0000
1000
0000
,
0010
0000
0100
0001
1000
0000
0100
0000
,
0010
0001
0010
0001
1000
0000
0001
0000
,
1000
0010
0100
0010
1000
0000
0100
0000
,
0010
0001
1000
0001
0010
0000
0100
0000
,
1000
0010
0100
0010
1000
0000
0100
0010
,
0001
0000
1000
0000
0010
0000
0100
0001
,
1000
0000
0000
0000
0001
0100
0001
0100
,
0010
0000
1000
0000
1100
0000
0010
0001
,
1000
0000
0010
0100
0000
0010
1000
0001
,
1000
0000
0100
0010
0001
0000
1000
0000
,
0010
0000
1000
0100
0000
0010
0001
1000
,
0001
0000
0100
0000
0010
0000
0100
0001
,
1000
0100
0010
0001
,
0200
0000
1000
0000
0310
0000
0100
0001
,
0000
0010
0100
0000
1000
0001
1000
0001
,
0010
0100
2001
0010
,
3001
0000
0100
0010
0000
0100
0001
1000
,
0001
0010
0100
1000
,
0010
0000
0100
0001
0000
1000
0001
0000
,
0010
0100
1000
0000
0001
0000
1000
0000
,
0100
0010
0001
0000
0100
0000
0010
0000
,
1000
0100
0010
0000
0100
0000
1000
0000
,
0001
0000
0000
0000
,
2000
0010
0010
3010
,
0200
0001
0001
0301
,
0020
0100
0100
0130
,
2000
0001
0001
3001
,
1000
0010
0100
0000
0010
1000
0001
0000
,
0010
0100
1000
0000
0010
0100
0001
0000
,
1000
0100
1000
0001
0100
0010
0100
0001
,
1000
0100
0010
0001
,
0100
0000
0010
1000
0000
1000
0001
0000
,
0010
0000
0100
1000
0000
1000
0001
0000
,
2000
0000
0010
3000
0100
0001
0100
0010
,
1000
0001
0010
0100
,
1000
0000
0010
0000
1000
0100
0010
0100
,
1000
0000
0010
0000
0100
0001
1000
0001
,
0100
0000
0010
0000
1000
0100
0010
0100
,
1000
0010
0100
0000
0001
0000
1000
0000
,
1010
0000
0001
0010
0001
0100
0010
0000
,
1000
0001
0010
0000
0100
0000
1000
0000
,
0010
0000
0100
0001
0010
0000
0100
0000
,
1000
0010
1000
0001
0010
0000
0100
0000
,
1000
0010
0100
0010
1000
0000
0100
0000
,
0010
0001
0100
0000
0010
1000
0001
0000
,
0010
0000
0100
1000
0010
0100
0000
0001
,
0010
0000
0100
0000
1000
0010
1000
0010
,
0100
0100
0001
0000
,
1000
1000
0100
0000
,
0010
0001
1000
0010
,
1000
0001
0010
0100
,
0100
0000
0000
1000
,
0010
0000
0100
0000
0010
0000
1000
0100
,
0020
0000
0001
0000
0130
0000
1000
0010
,
0000
0100
0001
0010
0100
0000
1000
0000
,
0010
0000
2100
0000
3001
0000
1000
0010
,
0100
0000
0021
0000
0130
0000
1000
0010
,
0100
0000
0001
0010
0100
0000
1000
0001
,
0100
0000
0010
1000
0001
0000
1000
0000
,
0101
0000
0010
0000
1000
0000
0100
0010
,
0001
0000
1000
0000
0010
0000
0100
0001
,
0010
0100
1000
0010
,
0100
0000
0000
0000
,
0001
1000
0100
1000
0000
0001
0100
0010
,
0000
1000
0001
0010
0001
1000
0010
0000
,
0100
0001
1000
0001
0000
1000
0010
0100
,
0000
0001
0010
0100
0010
0001
1000
0000
,
0001
0100
0010
0100
0001
0000
1000
0100
,
0000
0010
0001
0000
1000
0000
0001
0000
,
0100
0010
1000
0000
0001
0000
0010
0100
,
0000
1000
0010
0100
0001
0000
1000
0000
,
0101
0010
1000
0001
,
0010
0100
1000
0001
,
2002
0000
0000
0000
,
3003
0000
0000
0000
;

//---------------dance-single - ----------------
#NOTES:
     dance-single:
     :
     Medium:
     5:
     0.409,0.461,0.178,0.155,0.000:
0000
0000
0000
0000
,
0000
0000
0000
0000
,
0000
0000
0000
0000
,
0000
0000
0000
0000
,
2000
0000
0010
0000
3010
0000
0000
0010
,
0000
1000
0001
0000
,
0020
0000
0100
0000
0130
0000
0000
0100
,
0000
1000
0001
0000
,
1000
0100
1000
0010
,
1000
0100
0010
0000
,
0001
0100
0010
0100
,
0001
0010
0100
0000
,
1000
0000
0001
0000
0020
0000
0000
0130
,
0000
1000
0001
0000
,
1000
0000
0010
0000
0200
0000
0000
0301
,
0000
1000
1001
0000
,
1001
1000
1000
1000
,
1001
0001
0001
0001
,
0101
0100
0100
0100
,
0010
1000
0001
1000
,
1100
1000
1000
1000
,
1010
0010
0010
0010
,
0110
0100
0100
0100
,
0001
0010
0100
1000
,
0001
1000
0001
1000
0001
0000
0000
0000
,
1000
0001
0100
0000
,
0010
1000
0010
1000
0010
0000
0000
0000
,
1000
0100
0010
0000
,
0001
1000
1100
0000
,
1000
0001
0101
0000
,
0010
1000
0100
0010
,
0001
0000
1000
1000
,
0020
0100
0130
0001
,
0010
0000
0100
1000
0000
0000
0001
0000
,
0100
0010
1000
0100
,
0010
0000
0001
1000
0000
0000
0001
0000
,
0100
0010
0100
0001
,
0010
0100
1000
0010
,
0200
0000
0302
0000
,
0013
0100
1000
0000
,
0101
0010
1000
0000
,
0011
0100
1000
0000
,
0001
0100
1000
0100
,
0001
0010
0100
0000
,
1100
0000
0001
0100
,
1010
0000
0100
0010
,
1001
0000
1000
0010
,
0100
0000
0000
0000
,
0002
0000
0000
0000
,
0023
0000
0000
0000
,
0230
0000
0000
0000
,
2300
0000
0000
0000
,
3001
0100
0010
0000
,
1000
0001
0010
0000
,
0100
1000
0010
0100
,
0010
1000
0100
0010
,
0002
0000
0000
0103
0000
0000
0010
0000
,
2000
0000
0000
3001
0000
0000
0010
0000
,
0200
0000
1300
0010
,
0100
0001
0010
0000
,
0100
0000
0100
0000
1000
0001
1000
0000
,
0010
0000
0010
0000
1000
0001
1000
0000
,
0100
0010
0001
0100
,
0010
1000
0001
0000
,
0010
0100
1000
0010
,
0100
0001
1000
0000
,
0100
0010
0001
0100
,
0010
1000
0001
0000
,
1000
0001
0010
0100
,
1000
0001
0100
0010
,
1000
0100
0010
0001
,
1000
0000
0010
0000
0100
0010
0100
0010
,
0100
0000
0000
0001
,
1001
0000
0000
0100
,
0110
0001
0100
0010
,
1000
0100
0010
0001
,
1001
0000
0000
0010
,
0110
0001
0010
0100
,
2000
0000
0010
0000
3020
0000
0000
0130
,
0000
0000
0001
0000
1000
0100
1000
0100
,
1000
0010
0100
0001
,
0010
0000
0001
1000
0000
0000
0010
0000
,
0100
0001
0010
0100
,
1000
0000
0010
0100
0000
0000
0001
0000
,
1001
1000
0010
0000
,
0101
0010
1000
0000
,
0011
0100
1000
0010
,
0100
0000
0000
0000
,
0001
0100
0010
0100
,
0001
0010
0100
1000
,
0010
0100
0010
1000
,
0100
0000
0010
0000
0001
1000
0001
1000
,
0010
0000
0100
0000
0002
0000
0000
0013
,
0000
0100
1000
0001
,
2000
0000
0010
0000
3010
0000
0000
0100
,
0000
0001
1000
0000
0010
0000
0100
0000
,
1001
0001
0001
0001
,
1000
1000
1000
0010
,
2002
0000
0000
0000
,
3003
0000
0000
0000
;

//---------------dance-single - ----------------
#NOTES:
     dance-single:
     :
     Easy:
     2:
     0.219,0.307,0.078,0.116,0.000:
0000
0000
0000
0000
,
0000
0000
0000
0000
,
0000
0000
0000
0000
,
0000
0000
0000
0000
,
2000
0000
0000
0000
,
0000
0000
0000
0000
,
3002
0000
0000
0000
,
0000
0000
0000
0000
,
1003
0000
1000
0000
,
1000
0000
1000
0000
,
0001
0000
0001
0000
,
0001
0000
0001
0000
,
1000
0000
0010
0000
,
1000
0000
0010
0000
,
1000
0000
0001
0000
,
0001
0000
0000
0000
,
1001
0000
0000
0000
,
1001
0000
0000
0000
,
1001
0000
0000
0000
,
0001
0000
0100
0000
,
0110
0000
0000
0000
,
0110
0000
0000
0000
,
0110
0000
0000
0000
,
1000
0000
0100
0000
,
0010
0010
0010
0000
,
0001
0000
1000
0000
,
0010
0010
0010
0000
,
0100
0000
0001
0000
,
1000
1000
1000
0000
,
0001
0001
0001
0000
,
1000
0000
0010
0000
,
0100
0000
0001
1000
,
0001
0001
0001
0000
,
0010
0010
0010
0000
,
0100
0000
1000
0000
,
0010
0000
0100
0000
,
0001
0001
0001
0000
,
1000
1000
1000
0000
,
0010
0000
0100
0000
,
0001
0000
1000
0000
,
0001
1000
0001
0000
,
1000
0001
1000
0000
,
0010
0000
0100
0000
,
0001
0000
1000
0000
,
0001
0000
0000
0000
,
1000
0000
0000
0000
,
0010
0000
0100
0000
,
0001
0000
0000
0000
,
2000
0000
0000
0000
,
3200
0000
0000
0000
,
0320
0000
0000
0000
,
0032
0000
0000
0000
,
1003
0000
1000
0000
,
0010
0000
0010
0000
,
0100
0000
0100
0000
,
0001
0000
0001
0000
,
2000
0000
0000
0000
,
3020
0000
0000
0000
,
0230
0000
0000
0000
,
0301
0000
0001
0000
,
0010
0010
0010
0000
,
0100
0100
0100
0000
,
1000
0000
0000
0000
,
0010
0000
1000
0000
,
0002
0000
0000
0000
,
0203
0000
0000
0000
,
0310
0000
1000
0000
,
0001
0000
1000
0000
,
0020
0000
0000
0000
,
0230
0000
0000
0000
,
0301
0000
1000
0000
,
0001
0000
0000
0000
,
1000
1000
1000
0000
,
0001
0001
0001
0000
,
1000
0000
0001
0000
,
1000
0000
0001
0000
,
1001
0000
0000
0000
,
0110
0000
0000
0000
,
0001
0000
0010
0000
,
0100
0000
1000
0000
,
0001
0001
0001
0000
,
1000
1000
1000
0000
,
0010
0000
0100
0000
,
0010
0000
1000
0000
,
0001
1000
0000
0000
,
1000
0001
0000
0000
,
1000
0000
0010
0000
,
0100
0000
0000
0000
,
0001
0000
1000
0000
,
0001
0000
1000
0000
,
0010
0000
0100
0000
,
0010
0000
0100
0000
,
0010
0000
0010
0000
,
1000
0000
1000
0000
,
0001
0001
0001
0000
,
1000
1000
1000
0000
,
1001
0000
0000
0000
,
0000
0000
0000
0000
,
2002
0000
0000
0000
,
3003
0000
0000
0000
;

//---------------dance-single - ----------------
#NOTES:
     dance-single:
     :
     Beginner:
     1:
     0.116,0.228,0.078,0.000,0.000:
0000
0000
0000
0000
,
0000
0000
0000
0000
,
0000
0000
0000
0000
,
0000
0000
0000
0000
,
1000
0000
0000
0000
,
0000
0000
0000
0000
,
0001
0000
0000
0000
,
0000
0000
0000
0000
,
1000
0000
0000
0000
,
0001
0000
0000
0000
,
1000
0000
0000
0000
,
0001
0000
0000
0000
,
1000
0000
0000
0000
,
0001
0000
0000
0000
,
1000
0000
0000
0000
,
0001
0000
0000
0000
,
1001
0000
0000
0000
,
1001
0000
0000
0000
,
1001
0000
0000
0000
,
1000
0000
0000
0000
,
1001
0000
0000
0000
,
1001
0000
0000
0000
,
1001
0000
0000
0000
,
0001
0000
0000
0000
,
1000
0000
1000
0000
,
1000
0000
0000
0000
,
0001
0000
0001
0000
,
0001
0000
0000
0000
,
1000
0000
0000
0000
,
0001
0000
0000
0000
,
1000
0000
0000
0000
,
0010
0000
0000
0000
,
0100
0000
0000
0000
,
0100
0000
0000
0000
,
0100
0000
0000
0000
,
0100
0000
0000
0000
,
0010
0000
0000
0000
,
0010
0000
0000
0000
,
0010
0000
0000
0000
,
0000
0000
0000
0000
,
1000
0000
0000
0000
,
0001
0000
0000
0000
,
1000
0000
0000
0000
,
0001
0000
0000
0000
,
1000
0000
0000
0000
,
0001
0000
0000
0000
,
1000
0000
0000
0000
,
1000
0000
0000
0000
,
0001
0000
0000
0000
,
0000
0000
0000
0000
,
1000
0000
0000
0000
,
0000
0000
0000
0000
,
0010
0000
0000
0000
,
0100
0000
0000
0000
,
0010
0000
0000
0000
,
0100
0000
0000
0000
,
0001
0000
0000
0000
,
0001
0000
0000
0000
,
0001
0000
1000
0000
,
0001
0000
0000
0000
,
1000
0000
0000
0000
,
0010
0000
0000
0000
,
1000
0000
0000
0000
,
0010
0000
1000
0000
,
0010
0000
0000
0000
,
0100
0000
0000
0000
,
0010
0000
0000
0000
,
0100
0000
0000
0000
,
0010
0000
0100
0000
,
0010
0000
0000
0000
,
0100
0000
0000
0000
,
0001
0000
0000
0000
,
1001
0000
0000
0000
,
1001
0000
0000
0000
,
1000
0000
0000
0000
,
0001
0000
0000
0000
,
1001
0000
0000
0000
,
1000
0000
0000
0000
,
0001
0000
0001
0000
,
0001
0000
0000
0000
,
1000
0000
0000
0000
,
0010
0000
0000
0000
,
1000
0000
0000
0000
,
0010
0000
0000
0000
,
1000
0000
0000
0000
,
0001
0000
0000
0000
,
1000
0000
0000
0000
,
0001
0000
0000
0000
,
1000
0000
0000
0000
,
0010
0000
0000
0000
,
1000
0000
0000
0000
,
0001
0000
0000
0000
,
0010
0000
0000
0000
,
0001
0000
0000
0000
,
1000
0000
0000
0000
,
0001
0000
0000
0000
,
1001
0000
0000
0000
,
0000
0000
0000
0000
,
0100
0000
0000
0000
;

//---------------dance-single - X. Ythar----------------
#NOTES:
     dance-single:
     X. Ythar:
     Challenge:
     9:
     0.708,0.691,0.217,0.302,0.066: // measure 1
0000
0000
0000
0000
,  // measure 2
0000
0000
0000
0000
,  // measure 3
0000
0000
0000
0000
,  // measure 4
0000
0000
0000
0000
,  // measure 5
100M
0000
0000
0000
0010
0000
0000
0000
1010
0000
0000
0000
0000
0000
0010
1000
,  // measure 6
0010
0000
1000
0000
0001
0000
0010
0000
0100
0000
1000
0000
0001
0000
1000
0001
,  // measure 7
1000
0000
0000
0000
0001
0000
0000
0000
0101
0000
0000
0000
0000
0000
0001
0100
,  // measure 8
0001
1000
0010
0100
100M
01M0
M001
0M10
,  // measure 9
010M
1000
0010
0100
0000
0001
1000
0100
,  // measure 10
0000
0010
0001
1000
0010
1000
0001
0100
,  // measure 11
0010
1000
0100
0010
0000
0001
1000
0010
,  // measure 12
0000
0100
0001
1000
0100
1000
0010
0100
,  // measure 13
M001
0100
0020
0000
2030
0000
3100
0010
,  // measure 14
0001
0100
0010
0100
0002
0000
1003
0100
,  // measure 15
1000
0010
0100
0000
0200
0000
0301
0010
,  // measure 16
0100
0000
1000
0000
0001
0000
1000
0001
1000
0000
0000
0000
M010
0000
0000
0000
,  // measure 17
1MM1
1000
0010
0000
0010
0000
0010
0000
,  // measure 18
1M1M
1000
0001
0000
0001
0000
0001
0000
,  // measure 19
MM11
0010
0100
0000
0100
0000
0100
0000
,  // measure 20
1100
0000
M011
0000
1000
0010
1000
0001
,  // measure 21
1MM1
1000
0010
0000
0010
0000
0010
0000
,  // measure 22
M11M
0100
0001
0000
0001
0000
0001
0000
,  // measure 23
1MM1
1000
0100
0000
0100
0000
0100
0000
,  // measure 24
0110
0000
0000
0000
10M1
0000
0000
0000
1000
0000
0010
0000
1000
0000
0010
1000
,  // measure 25
001M
1000
0010
1000
0010
0010
0100
0000
,  // measure 26
0001
0010
0001
0010
0100
0100
1000
0000
,  // measure 27
0001
0100
0001
0100
0010
0010
1000
0000
,  // measure 28
0100
0010
0100
0010
0001
0001
1000
0000
,  // measure 29
1M01
0000
0001
1000
0010
0000
0100
0001
,  // measure 30
1000
0001
0100
0000
0010
1000
0001
1000
,  // measure 31
001M
0000
0100
0001
0010
0100
1000
0010
,  // measure 32
0100
000M
000M
000M
,  // measure 33
1100
0000
0011
0000
0100
1000
0010
0000
,  // measure 34
0100
0001
1000
0001
0000
0001
1000
0010
,  // measure 35
1000
0000
0101
0000
0010
1000
0010
0000
,  // measure 36
1000
0000
0001
0010
0000
0001
1000
0010
,  // measure 37
100M
0000
0001
0000
0100
0010
0100
0000
,  // measure 38
0010
1000
0001
1000
0000
0001
0010
0100
,  // measure 39
0010
0001
1000
0010
0200
0000
M000
0320
,  // measure 40
0000
0000
1030
0000
0100
0000
1000
0100
1000
0000
0001
0000
0100
0000
0001
0100
,  // measure 41
M001
0000
1010
0000
0001
1000
0010
0000
,  // measure 42
1000
0100
1000
0001
0000
0001
0100
0010
,  // measure 43
0100
0000
0010
0000
1000
0100
0010
0000
,  // measure 44
0001
0000
0000
0000
0100
0000
0010
0000
0000
0000
0100
0000
0001
0000
1000
0001
,  // measure 45
1M00
0000
0001
0100
0001
0000
1000
0010
,  // measure 46
0100
0010
1000
0100
0010
0001
1000
0010
,  // measure 47
1000
0000
0001
0010
010M
1000
0010
0000
,  // measure 48
1001
0M00
0M00
0M00
,  // measure 49
2000
0000
3010
0200
0000
0302
0000
0000
,  // measure 50
0023
0000
0130
2000
0000
0000
3020
0000
,  // measure 51
203M
0000
3010
0200
0000
0302
0000
0000
,  // measure 52
2003
0000
3001
0010
0000
0100
1000
0001
,  // measure 53
1000
0010
0100
0010
1000
0100
1000
0001
,  // measure 54
1000
0010
1000
0001
0010
0100
1000
0010
,  // measure 55
0100
0001
1000
0100
1000
0001
0100
0010
,  // measure 56
100M
0000
0001
0100
0001
0100
0010
1000
,  // measure 57
0M02
0000
0000
2003
0000
0000
3200
0000
,  // measure 58
0320
0000
0000
0230
0000
0000
2300
0000
,  // measure 59
3020
0000
0000
0130
1000
0100
0001
0010
,  // measure 60
0100
1000
0010
1000
,  // measure 61
0M02
0000
0013
0100
0010
0001
0100
0010
,  // measure 62
2000
0000
3100
0010
0100
1000
0010
0100
,  // measure 63
0002
0000
0000
1003
0100
0010
0100
1000
,  // measure 64
0010
0000
0100
0000
0001
0000
1000
0000
0010
0000
0000
0000
0100
0001
0100
0001
,  // measure 65
20M0
0000
3100
0000
0010
0001
0100
1000
,  // measure 66
0100
0001
0010
0100
0000
1000
0010
1000
,  // measure 67
0002
0000
0013
0100
1000
0020
0000
1030
,  // measure 68
0100
0000
1000
0000
0010
0000
0000
0000
0100
0000
0000
0000
0001
0100
0001
0100
,  // measure 69
M010
1000
0001
0010
0100
1000
0010
1000
,  // measure 70
0100
0000
0010
0000
0100
0000
1000
0000
0010
0100
0000
0000
0001
0000
0010
0000
,  // measure 71
0100
1000
0010
1000
0001
0020
0000
1030
,  // measure 72
0020
0000
0032
0000
1003
0010
0000
0100
,  // measure 73
0002
1000
0M00
0000
0M00
0000
0M00
0000
,  // measure 74
1003
0001
00M0
0000
00M0
0000
00M0
0000
,  // measure 75
1000
0101
0010
1100
,  // measure 76
0010
0000
1001
0000
0001
0100
001M
0000
,  // measure 77
11M0
1000
0001
0000
0001
0000
0001
0000
,  // measure 78
1M10
0000
0000
0000
1000
0000
0000
0000
0010
1000
0010
1000
0010
0000
1000
0001
,  // measure 79
10M0
0100
0010
0001
0200
0000
0000
0320
,  // measure 80
0000
1030
0001
0010
010M
1000
0100
1000
,  // measure 81
00M1
0000
1100
0000
0001
0100
0010
1000
,  // measure 82
0100
0000
0011
0000
0100
1000
0010
0100
,  // measure 83
0001
1100
0001
1010
,  // measure 84
0001
0000
0100
0010
0000
0010
1000
0001
,  // measure 85
10M0
0000
0001
0100
0001
0000
1000
0100
,  // measure 86
0010
0100
1000
0010
0100
0001
0010
0100
,  // measure 87
1000
0000
0001
0100
001M
1000
0100
0010
,  // measure 88
0100
000M
000M
000M
,  // measure 89
1000
0010
0100
0010
0000
1000
0001
0010
,  // measure 90
0000
0100
1000
0001
1000
0010
1000
0001
,  // measure 91
0010
0100
0010
0001
0000
1000
0010
0100
,  // measure 92
0000
0010
1000
0001
0010
0001
1000
0010
,  // measure 93
0100
0010
1000
0100
0010
0001
1000
0010
,  // measure 94
1000
0001
0010
0100
2000
0000
0000
3001
,  // measure 95
0100
0001
0010
0000
0020
0000
0130
1000
,  // measure 96
0010
0000
0100
0000
0001
0000
0100
0001
0100
0000
0010
0000
100M
0000
0000
0000
,  // measure 97
0001
0100
0010
0100
0000
0010
1000
0100
,  // measure 98
0000
0010
0001
0100
0010
100M
01M0
M01M
,  // measure 99
2MM2
0000
0000
0000
,  // measure 100
3003
0000
0000
0000
;
