#TITLE:D.A.N.C.E.!;
#SUBTITLE:;
#ARTIST:DJ Yoshitaka feat. 星野奏子;
#TITLETRANSLIT:;
#SUBTITLETRANSLIT:;
#ARTISTTRANSLIT:DJ Yoshitaka feat. Kanako Hoshino;
#CREDIT:Xythar;
#BANNER:D.A.N.C.E.!.png;
#BACKGROUND:D.A.N.C.E.!-bg.png;
#LYRICSPATH:;
#CDTITLE:bmiidx.png;
#MUSIC:D.A.N.C.E.!.mp3;
#OFFSET:-7.107;
#SAMPLESTART:66.824;
#SAMPLELENGTH:12.000;
#SELECTABLE:YES;
#BPMS:0.000=116.050;
#STOPS:;
#BGCHANGES:;

//---------------dance-single - ----------------
#NOTES:
     dance-single:
     :
     Hard:
     6:
     0.389,0.458,0.362,0.000,0.051:
0000
0000
0000
0000
0000
0000
0000
0001
,
0001
0000
1000
0000
0001
0000
0000
0100
,
0010
0000
0000
0010
1000
0000
0001
1000
,
0001
0000
1000
0000
0100
0000
0000
1000
,
1000
0001
0001
1000
1000
0100
0100
0100
,
0100
0000
0011
0001
1000
0000
1010
1000
,
0001
0000
0010
0000
1000
0000
0100
0001
,
1000
0010
0100
0000
,
0001
0000
0000
0000
,
1100
0000
0000
0010
0000
0000
0101
0000
0000
0010
0000
0000
1100
0000
0000
0000
,
0010
0010
0001
0000
1000
0010
1001
0000
,
0010
0100
0010
0100
0001
0000
0000
0000
,
1000
1000
0001
0001
1000
1100
1000
0000
,
0010
0000
0100
0000
0001
0010
0100
0000
,
0001
0010
0100
0000
0001
0010
0100
0000
,
1000
0000
0001
0000
1000
0100
0001
0000
,
1000
0100
0001
0000
1000
0100
0001
0000
,
1000
0000
0010
0000
0100
0001
1000
0000
,
0100
0001
1000
0000
0100
0001
1000
0001
,
1001
0000
0000
0010
0000
0000
0101
0000
0000
1000
0000
0000
0110
0000
0000
0000
,
0001
0000
0001
0000
1000
1000
1000
0000
,
0100
0100
0001
0001
0100
0100
1000
1000
,
0001
0000
1000
0100
0011
0000
0100
0000
,
1000
0100
1000
0001
0100
0001
1000
0100
,
1000
0000
0010
0000
0100
0001
1001
0000
,
0001
0100
1000
0010
0001
0000
0000
0000
,
1000
0100
0001
0010
1000
0000
0000
0000
,
0101
0000
0000
0010
0000
0000
1100
0000
0000
0010
0000
0000
0101
0000
0000
0000
,
0001
0011
0001
0101
0001
1000
1001
0000
,
1000
0100
0011
0000
0001
0100
1010
0000
,
0001
0000
1000
0000
0001
0010
1000
0001
,
0001
0000
1000
0010
0001
0000
1000
0001
,
0101
0000
0010
0000
1000
1000
0100
0000
,
0011
0100
1000
0000
1010
0100
0001
0000
,
0100
0000
0010
0000
0001
0010
1000
0001
,
1000
0000
0010
0100
0001
0000
1000
0000
,
1100
1000
1001
0001
0101
0100
0110
0110
,
0110
0000
1000
0001
0010
0000
0100
1000
,
0001
0000
0100
1000
0001
0000
0100
1000
,
0001
0100
0010
0100
0001
0000
0000
0000
,
1000
0001
0000
0000
,
1010
0000
0000
0100
0000
0000
0011
0000
0000
0100
0000
0000
1010
0000
0000
0000
,
1000
1000
0100
0100
0001
0001
0010
0010
,
1000
0000
0001
1000
1001
0000
0010
0000
,
1001
0010
1001
0100
1001
1001
1001
0000
,
1000
0000
0000
0000
0010
0000
0000
0000
0100
0000
0000
0100
0000
0000
0100
0000
,
0001
0000
0000
1000
0000
0000
0100
0000
0000
1000
0000
0000
0001
0000
0000
0000
,
1001
0000
0000
0000
;

//---------------dance-single - ----------------
#NOTES:
     dance-single:
     :
     Medium:
     4:
     0.290,0.325,0.232,0.000,0.000: // measure 1
0000
0000
0000
0000
0000
0000
0000
1000
,  // measure 2
0001
0000
1000
0000
,  // measure 3
0010
0000
0100
0001
,  // measure 4
1000
0000
0000
0000
,  // measure 5
0001
1000
0001
1000
0001
1000
0100
0100
,  // measure 6
0100
0010
0001
0100
,  // measure 7
0010
1000
0100
0000
,  // measure 8
1000
0000
0000
0000
,  // measure 9
0010
0000
0000
0000
,  // measure 10
0101
0010
1100
1001
,  // measure 11
0001
1000
0001
1000
0010
0000
0001
0000
,  // measure 12
0100
0000
1000
0010
1000
0000
0001
0000
,  // measure 13
1000
0100
1000
0100
1000
0001
1001
0000
,  // measure 14
0010
0000
0101
0000
1000
0100
0001
0000
,  // measure 15
1000
0010
0100
0000
,  // measure 16
0001
0000
1100
0000
0001
0100
1000
0000
,  // measure 17
0001
0100
0010
0000
,  // measure 18
0010
0000
1001
0000
0001
0010
1000
0000
,  // measure 19
0001
0100
0010
0000
,  // measure 20
1100
0010
0101
1001
,  // measure 21
0001
1000
0001
1000
0010
0010
1001
0000
,  // measure 22
0100
1000
0010
0000
0100
1000
0010
0000
,  // measure 23
0100
0001
0000
1000
,  // measure 24
0001
0010
0100
0000
0001
0010
0100
0000
,  // measure 25
1000
0000
0000
0000
,  // measure 26
0001
0100
1000
0100
0001
0000
0000
0000
,  // measure 27
1000
0100
0001
0100
1000
0000
0001
0000
,  // measure 28
1100
0010
0101
1001
,  // measure 29
0100
0010
0100
0010
0100
0010
1001
0000
,  // measure 30
0010
0000
0010
0000
0100
0001
1000
0000
,  // measure 31
0001
0000
0000
0000
1000
0100
1000
0000
,  // measure 32
0010
0000
0010
0000
0100
0001
1000
0000
,  // measure 33
0100
0000
0000
0000
,  // measure 34
1000
0010
1000
0000
1001
0000
0001
0000
,  // measure 35
1000
0000
0000
0000
0100
0010
0100
0000
,  // measure 36
1001
0010
0100
0001
,  // measure 37
1000
0100
1000
0100
1000
0100
1000
1000
,  // measure 38
0101
0010
1000
0001
,  // measure 39
1100
0001
0010
1000
,  // measure 40
0100
0001
1100
0010
,  // measure 41
0100
0000
0000
0000
,  // measure 42
0011
0100
1001
1010
,  // measure 43
0100
0001
0100
0001
1000
0000
0011
0000
,  // measure 44
0100
1000
0010
1000
0100
0000
0000
0000
,  // measure 45
1000
0010
1000
0010
0100
0100
1001
0000
,  // measure 46
0100
0000
1000
0000
,  // measure 47
0001
0000
0000
1000
;

//---------------dance-single - ----------------
#NOTES:
     dance-single:
     :
     Easy:
     2:
     0.176,0.195,0.111,0.000,0.000: // measure 1
0000
0000
0000
0000
,  // measure 2
1000
0000
0001
0000
,  // measure 3
1000
0000
0001
0000
,  // measure 4
0000
0000
0010
0000
,  // measure 5
0100
0100
0100
0100
,  // measure 6
1001
0000
0100
0000
,  // measure 7
1000
0000
0010
0100
,  // measure 8
0010
0000
1000
0000
,  // measure 9
1001
0000
0000
0000
,  // measure 10
0010
0100
0001
0000
,  // measure 11
1000
1000
0001
0001
,  // measure 12
1001
0000
0010
0000
,  // measure 13
1001
1001
1001
0000
,  // measure 14
0100
0000
1000
0000
,  // measure 15
0010
0000
0000
0000
,  // measure 16
0100
0000
1000
0000
,  // measure 17
0010
0000
0100
0000
,  // measure 18
0001
0000
1000
0000
,  // measure 19
0100
0000
0000
0000
,  // measure 20
1000
0100
0010
0010
,  // measure 21
1001
0000
0100
0100
,  // measure 22
1000
1000
0010
0010
,  // measure 23
0100
0100
0001
0001
,  // measure 24
0010
0010
1000
1000
,  // measure 25
0100
0100
0001
0001
,  // measure 26
1000
0001
1001
0000
,  // measure 27
0010
0100
0110
0000
,  // measure 28
0001
1000
0100
1000
,  // measure 29
0001
0000
1000
0000
,  // measure 30
0010
0000
0100
0000
,  // measure 31
0001
0000
1000
0100
,  // measure 32
0010
0000
0001
0000
,  // measure 33
1000
0010
0100
0000
,  // measure 34
0001
0000
1000
0000
,  // measure 35
0100
1000
0010
0000
,  // measure 36
0100
0000
0001
0000
,  // measure 37
1000
1000
1000
1001
,  // measure 38
1001
0000
0010
0000
,  // measure 39
0100
0000
0001
1000
,  // measure 40
0100
0000
0010
0000
,  // measure 41
0001
0000
0000
0000
,  // measure 42
1000
0010
0100
0010
,  // measure 43
1000
1000
0100
0100
,  // measure 44
0010
0000
0001
0000
,  // measure 45
1000
0001
1000
0001
,  // measure 46
1001
0000
0010
0000
,  // measure 47
0100
0000
0000
0001
;
