#TITLE:Connect;
#SUBTITLE:(DDR Mix);
#ARTIST:ClariS / remixed by pikko3;
#TITLETRANSLIT:;
#SUBTITLETRANSLIT:;
#ARTISTTRANSLIT:;
#CREDIT:Xythar;
#BANNER:Connect (DDR Mix).png;
#BACKGROUND:Connect (DDR Mix)-bg.png;
#LYRICSPATH:;
#CDTITLE:cdtitle.png;
#MUSIC:Connect (DDR Mix).ogg;
#OFFSET:-1.427;
#SAMPLESTART:72.064;
#SAMPLELENGTH:10.960;
#SELECTABLE:YES;
#BPMS:0.000=175.000;
#STOPS:192.000=3.771
,234.500=0.171
,235.000=0.171
,235.500=0.171
;
#BGCHANGES:;

//---------------dance-single - ----------------
#NOTES:
     dance-single:
     :
     Hard:
     7:
     0.480,0.544,0.149,0.251,0.000: // measure 1
0000
0000
0000
0000
,  // measure 2
0000
0000
0000
0000
,  // measure 3
0000
0000
0000
0000
,  // measure 4
0000
0000
0000
0000
,  // measure 5
0000
0000
0000
0000
,  // measure 6
0000
0000
0000
0000
,  // measure 7
0000
0000
0000
0000
,  // measure 8
0000
0000
0000
0000
,  // measure 9
2000
0100
0001
3010
,  // measure 10
0200
0010
0302
0010
,  // measure 11
2003
0010
3002
0100
,  // measure 12
2003
0000
0010
0000
0001
0000
3100
0010
,  // measure 13
0002
0100
1000
0013
,  // measure 14
0200
1000
0320
0001
,  // measure 15
0230
0000
0000
1000
0000
1300
0000
0000
,  // measure 16
0002
0000
0000
0103
0000
0000
0010
1000
,  // measure 17
0001
0000
1000
0000
0001
0100
0000
0020
,  // measure 18
0000
0000
1030
0000
0001
0010
0000
0200
,  // measure 19
0000
0000
1300
0000
0001
0100
0000
0020
,  // measure 20
0000
0000
0100
0000
0130
0000
0001
1000
,  // measure 21
0100
0000
0010
0000
0001
0100
0000
0010
,  // measure 22
0000
1000
0001
0010
0000
0100
0000
1000
,  // measure 23
0020
0100
2030
0100
,  // measure 24
3002
0000
0100
0000
1000
0000
0013
0100
,  // measure 25
1000
0001
1000
0000
0001
0100
0010
0000
,  // measure 26
1000
0001
0010
0000
0100
1000
0001
0000
,  // measure 27
1100
0000
0101
0000
1000
0100
0010
0100
,  // measure 28
2000
0000
0010
0000
3001
0100
0010
0100
,  // measure 29
0001
0000
0010
0100
1000
0000
0001
0100
,  // measure 30
0010
0000
1000
0001
0010
0001
1000
0000
,  // measure 31
0102
0000
0013
0000
1000
0001
0010
0000
,  // measure 32
0000
0100
1000
0001
0010
0001
1000
0010
,  // measure 33
2000
0000
0100
0000
3001
0000
0100
0010
,  // measure 34
1000
0000
0011
0000
0100
1000
0010
0000
,  // measure 35
0102
1000
0013
0100
,  // measure 36
1000
0010
0100
0010
1000
0000
0001
0010
,  // measure 37
0100
0000
1000
0010
0100
0000
0010
1000
,  // measure 38
0001
1000
0010
0000
0100
0000
1001
0000
,  // measure 39
1100
0000
0001
0100
0010
0000
1000
0100
,  // measure 40
0000
1000
0010
0100
0010
1000
0001
0010
,  // measure 41
0100
0000
1000
0000
0010
0000
0100
0001
,  // measure 42
0010
0000
0100
1000
0010
0000
0100
0000
,  // measure 43
1001
0000
1100
0000
0101
0000
0010
1000
,  // measure 44
0001
1000
0010
0100
,  // measure 45
1001
0000
1000
0100
0000
0010
0001
0000
,  // measure 46
1000
0000
0001
0100
0000
0010
1000
0001
,  // measure 47
1000
0100
0010
0100
,  // measure 48
2002
0000
0000
0000
,  // measure 49
0000
0000
3003
0000
0000
0000
1000
0100
,  // measure 50
1000
0001
0100
0000
0010
1000
0001
0000
,  // measure 51
0010
0100
1000
0000
0001
0000
0100
0000
,  // measure 52
0010
1000
0001
0000
1000
0100
1000
0000
,  // measure 53
0001
0000
0100
0010
1000
0010
0100
0000
,  // measure 54
0001
0010
0100
0000
1100
0000
0001
0100
,  // measure 55
0010
0000
1000
0100
1000
0010
0000
0100
,  // measure 56
0001
0010
0000
0100
1000
0000
0001
0100
,  // measure 57
0001
1000
0000
1000
0100
1000
0001
1000
,  // measure 58
0010
1000
0001
0000
0100
0010
1000
0000
,  // measure 59
0001
0010
0100
1000
0000
0101
1100
0011
,  // measure 60
0000
0100
1000
0010
0100
0000
0010
1000
,  // measure 61
0001
1000
0010
0000
0100
0001
1000
0100
,  // measure 62
0000
0010
0000
0001
0100
0010
0100
0001
,  // measure 63
0000
1000
0100
0010
0000
0001
0100
0020
,  // measure 64
0000
0100
0000
1030
0000
0001
0100
0000
,  // measure 65
0010
1000
0001
1000
0100
1000
0001
0020
,  // measure 66
0000
0000
0100
0000
0130
0000
1000
0001
,  // measure 67
0000
1000
0010
0200
0000
0001
0301
0010
,  // measure 68
0000
0100
1000
0020
0000
0100
0130
0001
,  // measure 69
0000
0010
0100
1000
0010
0100
0001
0000
;

//---------------dance-single - ----------------
#NOTES:
     dance-single:
     :
     Medium:
     5:
     0.311,0.352,0.000,0.028,0.000:
0000
0000
0000
0000
,
0000
0000
0000
0000
,
0000
0000
0000
0000
,
0000
0000
0000
0000
,
0000
0000
0000
0000
,
0000
0000
0000
0000
,
0000
0000
0000
0000
,
0000
0000
0000
0000
,
1000
0001
0100
0001
,
1000
0010
0100
0010
,
1000
0001
0010
0001
,
1000
0010
0100
0010
,
1000
0001
0010
0001
,
1000
0010
0100
0001
,
0010
0000
0000
0100
0000
1000
0000
0000
,
0001
0000
0000
1000
0000
0000
0010
0000
,
0010
0000
1000
0000
0001
0000
0000
0100
,
0000
0000
0010
0000
1000
0000
0000
0001
,
0000
0000
1000
0000
0100
0000
0000
0010
,
0000
0000
0000
0000
0000
0001
0000
1000
,
0001
0000
0010
0000
0100
0000
0000
1000
,
0000
0010
0000
0100
0000
0001
0000
1000
,
0010
0000
0100
0000
,
0001
0000
1000
0000
,
0001
0000
0100
0000
0010
0000
1000
0001
,
0000
0000
0010
0000
0100
0000
1000
0001
,
0000
0000
0100
0000
0010
0000
1000
0100
,
0000
0000
1000
0000
0001
0000
0000
0100
,
0010
0000
1000
0000
0001
0000
0010
0100
,
0000
1000
0001
0100
,
0010
0000
0000
1000
0000
0000
0001
0000
,
0000
1000
0010
0000
0100
0000
0001
0000
,
0010
0000
0100
0000
1000
0000
0001
0100
,
0000
0010
1000
0000
0001
0000
0010
0000
,
0001
0000
1000
0000
0010
0000
0100
0010
,
0000
0010
1000
0000
0001
0000
0010
0000
,
0100
0000
1000
0000
0010
0000
1000
0001
,
0000
0001
1000
0000
0010
0000
0100
0000
,
0001
0000
0000
0000
1000
0000
0001
1000
,
0000
0001
0100
0000
0010
0000
1000
0000
,
0001
0000
1000
0000
0100
0000
0010
0001
,
0000
0001
1000
0000
0010
0000
0100
0000
,
0001
0000
1000
0000
0010
0000
0100
0010
,
0000
0010
1000
0000
0001
0000
0010
0000
,
0100
0000
1000
0010
0000
0100
0000
0001
,
0010
0000
0100
1000
0000
0001
0000
1000
,
0020
0000
0000
0000
,
0000
0000
0000
0000
,
0000
0030
0000
1000
,
0100
0000
0010
0000
0000
0001
0100
0000
,
0000
0010
1000
0000
0000
0001
0000
0010
,
0000
0100
0000
0000
0000
1000
0010
0000
,
0000
0100
0001
0000
1000
0001
0000
0100
,
0010
0000
1000
0000
0000
0001
0010
0000
,
0000
0100
1000
0000
0000
0001
0000
0100
,
0000
0010
0000
0000
1000
0000
0001
0000
,
1000
0010
0000
0100
0001
0000
0010
0000
,
0100
1000
0001
0100
,
0010
0000
0100
0000
0000
0001
1000
0001
,
0000
1000
0000
0100
0000
0010
0000
0001
,
0000
1000
0010
0000
0100
0000
0001
1000
,
0000
0100
0000
0010
0000
0001
0000
1000
,
0000
0001
0100
0000
0010
0000
1000
0100
,
0000
0010
0000
0001
0000
1000
0010
0000
,
1000
0000
0001
0010
0000
0100
0000
1000
,
0000
0000
0001
0000
1000
0000
0000
0001
,
0000
1000
0000
0020
0000
0000
0130
0000
,
0000
0010
0000
2000
0000
0000
3001
0000
,
0000
1000
0000
0010
0000
0100
0001
0000
;

//---------------dance-single - ----------------
#NOTES:
     dance-single:
     :
     Easy:
     3:
     0.212,0.288,0.009,0.196,0.000:
0000
0000
0000
0000
,
0000
0000
0000
0000
,
0000
0000
0000
0000
,
0000
0000
0000
0000
,
0000
0000
0000
0000
,
0000
0000
0000
0000
,
0000
0000
0000
0000
,
0000
0000
0000
0000
,
2000
0000
0000
0000
,
3002
0000
2003
0000
,
3020
0000
0230
0000
,
0302
0000
0000
0000
,
2003
0000
0000
0000
,
3020
0000
0230
0000
,
0302
0000
0000
0000
,
2003
0000
0000
0000
,
3000
0001
0000
0001
,
0000
1000
0000
1000
,
0000
0010
0000
0010
,
0000
0100
0000
0100
,
0000
0001
0000
0001
,
0000
1000
0000
1000
,
0020
0000
0230
0000
,
0302
0000
2003
0000
,
3001
0100
0001
0000
,
1000
0100
1000
0000
,
0001
0100
0010
0000
,
1000
0001
0010
0000
,
0001
1000
0010
0000
,
1000
0100
1000
0000
,
0001
0000
1000
0000
,
0010
0000
0000
0000
,
1000
0100
0010
0000
,
0001
0100
0010
0000
,
1000
0001
0010
0000
,
0001
1000
0010
0000
,
0100
0001
1000
0000
,
0001
0100
0010
0100
,
0001
0000
1000
0010
,
0100
0000
0000
0001
,
0010
0000
0100
0000
,
1000
0000
0010
0100
,
0001
0000
1000
0100
,
1000
0000
0001
0100
,
0010
0000
1000
0001
,
0010
0000
0100
1000
,
0002
0000
0000
0000
,
0003
0000
0000
0000
,
0000
0000
0000
1000
,
0010
0010
0000
0100
,
0000
0001
0000
1000
,
0010
1000
0000
0001
,
0000
1000
0100
0010
,
0000
0001
0000
1000
,
0000
0001
0000
1000
,
0001
1000
0000
0000
,
0001
0100
0000
0010
,
1000
0001
0000
1000
,
0000
0002
0000
0000
,
0003
0000
0000
1000
0000
0000
0000
0001
,
0000
0000
0000
0100
0000
0010
0000
1000
,
0000
0000
0000
0001
0000
0010
0000
0001
,
0000
0000
0000
1000
0000
0010
0000
0200
,
0000
0000
0000
0000
0000
0301
0000
1000
,
0000
0000
0000
0010
0000
0100
0000
0002
,
0000
0000
0000
0000
0000
0003
0000
0000
,
0000
0000
0000
2000
0000
0000
3010
0000
,
0000
0000
0000
0200
0000
0000
0301
0000
,
0000
0000
0000
0010
0000
0000
1001
0000
;

//---------------dance-single - ----------------
#NOTES:
     dance-single:
     :
     Beginner:
     1:
     0.110,0.160,0.009,0.102,0.000:
0000
0000
0000
0000
,
0000
0000
0000
0000
,
0000
0000
0000
0000
,
0000
0000
0000
0000
,
0000
0000
0000
0000
,
0000
0000
0000
0000
,
0000
0000
0000
0000
,
0000
0000
0000
0000
,
2000
0000
0000
0000
,
3020
0000
0000
0000
,
0230
0000
0000
0000
,
0302
0000
0000
0000
,
2003
0000
0000
0000
,
3020
0000
0000
0000
,
0230
0000
0000
0000
,
0300
0000
0000
0000
,
0001
0000
0000
0000
,
0001
0000
0000
0000
,
1000
0000
0000
0000
,
1000
0000
0000
0000
,
0010
0000
0000
0000
,
0010
0000
0000
0000
,
0100
0000
0000
0000
,
0100
0000
0000
0000
,
0001
0000
0001
0000
,
1000
0000
1000
0000
,
0010
0000
0010
0000
,
0100
0000
0100
0000
,
0001
0000
0001
0000
,
1000
0000
1000
0000
,
0010
0000
0010
0000
,
0000
0000
0000
0000
,
1000
0000
0000
0000
,
0100
0000
0000
0000
,
1000
0000
1000
0000
,
1000
0000
0000
0000
,
0001
0000
0000
0000
,
0100
0000
0000
0000
,
0001
0000
0001
0000
,
0001
0000
0000
0000
,
1000
0000
0000
0000
,
0010
0000
0000
0000
,
0100
0000
0100
0000
,
0100
0000
0000
0000
,
0001
0000
0000
0000
,
1000
0000
0000
0000
,
0001
0000
0000
0000
,
1000
0000
0000
0000
,
0000
0000
0000
0000
,
0000
0001
0000
0000
,
0000
1000
0000
0000
,
0000
0010
0000
0000
,
0000
0100
0000
0000
,
0000
0010
0000
0000
,
0000
1000
0000
0000
,
0000
0001
0000
0000
,
0000
0001
0000
0000
,
0000
1000
0000
0000
,
0000
0001
0000
0000
,
0000
0000
0000
0000
0000
0000
0000
1000
,
0000
0000
0000
0001
0000
0000
0000
0001
,
0000
0000
0000
1000
0000
0000
0000
0010
,
0000
0000
0000
0010
0000
0000
0000
0100
,
0000
0000
0000
0000
0000
0000
0000
0001
,
0000
0000
0000
0000
0000
0000
0000
1000
,
0000
0000
0000
0000
0000
0000
0000
0001
,
0000
0000
0000
0002
0000
0000
0000
0003
,
0000
0000
0000
2000
0000
0000
0000
3000
,
0000
0000
0000
2002
0000
0000
0000
3003
;
