#TITLE:Colorful Cookie;
#SUBTITLE:;
#ARTIST:Lucky Vacuum;
#TITLETRANSLIT:;
#SUBTITLETRANSLIT:;
#ARTISTTRANSLIT:;
#CREDIT:Xythar;
#BANNER:Colorful Cookie.png;
#BACKGROUND:Colorful Cookie-bg.png;
#LYRICSPATH:;
#CDTITLE:beatmania IIDX.png;
#MUSIC:Colorful Cookie.mp3;
#OFFSET:-0.525;
#SAMPLESTART:79.180;
#SAMPLELENGTH:10.666;
#SELECTABLE:YES;
#BPMS:0.000=180.000;
#STOPS:;
#BGCHANGES:16.000=Heart2.avi=1.000=1=0=1,
32.000=Star5.avi=1.000=0=0=1,
48.000=Helix1.avi=1.000=0=0=1,
68.000=Star1.avi=1.000=0=0=1,
84.000=Star8.avi=1.000=0=0=1,
100.000=Heart1.avi=1.000=0=0=1,
116.000=Heart4.avi=1.000=0=0=1,
132.000=CardsS.avi=1.000=0=0=1,
148.000=Bricks1.avi=1.000=0=0=1,
164.000=Bubbles.avi=0.500=0=0=1,
180.000=Fireworks.avi=0.500=0=0=1,
196.000=Heart2.avi=1.000=0=0=1,
204.000=Rising Stars.avi=1.000=0=0=1,
212.000=Heart2.avi=1.000=0=0=1,
216.000=Rising Stars.avi=1.000=0=0=1,
220.000=Heart1.avi=1.000=0=0=1,
222.000=Star1.avi=1.000=0=0=1,
224.000=Rainbow1S.avi=1.000=0=0=1,
225.000=Bricks1.avi=1.000=0=0=1,
226.000=Rainbow2S.avi=1.000=0=0=1,
227.000=Helix1.avi=1.000=0=0=1,
228.000=Heart7.avi=1.000=0=0=1,
236.000=Balloon1.avi=1.000=0=0=1,
252.000=Star5.avi=1.000=0=0=1,
268.000=Heart4.avi=1.000=0=0=1,
284.000=Fireworks.avi=1.000=0=0=1,
292.000=Heart2.avi=1.000=0=0=1,
294.000=Rainbow1S.avi=1.000=0=0=1,
296.000=Rising Stars.avi=1.000=0=0=1,
298.000=Balloon1.avi=1.000=0=0=1,
300.000=Colorful Cookie-bg.png=1.000=0=0=1,
99999=-nosongbg-=1.000=0=0=0 // don't automatically add -songbackground-
;

//---------------dance-single - ----------------
#NOTES:
     dance-single:
     :
     Hard:
     8:
     0.505,0.550,0.173,0.121,0.030: // measure 1
0000
0000
0000
0000
,  // measure 2
0000
0000
0000
0000
,  // measure 3
0000
0000
0000
0000
,  // measure 4
0000
0000
0000
0000
,  // measure 5
0000
0000
0000
0000
,  // measure 6
0000
0000
0000
0000
,  // measure 7
0000
0000
0000
0000
,  // measure 8
0000
0000
0000
0000
,  // measure 9
1000
0000
0001
0000
1000
0000
0001
0020
,  // measure 10
0000
0100
0000
0130
0000
1000
0010
0100
,  // measure 11
0001
0000
0010
0000
0001
0000
0100
0020
,  // measure 12
0000
1000
0000
1030
0000
0100
0010
0001
,  // measure 13
0100
0000
0010
0000
0100
0000
0001
2000
,  // measure 14
0000
0100
0000
3100
0000
0010
0001
0100
,  // measure 15
0010
0000
1000
0000
0010
0000
1000
0100
,  // measure 16
0000
0010
0001
0100
0010
0000
1000
0000
,  // measure 17
0001
0000
1100
0000
0001
1000
0001
0000
,  // measure 18
1000
0010
0100
0001
0000
0010
0100
1000
,  // measure 19
0000
0010
0100
0001
0000
0100
0010
1000
,  // measure 20
0000
0100
1000
0010
0000
0100
0001
0010
,  // measure 21
0000
0100
1000
0010
0100
0001
0010
0000
,  // measure 22
0100
1000
0001
1000
0000
0010
0100
0001
,  // measure 23
0000
0010
0100
1000
0000
0001
1000
0010
,  // measure 24
0000
0100
0001
1000
0000
0100
1000
0010
,  // measure 25
0100
0000
0000
0000
,  // measure 26
0102
0000
1000
0000
0013
0000
0100
1000
,  // measure 27
0000
0010
0000
0100
0001
0100
0010
0000
,  // measure 28
2100
0000
0001
0000
3010
0000
0100
0001
,  // measure 29
0000
0010
0000
0100
1000
0010
0100
0000
,  // measure 30
0021
0000
0100
0000
0031
0000
0100
0010
,  // measure 31
0000
1000
0100
0010
0000
0100
1000
0010
,  // measure 32
0200
0000
1000
0000
0301
0000
0100
0010
,  // measure 33
0000
1000
0100
0010
0001
0000
1000
0000
,  // measure 34
0001
0000
1100
0000
1001
0000
0100
0010
,  // measure 35
0000
1000
0000
0110
0000
0001
0100
0010
,  // measure 36
1000
0000
0011
0000
1100
0000
0001
1000
,  // measure 37
0000
0010
0000
0101
0000
1000
0100
0010
,  // measure 38
0001
0000
1100
0000
1010
0000
0100
0001
,  // measure 39
0000
0100
0010
1000
0000
0001
0010
0100
,  // measure 40
1000
0010
0101
1100
,  // measure 41
0001
0100
0010
0000
1000
0000
0100
0000
,  // measure 42
0000
0000
1000
0000
0020
0000
0000
0000
0100
0000
0000
0100
0000
0000
0130
0000
,  // measure 43
0000
0000
0001
0000
2000
0000
0000
0000
0100
0000
0000
0100
0000
0000
3100
0000
,  // measure 44
0000
0000
0010
0000
0001
0000
0000
0000
2000
0000
0000
0010
0000
0000
3010
0000
,  // measure 45
0000
0000
0100
0000
0001
0000
0000
0000
0010
0000
0000
0100
0000
0000
1000
0000
,  // measure 46
0000
0000
0001
0000
0100
0000
0000
0000
0002
0000
0000
1000
0000
0000
1003
0000
,  // measure 47
0000
0000
0001
0000
0100
0000
0000
0000
0020
0000
0000
1000
0000
0000
1030
0000
,  // measure 48
0000
0000
0100
0000
0010
0000
0000
0000
0002
0000
0000
0100
0000
0000
0103
0000
,  // measure 49
0000
0010
1000
0000
0100
0010
0001
0100
,  // measure 50
0010
0000
0100
0000
0010
0000
0100
0001
,  // measure 51
0010
0000
0010
0001
0100
0000
0010
1000
,  // measure 52
0001
0000
1000
0000
0001
0000
1000
0100
,  // measure 53
0010
0000
0010
0100
1000
0000
0001
0000
,  // measure 54
1100
0001
0100
0010
,  // measure 55
1001
0100
0010
0001
,  // measure 56
1100
0101
1010
0011
,  // measure 57
1000
0100
1000
0100
0010
0001
0010
0001
,  // measure 58
1000
0000
0000
0000
,  // measure 59
0000
0000
0000
0000
,  // measure 60
0001
0010
0100
1000
0001
0100
0010
1000
,  // measure 61
0100
0010
0001
0100
0010
1000
0100
0010
,  // measure 62
0000
0100
1000
0010
0100
0001
0010
0100
,  // measure 63
1000
0010
0100
0001
1000
0100
1000
0010
,  // measure 64
0000
0100
0001
0010
0100
0010
0001
1000
,  // measure 65
0001
0100
0010
2000
0000
3001
0010
0100
,  // measure 66
1000
0000
0001
0100
0010
0100
0001
0010
,  // measure 67
0100
1000
0010
0100
0001
1000
0100
0010
,  // measure 68
0001
1000
0100
1000
0010
1000
0001
1000
,  // measure 69
0010
0100
0001
0010
0100
1000
0010
0100
,  // measure 70
0000
0001
0010
0100
0010
0001
0100
0010
,  // measure 71
1000
0100
0010
0001
1000
0010
0100
0001
,  // measure 72
0000
1000
0100
1000
0001
0010
0001
1000
,  // measure 73
0010
0100
0001
0010
0000
0100
1000
0010
,  // measure 74
0100
0001
0010
0100
1000
0010
0100
0001
,  // measure 75
1000
0100
1000
0010
0100
0001
0010
0100
,  // measure 76
1000
0000
0000
0000
;

//---------------dance-single - ----------------
#NOTES:
     dance-single:
     :
     Medium:
     6:
     0.390,0.388,0.147,0.147,0.000:
0000
0000
0000
0000
,
0000
0000
0000
0000
,
0000
0000
0000
0000
,
0000
0000
0000
0000
,
0000
0000
0000
0000
,
0000
0000
0000
0000
,
0000
0000
0000
0000
,
0000
0000
0000
0000
,
2000
0001
3001
0100
,
0010
1000
0100
0010
,
0002
0100
0103
0010
,
1000
0001
0100
0010
,
2000
0100
3100
1000
,
0010
0100
0001
0010
,
0200
0000
1000
0000
1300
0000
0001
0100
,
0000
0100
0001
0000
1000
0000
0001
0000
,
1001
0000
0000
0000
,
0100
1000
0010
0100
,
0001
0010
0100
1000
,
0010
0100
0001
1000
,
0100
0000
0010
0000
0001
0100
0001
0000
,
1100
0010
0100
0001
,
1000
0100
0010
0001
,
0100
0010
0100
0001
,
2000
0000
3000
0000
,
0001
0000
0100
0000
0010
0000
1000
0010
,
0000
0010
0000
0100
0001
0000
1000
0000
,
0001
0000
0100
0000
0010
0000
0100
0001
,
0000
0001
0000
1000
0100
0000
0010
0000
,
1001
0000
0100
0000
0010
0000
0001
1000
,
0000
1000
0000
0010
0000
0100
0001
0000
,
0010
0000
0100
0000
1000
0000
0010
0100
,
0000
0100
0010
0000
1000
0000
0100
0000
,
2001
0000
0100
0000
3010
0000
0100
0010
,
0000
0010
0000
1000
0000
0001
1000
0000
,
0021
0000
0100
0000
0031
0000
1000
0001
,
0000
0100
0000
0010
0000
0100
0001
0000
,
2100
0000
0001
0000
3010
0000
0100
0001
,
0000
0010
0000
0100
0000
1000
0010
0000
,
0102
0000
1000
0000
0013
0000
0100
1000
,
0000
0001
1000
0000
0010
0000
0010
0000
,
0200
1000
1000
0001
,
0302
1000
1000
0010
,
0023
1000
1000
0001
,
0032
0100
0100
0010
,
0023
1000
0100
0100
,
0032
1000
0010
0010
,
0203
1000
0010
0010
,
0302
0010
1000
1000
,
0103
0010
0100
0010
,
1000
0001
1000
0001
,
1000
0100
1000
0100
,
0010
0001
0010
0001
,
1010
0100
0001
0010
,
1100
0010
0100
0001
,
1100
0010
0101
0010
,
1000
0100
1000
0100
0010
0001
0010
0001
,
1000
0000
0000
0000
,
0000
0000
0000
0000
,
0000
1000
0010
0000
0100
0000
0001
0000
,
0010
0000
0100
1000
0000
0010
0000
1001
,
0000
0100
1000
0000
0010
0000
0100
0000
,
0001
0000
0010
0100
0000
1000
0000
0101
,
0000
0010
1000
0000
0001
0000
1000
0000
,
0100
0010
0100
0010
0000
0001
0100
0000
,
0010
0000
1000
0000
0100
0000
0010
0001
,
0000
1000
0000
0010
0000
1000
0100
0010
,
0000
0001
0100
0000
0010
0000
1000
0000
,
0001
0000
0010
0100
0000
0010
0000
1001
,
0000
0100
1000
0000
0010
0000
0100
0001
,
0010
0000
0100
1000
0000
0010
0000
0101
,
0000
0010
1000
0000
1000
0000
1000
0000
,
0001
0000
1000
0100
0000
0010
0001
0000
,
1001
0100
1001
0010
,
0100
0000
1000
0000
0001
0100
0010
0100
,
0001
0000
0000
0000
;

//---------------dance-single - ----------------
#NOTES:
     dance-single:
     :
     Easy:
     4:
     0.276,0.291,0.052,0.000,0.000:
0000
0000
0000
0000
,
0000
0000
0000
0000
,
0000
0000
0000
0000
,
0000
0000
0000
0000
,
0000
0000
0000
0000
,
0000
0000
0000
0000
,
0000
0000
0000
0000
,
0000
0000
0000
0000
,
1000
0100
1000
0000
,
0001
0100
0001
0000
,
1000
0010
1000
0000
,
0001
0010
0001
0000
,
1000
0100
1000
0100
,
0010
0001
0010
0001
,
1000
0010
1000
0010
,
0100
0001
0100
0001
,
1000
0000
0000
0000
,
0001
1000
0000
0010
,
0000
0100
0000
0001
,
1000
0010
0000
0100
,
0000
0001
0010
0100
,
1000
0010
0000
0100
,
0000
0001
0000
1000
,
0000
0100
0000
1000
,
0010
0000
0000
0000
,
1000
0000
0100
0000
1000
0000
0000
0001
,
0000
1000
0000
0000
0010
0000
0100
0000
,
0001
0000
1000
0000
0001
0000
0000
0010
,
0000
0100
0000
0000
1000
0000
0010
0000
,
0100
0000
0001
0000
1000
0000
0000
0100
,
0000
0010
0000
0001
0000
0000
1000
0000
,
0010
0000
1000
0000
0001
0000
0000
0010
,
0000
0100
1000
0001
,
0100
0000
0010
0000
0100
0000
0000
0001
,
0000
0001
0000
1000
0000
0000
0100
0000
,
0010
0000
0001
0000
0100
0000
0000
0010
,
0000
0010
0000
1000
0000
0000
0001
0000
,
0010
0000
0100
0000
1000
0000
0000
0010
,
0000
0010
0000
0100
0000
0000
0001
0000
,
1000
0000
0100
0000
1000
0000
0000
0010
,
0000
0010
0100
0001
,
1000
0001
1000
1000
,
0000
0010
0100
0100
,
0000
0001
0010
0010
,
0000
0100
1000
1000
,
0000
0010
0100
0100
,
0000
0001
1000
1000
,
0000
0010
0100
0100
,
0000
0001
0010
0100
,
1000
0001
1000
0000
,
1001
0000
0110
0000
,
0100
0001
0100
0000
,
0101
0000
1010
0000
,
1000
0100
1000
0000
,
0001
0100
0001
0000
,
1000
0100
0010
0001
,
0100
0100
0010
0010
,
1001
0000
0000
0000
,
0000
0000
0000
0000
,
1000
0100
0010
0001
,
1000
0010
0100
0001
,
1000
0001
0010
0100
,
1000
0010
0100
0001
,
1000
0100
0010
0001
,
0100
0000
0000
1001
0000
0000
0100
0000
,
1000
0010
0100
0001
,
0010
0100
1000
0010
,
0100
0001
1000
0010
,
1000
0100
0010
0001
,
0100
0010
0100
0001
,
0010
0100
1000
0010
,
0100
0001
1000
0010
,
1000
0001
0010
0100
,
1000
0010
0100
0001
,
1000
0100
0010
0001
,
0100
0000
0000
0000
;

//---------------dance-single - ----------------
#NOTES:
     dance-single:
     :
     Beginner:
     2:
     0.169,0.259,0.069,0.000,0.000:
0000
0000
0000
0000
,
0000
0000
0000
0000
,
0000
0000
0000
0000
,
0000
0000
0000
0000
,
0000
0000
0000
0000
,
0000
0000
0000
0000
,
0000
0000
0000
0000
,
0000
0000
0000
0000
,
1000
1000
1000
0000
,
0000
0000
0000
0000
,
0001
0001
0001
0000
,
0000
0000
0000
0000
,
0100
0100
0100
0000
,
0000
0000
0000
0000
,
0010
0010
0010
0000
,
1000
0000
0001
0000
,
1001
0000
0000
0000
,
0001
0000
0100
0000
,
0010
0000
1000
0000
,
0100
0000
0010
0000
,
0001
0000
1000
1000
,
1000
0000
0010
0000
,
0100
0000
0001
0000
,
0010
0000
0100
0000
,
1000
0000
0000
0000
,
0001
0000
0100
0000
,
0010
0000
1000
0000
,
0100
0000
1000
0000
,
0010
0000
0100
0100
,
0100
0000
0001
0000
,
0010
0000
0100
0000
,
1000
0000
0010
0000
,
0100
0000
0001
0000
,
1000
1000
1000
0000
,
0001
0000
1000
0000
,
0001
0001
0001
0000
,
0100
0000
0010
0000
,
0100
0100
0100
0000
,
0010
0000
1000
0000
,
0100
0100
0100
0000
,
0010
0000
0001
0000
,
1001
0000
0000
0000
,
1000
0000
0000
0000
,
0010
0000
0000
0000
,
0100
0000
0000
0000
,
0001
0000
0000
0000
,
0010
0000
0000
0000
,
0100
0000
0000
0000
,
1000
0000
0000
0000
,
0010
0010
0010
0000
,
0100
0000
0001
0000
,
0010
0010
0010
0000
,
0100
0000
1000
0000
,
0010
0000
0100
0000
,
0001
0000
1000
0000
,
1001
0000
1001
0000
,
0110
0000
0110
0000
,
1001
0000
0000
0000
,
0000
0000
0000
0000
,
1000
0000
0010
0000
,
0100
0000
0001
0000
,
0010
0000
0100
0000
,
1000
0000
0010
0000
,
0100
0000
0001
0000
,
1000
1000
0000
0000
,
0001
0000
0100
0000
,
0010
0000
1000
0000
,
0100
0000
0010
0000
,
0001
0000
0100
0000
,
0010
0000
1000
0000
,
0001
0000
0010
0000
,
0100
0000
1000
0000
,
0010
0000
0100
0000
,
0010
0000
1000
0000
,
0001
0001
0001
0000
,
1001
0000
0000
0000
;
