#TITLE:Coco Jamboo;
#SUBTITLE:;
#ARTIST:Mr. President;
#TITLETRANSLIT:;
#SUBTITLETRANSLIT:;
#ARTISTTRANSLIT:;
#CREDIT:Xythar;
#BANNER:Coco Jamboo.png;
#BACKGROUND:Coco Jamboo-bg.png;
#LYRICSPATH:Coco Jamboo.lrc;
#CDTITLE:blank.png;
#MUSIC:Coco Jamboo.mp3;
#OFFSET:-0.045;
#SAMPLESTART:18.603;
#SAMPLELENGTH:19.200;
#SELECTABLE:YES;
#BPMS:0.000=99.996;
#STOPS:;
#BGCHANGES:7.500=Coco Jamboo.avi=1.000=1=0=1,
165.500=bg.png=1.000=0=0=1,
99999=-nosongbg-=1.000=0=0=0 // don't automatically add -songbackground-
;

//---------------dance-single - ----------------
#NOTES:
     dance-single:
     :
     Hard:
     7:
     0.409,0.384,0.049,0.098,0.205:
0000
0000
0000
0000
,
0000
0000
0000
0000
,
0000
0000
0000
0000
,
0000
0000
0000
0000
,
1000
0000
0100
0000
0010
0000
0001
1000
0000
0010
0000
0010
0100
0000
0001
0000
,
1000
0000
0010
0000
0100
0000
0001
1000
0000
0100
0000
0100
0010
0000
0001
0000
,
2000
0000
0000
0001
0000
0000
3001
0000
0100
0000
0010
0000
1000
0000
0100
0000
,
0020
0000
0000
0001
0000
0000
0031
0000
1000
0000
0000
0000
0100
0000
1000
0000
,
0010
0000
0100
0000
0001
0000
0010
0100
0000
0000
0010
0000
0001
0000
0100
0000
,
1000
0000
0100
0000
0010
0000
0100
0001
0000
0000
1000
0000
0001
0000
0100
0000
,
0010
0000
0100
0000
0001
0000
0010
0100
0000
0000
1000
0000
0010
0000
0100
0001
,
0000
1000
0000
0000
0001
0000
0100
0000
0010
0000
0000
0000
1000
0000
0100
0000
,
0010
0000
0001
0000
1000
0000
0010
0100
0000
0000
0001
0000
1000
0000
0010
0000
,
1000
0000
0001
0000
0010
0000
0100
1000
0000
0000
0001
0000
1000
0000
0001
0000
,
0010
0000
0100
0000
0010
0000
0001
0100
0000
0000
1000
0000
0100
0000
0010
1000
,
0000
0001
0000
0000
1000
0000
0100
0000
0010
0001
0000
0001
1000
0000
0010
0000
,
0100
0001
1000
0100
0010
0100
1000
0000
,
0001
0100
0010
0100
0001
1000
0100
0000
,
0010
0100
1000
0000
1000
0010
0100
0000
,
0001
0010
0100
1000
0010
0100
0001
0000
,
1000
0010
0100
0000
0001
0100
0101
0000
,
1000
0100
0010
0000
0001
0010
0011
0000
,
1000
0010
0100
1000
0100
0001
1001
0000
,
0001
0010
0100
1000
0001
0000
1000
0001
,
0010
0000
0100
0000
1000
0000
0001
0100
0000
0000
0010
0000
0100
0000
0001
0000
,
1000
0000
0100
0000
0010
0000
0001
1000
0000
0000
0010
0000
0100
0000
0001
0000
,
0010
0000
0100
0000
0010
0000
0001
1000
0000
0000
0010
0000
0100
0000
0010
1000
,
0000
0001
0000
0000
0100
0000
0010
0000
1000
0000
0000
0000
0100
0000
1000
0000
,
0010
0000
0100
0000
0001
0000
1000
0100
0000
0000
1000
0000
0001
0000
0100
0000
,
0010
0000
1000
0000
0100
0000
0010
0100
0000
0000
1000
0000
0001
0000
0100
0000
,
0010
0000
0100
0000
0001
0000
1000
0100
0000
0000
1000
0000
0001
0000
0100
0001
,
0000
1000
0000
0000
0001
0000
0010
0000
0100
1000
0000
1000
0001
0000
1001
0000
,
2000
0000
0000
0010
0000
0000
3010
0000
0100
0000
0001
0000
0010
0000
0100
0000
,
0020
0000
0000
0001
0000
0000
0031
0000
0100
0000
0010
0000
1000
0000
0100
0000
,
0020
0000
0000
0001
0000
0000
0031
0000
0100
0000
1000
0000
0100
0000
0010
0000
,
2000
0000
0000
0100
0000
0000
3100
0000
0001
0000
0100
0000
0010
0000
0001
0000
,
2000
0000
0000
0100
0000
0000
3100
0000
1000
0000
0010
0000
0100
0000
0001
0000
,
0020
0000
0000
0100
0000
0000
0130
0000
0010
0000
0001
0000
0100
0000
0010
0000
,
0200
0000
0000
0001
0000
0000
0301
0000
1000
0000
0010
0000
0100
0000
0001
0000
,
2000
0000
0000
0100
0000
0000
3100
0000
1000
0000
0001
0000
0100
0000
0001
0000
,
1000
0000
0000
0010
0000
0000
0100
0000
0001
0000
0010
0000
0100
0000
1000
0000
,
0001
0000
0000
1000
0000
0000
1001
0000
0000
0000
0000
0000
0000
0000
0000
0000
;

//---------------dance-single - ----------------
#NOTES:
     dance-single:
     :
     Medium:
     5:
     0.280,0.283,0.068,0.000,0.005:
0000
0000
0000
0000
,
0000
0000
0000
0000
,
0000
0000
0000
0000
,
0000
0000
0000
0000
,
1000
0010
0100
0000
0001
0000
1000
0000
,
0100
0010
0001
0000
1000
0000
0010
0000
,
0100
0000
0001
1000
0001
0000
0010
0100
,
0010
0000
0001
0000
1000
0000
0100
1000
,
0010
0000
1000
0001
0100
0000
0001
0010
,
0100
0000
1000
0000
0001
0000
1000
0001
,
0010
0000
0100
1000
0001
0000
0100
0000
,
0010
0000
1000
0000
0001
0000
1000
0100
,
0010
0000
0001
0010
0100
0000
1000
0010
,
0100
0000
0001
0000
1000
0000
0001
0100
,
0010
0000
1000
0000
0100
0000
0010
0001
,
1000
0000
0010
0000
0100
0001
0100
0001
,
1000
0100
1000
0000
0001
0000
0101
0000
,
0100
0010
0100
0000
0010
0000
1010
0000
,
1000
0100
0010
0000
0010
0100
1000
0000
,
0001
0100
0010
0000
1000
0000
1001
0000
,
0001
0100
0010
0000
1000
0000
1100
0000
,
0010
0001
1000
0000
0010
0000
0101
0000
,
0001
1000
0100
0000
0001
0000
1100
0000
,
1000
0010
0100
0000
0101
0000
1000
0001
,
0010
0000
0001
1000
0100
0000
1000
0010
,
0100
0000
0001
0000
1000
0000
0100
1000
,
0010
0000
0100
0001
1000
0000
0100
0000
,
0010
0000
0001
0000
0100
0000
0010
1000
,
0010
0000
0100
0001
0100
0000
0001
0010
,
0100
0000
1000
0000
0001
0000
0100
0001
,
0010
0000
0100
0000
1000
0000
0010
0100
,
0001
0000
1000
0000
0100
0010
0100
0010
,
0001
0000
1000
0000
0010
1000
0010
0000
,
0100
0000
0001
0000
1000
0001
1000
0000
,
0100
0000
0010
0000
0001
0010
0001
0000
,
1000
0000
0010
0000
0100
0001
0100
0000
,
0001
0000
1000
0000
0100
1000
0001
0000
,
0100
0000
0001
0000
1000
0010
0100
0000
,
0001
0000
1000
0000
0100
0010
0001
0000
,
1000
0000
0010
0000
0100
0001
1000
0000
,
0010
0000
0100
0000
,
0001
0000
0000
1000
0000
0000
0001
0000
0000
0000
0000
0000
0000
0000
0000
0000
;

//---------------dance-single - ----------------
#NOTES:
     dance-single:
     :
     Easy:
     2:
     0.144,0.180,0.039,0.000,0.000: // measure 1
0000
0000
0000
0000
,  // measure 2
0000
0000
0000
0000
,  // measure 3
0000
0000
0000
0000
,  // measure 4
0000
0000
0000
0000
,  // measure 5
1000
0001
1000
0100
,  // measure 6
1000
0010
0100
0001
,  // measure 7
1000
0000
0100
0000
,  // measure 8
1000
0010
0100
0000
,  // measure 9
0010
0000
0100
0000
,  // measure 10
0001
1000
0001
0000
,  // measure 11
0010
0000
0001
1000
,  // measure 12
0100
0000
1000
0000
,  // measure 13
0010
0000
0100
0000
,  // measure 14
0001
0010
0100
0000
,  // measure 15
0010
0000
0100
0000
,  // measure 16
1000
0001
1000
0001
,  // measure 17
1001
0000
0001
0100
,  // measure 18
0000
0000
0001
1000
,  // measure 19
0000
0010
0000
0100
,  // measure 20
0000
0001
0010
0100
,  // measure 21
0000
1000
0000
1001
,  // measure 22
0000
0010
0000
0110
,  // measure 23
0000
0100
0001
1001
,  // measure 24
0000
1000
0100
0000
,  // measure 25
0010
0000
0100
0000
,  // measure 26
1000
0001
1000
0000
,  // measure 27
0010
0000
0100
0000
,  // measure 28
0001
0000
0010
0100
,  // measure 29
0010
0000
0100
0000
,  // measure 30
1000
0010
0100
0000
,  // measure 31
0010
0000
1000
0000
,  // measure 32
0001
0000
1000
0001
,  // measure 33
1000
0010
0100
0000
,  // measure 34
0001
1000
0100
0000
,  // measure 35
1000
0001
0100
0000
,  // measure 36
0010
1000
0100
0000
,  // measure 37
0010
0001
0100
0000
,  // measure 38
0010
1000
0001
0000
,  // measure 39
1000
0010
0100
0000
,  // measure 40
0001
0010
0100
0000
,  // measure 41
1000
0000
0000
0000
,  // measure 42
0001
0000
0000
0000
;

//---------------dance-single - ----------------
#NOTES:
     dance-single:
     :
     Beginner:
     1:
     0.107,0.140,0.010,0.000,0.000:
0000
0000
0000
0000
,
0000
0000
0000
0000
,
0000
0000
0000
0000
,
0000
0000
0000
0000
,
1000
0000
0001
0000
,
1000
0000
0010
0000
,
0100
0000
0000
0000
,
0001
0000
0000
0000
,
0010
0000
0100
0000
,
1000
0000
0001
0000
,
0010
0000
0001
0000
,
0100
0000
0001
0000
,
0010
0000
0100
0000
,
1000
0000
0001
0000
,
0010
0000
0001
0000
,
0100
0000
0010
0000
,
1000
0000
0001
0001
,
0001
0000
0010
0010
,
0010
0000
0100
0000
,
1000
0000
0010
0010
,
0010
0000
0100
0000
,
0001
0000
1001
0000
,
0010
0000
0100
0000
,
1000
1000
1000
0000
,
0010
0000
0100
0000
,
0001
0000
1000
0000
,
0010
0000
1000
0000
,
0100
0000
1000
0000
,
0010
0000
0100
0000
,
0001
0000
1000
0000
,
0010
0000
1000
0000
,
0100
0000
0010
0000
,
0001
0000
0100
0000
,
0010
0000
1000
0000
,
0001
0000
1000
0000
,
0100
0000
1000
0000
,
0010
0000
0100
0000
,
0010
0000
1000
0000
,
0001
0000
1000
0000
,
0010
0000
0100
0000
,
0001
0000
0000
0000
,
1000
0000
0000
0000
;
