#TITLE:Caramelldansen;
#SUBTITLE:(Speedy Cake Remix);
#ARTIST:caramell;
#TITLETRANSLIT:;
#SUBTITLETRANSLIT:;
#ARTISTTRANSLIT:;
#CREDIT:Xythar;
#BANNER:Caramelldansen (Speedy Cake Remix).png;
#BACKGROUND:Caramelldansen (Speedy Cake Remix)-bg.png;
#LYRICSPATH:;
#CDTITLE:supergott.png;
#MUSIC:Caramelldansen (Speedy Cake Remix).ogg;
#OFFSET:-1.989;
#SAMPLESTART:51.680;
#SAMPLELENGTH:11.680;
#SELECTABLE:YES;
#BPMS:0.000=164.200;
#STOPS:;
#BGCHANGES:;

//---------------dance-single - ----------------
#NOTES:
     dance-single:
     :
     Hard:
     7:
     0.478,0.517,0.401,0.123,0.089:
0000
0000
0000
0000
,
0000
0000
0000
0000
,
0000
0000
0000
0000
,
0000
0000
0000
0000
,
0000
0000
0000
0000
,
0000
0000
0000
0000
,
0000
0000
0000
0000
,
0000
0000
0000
0000
,
1000
0000
0000
0000
,
0000
0000
0000
0000
,
0001
0000
0000
1000
0000
0000
0100
0000
0000
1000
0000
0000
0010
0000
0100
0000
,
0010
0000
0000
0100
0000
0000
0001
0000
0000
1000
0000
0000
0100
0000
0010
0000
,
0100
0000
0000
0010
0000
0000
0001
0000
0000
0100
0000
0000
0010
0000
1000
0000
,
0010
0000
0000
0100
0000
0000
0001
0000
0000
1000
0000
0000
0001
0000
0010
0000
,
0100
0000
0000
1000
0000
0000
0010
0000
0000
0100
0000
0000
0001
0000
0100
0000
,
0001
0000
0000
1000
0000
0000
0100
0000
0000
0010
0000
0000
0100
0000
1000
0000
,
0010
0000
0000
0001
0000
0000
0010
0000
0000
1000
0000
0000
0100
0000
0010
0000
,
0100
0000
0000
0010
0000
0000
0001
0000
0000
0100
0000
0000
0010
0000
1000
0000
,
0100
0000
0100
0000
0010
0000
0010
0001
,
1000
0001
0000
1010
0000
0100
0001
0000
,
0010
0000
0010
0000
0100
0000
0100
1000
,
0100
1000
0000
0101
0000
0010
1000
0100
,
1000
0000
0010
0200
0000
0001
0000
1300
,
0000
0010
0000
0100
0000
0001
1000
0100
,
1000
0000
0001
0100
0000
0010
0000
1000
,
0100
0000
1000
0001
,
0210
0000
0301
0100
1000
0000
0100
0000
,
0100
0001
0000
1100
0000
0001
0100
0000
,
0021
0130
1020
0130
,
1000
0100
0000
0001
0000
1000
0100
0000
,
0020
0000
1000
0000
0031
0000
1000
0100
,
0000
0010
0001
0100
0000
0010
1000
0001
,
1000
0000
0101
0000
0010
1000
0001
0000
,
2100
0001
0001
3001
,
0110
0000
0001
1000
0100
0000
0010
0001
,
0000
0100
0010
0000
2100
0000
3001
0000
,
0110
0000
0001
0010
0100
0000
1000
0010
,
0000
0100
0001
0000
1020
0000
0130
0000
,
1001
0000
0100
0010
0001
0000
1000
0100
,
0000
0010
0001
0000
2010
0000
3001
0000
,
0110
0000
0001
0010
0100
0000
1000
0000
,
0101
0000
1100
0000
0001
1000
1001
0000
,
1100
0000
0011
0000
0100
1000
0010
0100
,
0000
0001
0000
1000
0000
0001
1000
0000
,
0011
0000
1100
0000
0010
0100
0001
0010
,
0000
0100
1000
0010
0000
0100
0001
0000
,
1010
0000
0101
0000
0010
0100
1000
0010
,
0000
1000
0000
0001
0000
1000
0001
0000
,
0101
0000
1010
0000
0100
0010
0001
0100
,
0010
1100
0101
1100
,
0001
0010
0100
0010
0001
0000
1000
0010
,
0000
0100
0001
0000
2100
0000
3001
0000
,
0001
0100
1000
0100
0001
0000
0010
0100
,
0000
1000
0010
0000
0201
0000
0310
0000
,
1000
0100
0001
0100
1000
0000
0010
0100
,
0000
0001
1000
0000
0100
0000
0011
0000
,
0100
1000
0010
1000
0100
1000
0010
0000
,
1100
0011
0101
1010
,
0001
0000
0000
0000
;

//---------------dance-single - ----------------
#NOTES:
     dance-single:
     :
     Medium:
     6:
     0.355,0.420,0.156,0.045,0.000:
0000
0000
0000
0000
,
0000
0000
0000
0000
,
0000
0000
0000
0000
,
0000
0000
0000
0000
,
0000
0000
0000
0000
,
0000
0000
0000
0000
,
0000
0000
0000
0000
,
0000
0000
0000
0000
,
0001
0000
0000
0000
,
0000
0000
0000
0000
,
1000
0000
0100
0000
0010
0000
0001
0100
,
0001
0000
1000
0000
0010
0000
0100
0010
,
0100
0000
0001
0000
0010
0000
0100
1000
,
0100
0000
1000
0010
1000
0000
0001
0100
,
0001
0000
0010
0000
1000
0000
0010
0100
,
0010
0000
0100
0000
1000
0000
0010
0100
,
0010
0000
0100
0000
0001
0000
1000
0100
,
1000
0000
0001
0100
0001
0000
1100
0000
,
0010
0100
0010
1000
,
0001
1000
0000
0100
0000
0000
0010
0000
,
0001
0100
0010
0100
,
0001
1000
0000
0100
0000
0000
1000
0000
,
0020
0000
0000
0130
0000
0000
0001
0000
,
1000
0000
0100
1000
,
0020
0000
0000
0130
0000
0000
0001
0000
,
0020
0000
0000
0130
0000
0000
1000
0000
,
0001
1000
0010
0100
,
0001
1000
0000
1001
0000
0000
0100
0000
,
1000
0010
0100
0001
,
0010
0100
0000
0110
0000
0000
0100
0000
,
2000
0000
0000
3010
0000
0000
0100
0000
,
0001
0000
0000
1000
0000
0000
0001
0000
,
0100
0000
0000
0010
0000
0000
1000
0000
,
0100
1000
0001
1000
,
0010
0000
0100
0000
1001
0000
0000
0100
,
0000
0010
0001
0000
0100
0000
0010
0000
,
1000
0000
0100
0000
0011
0000
0000
0100
,
0000
1000
0010
0000
0100
0000
0001
0000
,
1000
0000
0001
0000
0110
0000
0000
0001
,
0000
1000
0100
0000
0010
0000
0001
0000
,
0100
0010
1100
0010
,
1001
0100
1001
1001
,
0100
0000
1000
0000
0010
0100
0000
0001
,
0000
1000
0000
0100
0000
1000
0010
0000
,
0100
0000
0001
0000
0010
0100
0000
1000
,
0000
0001
0000
0000
0000
0000
1000
0000
,
0010
0000
0010
0000
0100
0001
0000
1000
,
0000
0001
0000
0010
0000
0100
1000
0000
,
0010
0000
0100
0000
0001
1000
0000
0100
,
0000
1000
0010
0000
0001
0000
1100
0000
,
0001
0000
1000
0100
1000
0000
0001
0100
,
0000
0100
0001
0000
1000
0000
0100
0000
,
0010
0000
0001
0100
0001
0000
0010
0100
,
0000
0100
0010
0000
0100
0000
1000
0000
,
0010
0000
0100
0010
0100
0000
0001
1000
,
0000
1000
0001
0000
0010
0000
0100
0000
,
1000
0000
0010
0100
0010
0000
1000
0000
,
0101
0010
1001
1001
,
0100
0000
0000
0000
;

//---------------dance-single - ----------------
#NOTES:
     dance-single:
     :
     Easy:
     4:
     0.245,0.323,0.100,0.000,0.000: // measure 1
0000
0000
0000
0000
,  // measure 2
0000
0000
0000
0000
,  // measure 3
0000
0000
0000
0000
,  // measure 4
0000
0000
0000
0000
,  // measure 5
0000
0000
0000
0000
,  // measure 6
0000
0000
0000
0000
,  // measure 7
0000
0000
0000
0000
,  // measure 8
0000
0000
0000
0000
,  // measure 9
1000
0000
0000
0000
,  // measure 10
0000
0000
0000
0000
,  // measure 11
0001
0000
0100
0010
,  // measure 12
1000
0000
0100
1000
,  // measure 13
0010
0000
0100
0001
,  // measure 14
0010
0000
0100
1000
,  // measure 15
0010
0000
0100
0001
,  // measure 16
1000
0000
0100
1000
,  // measure 17
0001
0000
0100
0000
,  // measure 18
0010
1000
0100
1000
,  // measure 19
0010
0000
0010
0000
,  // measure 20
0100
0100
0100
0000
,  // measure 21
0001
0000
1000
0000
,  // measure 22
0100
0100
0100
0000
,  // measure 23
1000
0010
0100
0000
,  // measure 24
0001
0000
0010
0100
,  // measure 25
1000
0010
0100
0000
,  // measure 26
0001
0000
1000
0000
,  // measure 27
0001
0010
0100
1000
,  // measure 28
1001
0000
1001
0000
,  // measure 29
0010
0100
0001
0000
,  // measure 30
0110
0000
0110
0000
,  // measure 31
0001
1000
0010
0000
,  // measure 32
0100
0000
0001
0010
,  // measure 33
0100
0000
1000
0000
,  // measure 34
0001
0000
0000
0000
,  // measure 35
1000
0010
0100
0000
,  // measure 36
0001
0010
0100
0100
,  // measure 37
1000
0010
0100
0000
,  // measure 38
0001
1000
0100
0100
,  // measure 39
1000
0010
0100
0000
,  // measure 40
0001
0010
0100
0100
,  // measure 41
1000
0010
0100
0000
,  // measure 42
1001
0000
1001
0000
,  // measure 43
0010
0000
0100
0000
0010
0000
0000
1000
,  // measure 44
0000
0000
0000
0000
,  // measure 45
0001
0000
0100
0000
0001
0000
0000
0010
,  // measure 46
0000
0100
0000
1000
,  // measure 47
0010
0000
0010
0000
0100
0000
0000
0001
,  // measure 48
0000
0000
0000
1000
,  // measure 49
0100
0000
0100
0000
1000
0000
0000
0001
,  // measure 50
0000
1000
0001
1000
,  // measure 51
1001
0010
0100
0100
,  // measure 52
0001
1000
0100
0100
,  // measure 53
1000
0010
0100
0001
,  // measure 54
0010
0010
0100
0100
,  // measure 55
1000
0010
0100
0010
,  // measure 56
1000
0100
0010
0010
,  // measure 57
0001
0100
0010
1000
,  // measure 58
1001
0000
1001
0000
,  // measure 59
0010
0000
0000
0000
;

//---------------dance-single - ----------------
#NOTES:
     dance-single:
     :
     Beginner:
     2:
     0.162,0.226,0.033,0.000,0.000: // measure 1
0000
0000
0000
0000
,  // measure 2
0000
0000
0000
0000
,  // measure 3
0000
0000
0000
0000
,  // measure 4
0000
0000
0000
0000
,  // measure 5
0000
0000
0000
0000
,  // measure 6
0000
0000
0000
0000
,  // measure 7
0000
0000
0000
0000
,  // measure 8
0000
0000
0000
0000
,  // measure 9
1000
0000
0000
0000
,  // measure 10
0000
0000
0000
0000
,  // measure 11
0001
0000
0001
0000
,  // measure 12
1000
0000
1000
0000
,  // measure 13
0100
0000
0100
0000
,  // measure 14
0010
0000
0010
0000
,  // measure 15
0001
0000
0001
0000
,  // measure 16
0100
0000
0100
0000
,  // measure 17
0010
0000
0010
0000
,  // measure 18
1000
0000
1000
0000
,  // measure 19
0001
0000
0001
0000
,  // measure 20
0001
0001
0001
0000
,  // measure 21
1000
0000
1000
0000
,  // measure 22
1000
1000
1000
0000
,  // measure 23
0100
0000
0100
0000
,  // measure 24
0010
0000
0010
0000
,  // measure 25
0001
0000
1000
0000
,  // measure 26
0010
0000
0000
0000
,  // measure 27
0100
0000
0001
0000
,  // measure 28
0001
0001
0001
0000
,  // measure 29
1000
0000
0100
0000
,  // measure 30
0100
0100
0100
0000
,  // measure 31
0010
0000
0001
0000
,  // measure 32
0100
0000
0000
0000
,  // measure 33
0010
0000
1000
0000
,  // measure 34
1001
0000
0000
0000
,  // measure 35
1000
0000
0010
0000
,  // measure 36
0100
0000
0001
0000
,  // measure 37
0010
0000
0100
0000
,  // measure 38
1000
0000
0010
0000
,  // measure 39
0100
0000
0001
0000
,  // measure 40
1000
0000
0100
0000
,  // measure 41
1000
0000
0010
0000
,  // measure 42
0100
0100
0100
0000
,  // measure 43
0001
0001
0001
0000
,  // measure 44
0000
0000
0000
0000
,  // measure 45
1000
1000
1000
0000
,  // measure 46
0000
0000
0000
0000
,  // measure 47
0010
0010
0010
0000
,  // measure 48
0000
0000
0000
0000
,  // measure 49
0100
0100
0100
0000
,  // measure 50
1001
0000
0001
0000
,  // measure 51
1000
0000
0010
0000
,  // measure 52
0100
0000
0001
0000
,  // measure 53
0010
0000
0100
0000
,  // measure 54
1000
0000
0010
0000
,  // measure 55
0100
0000
0001
0000
,  // measure 56
1000
0000
0100
0000
,  // measure 57
1000
0000
0010
0000
,  // measure 58
1001
0000
0001
0001
,  // measure 59
0001
0000
0000
0000
;
