#TITLE:Brother soul;
#SUBTITLE:(Ryu☆ Remix);
#ARTIST:kors k feat. 上杉美鳩;
#TITLETRANSLIT:;
#SUBTITLETRANSLIT:(Ryu* Remix);
#ARTISTTRANSLIT:kors k feat. Mihato Uesugi;
#CREDIT:Xythar;
#BANNER:Brother soul (Ryu Remix).png;
#BACKGROUND:Brother soul (Ryu Remix)-bg.png;
#LYRICSPATH:;
#CDTITLE:cdtitle.png;
#MUSIC:Brother soul (Ryu Remix).mp3;
#OFFSET:0.057;
#SAMPLESTART:69.380;
#SAMPLELENGTH:22.600;
#SELECTABLE:YES;
#BPMS:0.000=191.000;
#STOPS:7.000=0.079
,7.250=0.079
,7.500=0.079
,7.750=0.079
;
#BGCHANGES:;

//---------------dance-single - ----------------
#NOTES:
     dance-single:
     :
     Hard:
     10:
     0.849,1.000,0.459,0.272,0.251:
0000
0000
0000
0000
,
0000
0000
0000
0000
,
0000
1100
0000
0101
0000
0010
1000
0000
,
0002
0010
0010
0013
0200
1000
1000
1300
,
0000
1010
0000
0011
0000
0100
1000
0000
,
0002
0100
0100
0103
0020
1000
1000
1030
,
0000
0110
0000
1001
0000
0010
0100
0000
,
0002
0000
1000
0000
1000
0000
1003
0000
0001
1000
0001
1000
0001
1000
0001
0000
,
0000
1100
0000
1010
0000
0100
0001
0000
,
1000
0100
2000
0010
0010
3010
0100
0001
,
0000
1100
0000
0011
0000
0100
1000
0000
,
0001
0100
0020
1000
1000
1030
0100
0010
,
0000
1001
0000
1010
0000
0100
0001
0000
,
0010
0100
0020
0001
0001
0031
1000
0010
,
0000
0101
0000
1010
0000
0001
0010
0000
,
0000
1100
0000
0011
0000
1000
0010
0000
,
0100
0000
0001
0000
0010
0000
0000
0000
0100
0000
1000
0000
0001
1000
0001
1000
,
0001
0000
0100
0000
0010
1000
0010
1000
0010
0000
0100
0001
1000
0000
0100
1000
,
0001
0000
1000
0010
0000
0100
0001
0000
0000
0000
1000
0000
1001
0000
0000
0000
,
0001
0000
0010
0001
0010
0000
0001
1000
0001
0000
1000
0000
0010
1000
0010
1000
,
0002
0100
1003
0110
,
0001
1000
0010
1000
0001
1000
0100
1000
,
0010
1000
0010
0000
0100
0001
0100
0000
0001
0010
0001
0000
1000
0100
1000
0000
,
0001
0200
0000
1000
0000
0010
0000
0301
,
1000
0001
0010
0000
0200
1000
1000
1300
,
0001
0100
0010
1000
0100
1000
0010
0100
,
0001
0100
0001
0000
1000
0001
1000
0000
0100
1000
0100
0000
0010
0100
0010
0000
,
0001
0100
0010
1000
0100
0010
0001
1000
,
0001
0000
1000
0000
0001
1000
0001
0000
0200
0000
0010
0000
0310
0000
1000
0000
,
0001
1000
0001
1001
0000
1000
1100
0000
,
0001
0100
0010
0000
1000
0001
0010
0000
,
1000
0010
0001
0100
0010
0000
0001
0000
,
0010
1000
0100
0000
0010
0001
0100
0000
,
1000
0100
0001
0010
0100
0001
0100
1000
,
0000
0001
0000
0010
0000
0100
1000
0010
,
0000
0100
0000
0100
0000
0001
1000
0001
,
0000
1000
0100
1000
0010
0010
0100
0001
,
0000
2100
0000
0001
0000
3010
0000
0000
,
0100
0001
0100
0001
0010
0001
1000
0010
,
0000
0001
0010
1000
0000
0001
0100
1000
,
0000
0100
0001
0100
0001
0010
0100
0000
,
2100
3010
0102
0013
,
0100
1000
0100
1000
0001
1000
0010
0000
,
0001
0010
1000
0001
0000
1000
0100
0001
,
0000
0100
1000
1010
0000
0100
0001
0011
,
0000
1100
0000
1001
0000
0100
0010
0100
,
0002
0000
1000
0000
0013
0000
0100
1000
,
0000
0001
0100
0010
0000
0001
0010
1000
,
0100
0000
0001
0100
0000
1000
0010
0100
,
0000
1000
0100
0001
0100
0000
0001
1000
,
1100
0000
1000
0001
0100
0000
0001
1000
,
1010
0000
1000
0001
0010
0000
0100
1000
,
1001
1010
1001
0011
,
1001
0000
0100
0000
1000
0001
1000
0001
,
0020
0000
0000
0000
0000
0100
0130
0000
,
1000
0010
0100
0001
0000
0010
0000
0100
,
1000
0010
0100
0002
0000
1000
1003
0000
,
0001
0010
0001
0000
1000
0010
1000
0000
0001
0100
0001
0000
1000
0100
1000
0000
,
0001
0100
0010
2000
0000
0001
3001
0000
,
1000
0100
1000
0010
0000
0100
0001
0010
,
0000
0100
1000
0010
0000
0001
0010
1000
,
0100
1000
0001
0000
0100
0001
1000
0000
0001
1000
0010
0000
1000
0001
0010
0000
,
0000
0001
1000
0010
1000
0001
0100
0010
,
1000
0100
1000
0002
0000
0100
0000
0103
,
0010
1000
0100
0001
0000
0100
1000
0000
,
0001
1000
0001
0000
1000
0010
1000
0000
0001
1000
0001
0000
0010
0001
0010
0000
,
0200
0000
1000
1300
0000
0000
0001
0100
,
0000
0010
1000
0100
0000
0001
0100
1000
,
0000
0001
0100
1000
0000
0100
0001
0010
,
0100
1000
0001
0000
1000
0010
1000
0000
0001
0010
0100
0000
1000
0001
0100
0000
,
0000
0010
0000
1000
0100
1000
0010
0100
,
0001
0000
1100
0000
1010
0000
0100
0001
,
0000
0010
0100
2100
0000
0001
3001
0000
,
1000
0010
0100
0010
1000
0001
0010
0001
,
1000
0100
1000
0000
0010
1000
0010
0000
0100
0001
0100
0000
0001
0010
0001
0000
,
0000
1100
0000
0101
0000
1010
0000
0011
,
0001
1001
1000
0000
0002
1000
1000
1003
,
0010
0100
1000
0100
0010
0100
0001
0010
,
0100
1000
0001
0000
0100
0010
1000
0000
0001
0010
0100
0000
1000
0001
0100
0000
,
0000
1010
0000
1100
0000
0011
0000
0101
,
0100
0110
0010
0000
2000
0010
0010
3010
,
0100
0001
1000
0001
0010
0100
1000
0010
,
0100
0001
0100
0000
0010
0100
0010
0000
1000
0010
1000
0000
0001
1000
0001
0000
,
0000
1010
0000
0011
0000
1100
0000
0101
,
1000
1100
0001
0000
2000
0010
0010
3010
,
0100
1000
0100
0010
1000
0100
0010
0001
,
1000
0010
2000
0000
3001
0100
0002
0000
1003
0100
2000
0000
3001
0010
0001
0000
,
0002
2003
0010
0010
3010
0200
0001
0001
,
0301
0000
1000
0100
1000
0100
0010
0001
2000
0000
0001
0000
0001
0000
3001
0000
,
0100
0010
0100
0010
0000
1001
1001
0000
;

//---------------dance-single - ----------------
#NOTES:
     dance-single:
     :
     Medium:
     8:
     0.611,0.648,0.331,0.144,0.000:
0000
0000
0000
0000
,
0000
0000
0000
0000
,
0000
1000
0000
0001
0000
1000
0010
0000
,
0100
0000
0101
0000
0100
0001
0100
0001
,
0000
0010
0000
0100
0000
1000
0001
0000
,
1000
0000
1001
0000
1000
0001
1000
0001
,
0000
1000
0000
0010
0000
0100
0001
0000
,
0010
0110
2000
0000
,
3000
0001
0000
1000
0000
0001
0100
0000
,
0010
1000
0010
0000
1100
0000
1001
0000
,
0000
0010
0000
0100
0000
0001
1000
0000
,
0001
0010
0001
0000
1010
0000
1100
0000
,
0000
0001
0000
0100
0000
0010
1000
0000
,
0100
0010
0100
0000
0011
0000
1001
0000
,
0000
0001
0000
0100
0000
0010
1000
0000
,
0000
0001
0000
0010
0000
0100
1000
0000
,
0001
1000
0010
0000
1000
0001
0010
0001
,
1000
0010
1000
0001
1000
0001
1000
0001
,
1000
0000
0000
0000
0000
0001
1000
0000
,
0100
1000
0100
1000
0001
1000
0001
1000
,
0010
0100
0001
1001
,
0001
1000
0100
1000
0001
0000
1000
0000
,
0200
0001
0010
1300
,
0001
0100
0000
0010
0000
1000
0000
0001
,
0010
0001
1000
0000
0101
0000
1100
0000
,
0010
1000
0001
1000
0010
0000
0100
0000
,
0002
0010
1000
0103
,
0010
1000
0001
0000
0010
0100
1000
0000
,
0010
0100
0001
0100
0010
0100
0001
0000
,
1000
0001
1000
0010
0000
0100
0010
0000
,
1000
0000
0001
0000
0010
0000
0001
0010
,
0000
0001
0000
1000
0000
0010
0000
0100
,
0000
0001
0000
1000
0001
0000
1000
0010
,
0000
1000
0100
1000
0001
0000
0100
0000
,
0010
1000
0000
0001
0000
1000
0100
2000
,
0000
0001
0000
3001
0000
0100
0000
0010
,
0000
1000
0000
1000
0000
0001
1000
0001
,
0000
0100
0000
0010
0000
1100
0000
1001
,
0000
0010
0000
0100
0001
0000
1000
0001
,
0000
0010
0000
0100
0000
1000
0000
0010
,
0000
0100
0000
0010
1000
0000
0001
1000
,
0000
0001
0010
0001
2000
0000
0100
0000
,
3001
0000
0100
0000
0010
0000
1000
0100
,
0000
1000
0000
0010
0000
0100
0000
0001
,
0000
1000
0100
1000
0000
0001
0100
0001
,
0000
0100
0000
1001
0000
1000
0010
1000
,
0002
0000
0100
0000
0013
0000
0100
1000
,
0000
0010
0100
0010
0000
0100
0001
1000
,
0001
0000
1000
0010
0000
1010
0000
1001
,
0000
0001
0010
0001
1000
0000
0100
0000
,
1001
0010
0100
0001
,
1100
0001
1000
0010
,
0101
1000
0101
1000
,
0010
1100
1001
0011
,
0200
0000
0000
0000
0000
1300
0010
0000
,
0100
0001
0100
0002
0000
1000
0000
0013
,
0100
1000
0001
1000
0000
0000
0010
0000
,
0100
0000
0001
1000
0000
0001
0000
1000
,
0010
0000
1000
0001
0000
1000
0100
1000
,
0002
0000
0100
0000
1003
0000
0100
1000
,
0002
0000
0010
0000
1003
0000
0001
1000
,
0010
0000
0100
0002
0000
0000
0003
1000
,
0000
0100
1000
0000
0101
0000
1100
0000
,
0001
0010
0001
2000
0000
0010
0000
3001
,
0100
0001
1000
0010
0000
0100
0001
0000
,
1000
0000
0001
0010
0000
0100
0000
1000
,
0010
0000
1000
0001
0000
0000
0010
0100
,
0000
1000
0010
1000
0000
0001
0100
0001
,
0000
1000
0100
1000
0000
0001
0010
0001
,
0200
0000
1000
0000
0010
0000
0301
1000
,
0000
0001
0000
1000
0010
0000
0100
0000
,
1100
0000
0101
0000
1001
0000
0001
0010
,
0000
0001
1000
0020
0000
0100
0130
0000
,
1000
0100
0001
0000
0010
0000
0100
0000
,
0001
0100
1000
0000
0010
0000
0100
0000
,
0001
1000
0000
0010
0000
0100
0000
0001
,
0100
0001
1000
0000
0011
0000
1100
0000
,
0001
0100
1000
0100
0001
0000
0110
0000
,
1000
0100
0001
0100
1000
0000
0110
0000
,
0001
1000
0000
0010
0000
1000
0000
0001
,
0010
0001
1000
0000
1010
0000
0101
0000
,
0100
1000
0001
1000
0010
1000
0001
0000
,
0010
0001
1000
0001
0100
0001
1000
0000
,
0100
1000
0000
0010
0000
0100
0000
0001
,
0010
0001
1000
0000
1100
0000
1010
0000
,
0100
0001
0010
0000
0100
1000
0010
0000
,
2100
3010
0102
0013
,
0100
1000
0100
1000
0001
1000
0001
1000
,
0010
1000
0001
0010
0100
1000
0001
0000
,
1000
0001
1000
0002
0000
1000
1003
0000
;

//---------------dance-single - ----------------
#NOTES:
     dance-single:
     :
     Easy:
     6:
     0.431,0.495,0.195,0.119,0.000:
0000
0000
0000
0000
,
0000
0000
0000
0000
,
0000
0001
0000
2000
0000
0000
3001
0000
,
0100
0010
0100
0010
,
0000
1000
0000
0020
0000
0000
0130
0000
,
0001
0010
0001
1000
,
0000
0001
0000
0200
0000
0000
0310
0000
,
1000
0100
2000
0000
,
3000
0001
0000
2000
0000
0000
3010
0000
,
0100
0100
0001
1001
,
0000
0100
0000
2000
0000
0000
3001
0000
,
1000
1000
0001
1001
,
0000
0001
0000
0002
0000
0000
0103
0000
,
0010
0010
0100
0110
,
0000
1000
0000
2000
0000
0000
3001
0000
,
0000
0100
0000
0200
0000
0000
0310
0000
,
1000
0100
0010
0001
,
0100
0010
1000
0001
,
1001
0000
0000
0000
0000
0110
0000
0000
,
1000
1000
1000
1000
,
0010
0100
0010
1001
,
0001
0100
0010
1000
,
0100
0100
0010
0010
,
0001
0001
1000
1000
,
0001
1000
0001
1001
,
1000
0010
0100
0010
,
1000
0100
0010
0001
,
0100
0010
0100
0001
,
1000
0010
0010
1000
,
0002
0000
0000
1003
0000
0000
1001
0000
,
0001
0000
0100
0000
0010
0000
0000
1000
,
0000
0100
0000
1000
0000
0001
0000
0001
,
0000
1000
0000
0000
0010
0000
0000
0100
,
0000
0001
1000
0001
,
0010
0000
0000
0000
0100
0000
0000
1000
,
0000
0010
0000
1000
0000
0001
0000
0001
,
0000
0000
1000
0000
1000
0000
0000
0001
,
0000
1000
0000
1000
0000
0010
0000
0100
,
0000
0002
0000
0000
1003
0000
0000
0010
,
0000
0100
0000
0100
0000
0001
0000
1000
,
0000
0001
0000
0000
0010
0000
0000
0100
,
0000
1000
0010
1000
,
0001
0000
0000
0000
1000
0000
0000
0001
,
0000
0010
0000
0010
0000
0001
0000
1000
,
0000
0010
0000
0010
0000
0000
0000
1000
,
0000
0001
0000
1000
0000
0000
0001
0000
,
0001
0000
0100
0000
0010
0000
0000
1000
,
0000
0100
0000
0010
0000
0000
0001
0000
,
1000
0000
0000
0010
0000
0010
0000
1000
,
0000
0001
0001
1000
,
1001
0000
0010
0100
,
0110
0000
1000
0100
,
1100
0001
0101
0001
,
1000
1001
1001
0001
,
2000
0000
0000
0000
0000
3010
0000
0000
,
1000
0001
0010
0001
,
1000
0010
1000
0001
,
0010
0100
1000
0010
,
0100
0001
1000
0001
,
1001
1000
0010
0100
,
0010
1000
0100
0010
,
0002
0000
0000
1003
0000
0000
0000
0000
,
0001
0001
1000
1000
,
0010
0100
0010
1000
,
0100
0010
0001
0100
,
0010
0010
1000
1000
,
0001
1000
0001
0000
,
1001
0001
0010
0000
,
0100
1000
0010
0000
,
0100
0001
1000
0001
,
1000
0010
1000
0001
,
1000
0000
1000
0000
1001
0000
0000
0001
,
0000
1000
0000
0001
0000
1000
0001
0000
,
1000
0010
0100
0001
,
0010
0010
0100
0100
,
1000
0010
1000
0001
,
1000
1000
1001
0001
,
0100
0010
1000
0100
,
1000
1000
0010
0010
,
0100
0001
1000
0001
,
1000
1000
0010
1010
,
0010
0100
0001
0010
,
0001
0001
1000
1000
,
0010
0100
0001
1000
,
0001
0100
0001
0101
,
0100
0010
1000
0100
,
1000
0010
1000
0001
,
1000
1001
0001
1001
,
0001
0100
0010
1000
,
0002
0000
0000
1003
0000
0000
1001
0000
;

//---------------dance-single - ----------------
#NOTES:
     dance-single:
     :
     Beginner:
     3:
     0.243,0.381,0.161,0.000,0.000: // measure 1
0000
0000
0000
0000
,  // measure 2
0000
0000
0000
0000
,  // measure 3
0000
0000
0000
0000
,  // measure 4
1000
1000
1000
1000
,  // measure 5
0000
0000
0000
0000
,  // measure 6
0001
0001
0001
0001
,  // measure 7
0000
0000
0000
0000
,  // measure 8
1000
1000
1000
0000
,  // measure 9
0000
0000
0000
0000
,  // measure 10
0001
0001
0001
0000
,  // measure 11
0000
0000
0000
0000
,  // measure 12
1000
1000
1000
0000
,  // measure 13
0000
0000
0000
0000
,  // measure 14
0010
0010
0010
0000
,  // measure 15
1001
0000
0000
0000
,  // measure 16
1001
0000
0000
0000
,  // measure 17
0110
0000
0110
0000
,  // measure 18
1001
0000
1001
0000
,  // measure 19
1001
0000
0000
0000
,  // measure 20
0001
0000
0001
0000
,  // measure 21
1000
1000
1000
0000
,  // measure 22
0001
0000
1000
0000
,  // measure 23
0010
0000
0010
0000
,  // measure 24
1000
0000
0001
0000
,  // measure 25
1000
1000
1000
0000
,  // measure 26
0001
0000
1000
0000
,  // measure 27
0010
0000
0010
0000
,  // measure 28
0100
0000
0001
0000
,  // measure 29
1000
1000
1000
0000
,  // measure 30
0001
0001
0001
0000
,  // measure 31
1000
0000
0001
0000
,  // measure 32
1000
0000
0010
0000
,  // measure 33
1000
0000
0100
0000
,  // measure 34
1000
0000
0001
0000
,  // measure 35
1000
0000
0010
0000
,  // measure 36
0100
0000
0001
0000
,  // measure 37
1000
0000
0001
0000
,  // measure 38
0010
0000
0001
0000
,  // measure 39
1000
1000
1000
0000
,  // measure 40
0001
0001
0001
0000
,  // measure 41
1000
0000
0010
0000
,  // measure 42
1000
0000
0001
0000
,  // measure 43
1000
0000
0100
0000
,  // measure 44
0010
0000
0001
0000
,  // measure 45
1000
0000
0001
0000
,  // measure 46
1000
0000
0010
0000
,  // measure 47
1000
1000
1000
0000
,  // measure 48
0001
0000
1000
0000
,  // measure 49
0001
0001
0001
0000
,  // measure 50
0010
0000
0001
0000
,  // measure 51
1001
0000
0000
0000
,  // measure 52
0110
0000
0000
0000
,  // measure 53
1001
0000
1001
0000
,  // measure 54
1001
0000
0000
0000
,  // measure 55
1000
0000
0000
0000
,  // measure 56
0001
0000
1000
0000
,  // measure 57
0010
0000
1000
0000
,  // measure 58
0001
0000
0010
0000
,  // measure 59
0001
0000
0001
0000
,  // measure 60
1000
0000
0100
0000
,  // measure 61
0010
0000
0001
0000
,  // measure 62
1000
0000
0010
0000
,  // measure 63
0100
0000
0010
0000
,  // measure 64
1000
0000
0001
0000
,  // measure 65
1000
0000
0100
0000
,  // measure 66
1000
0000
0010
0000
,  // measure 67
0100
0000
0001
0000
,  // measure 68
0010
0000
0100
0000
,  // measure 69
1000
0000
0001
0000
,  // measure 70
1001
0000
1000
0000
,  // measure 71
0010
0000
0100
0000
,  // measure 72
1001
0000
1001
0000
,  // measure 73
0110
0000
1001
0000
,  // measure 74
0001
0000
0100
0000
,  // measure 75
0010
0000
1000
0000
,  // measure 76
0001
0001
0001
0000
,  // measure 77
1000
1000
1000
0000
,  // measure 78
0010
0000
0100
0000
,  // measure 79
0001
0000
1000
0000
,  // measure 80
0001
0001
0001
0000
,  // measure 81
1000
1000
1000
0000
,  // measure 82
0010
0000
0100
0000
,  // measure 83
0001
0000
1000
0000
,  // measure 84
0001
0001
0001
0000
,  // measure 85
1000
1000
1000
0000
,  // measure 86
0010
0000
0100
0000
,  // measure 87
0001
0000
1000
0000
,  // measure 88
0001
0001
0001
0000
,  // measure 89
1000
1000
1000
0000
,  // measure 90
1001
0000
0000
1001
;
