#TITLE:Beyond the Earth;
#SUBTITLE:(for VJAMix);
#ARTIST:猫叉Master;
#TITLETRANSLIT:;
#SUBTITLETRANSLIT:;
#ARTISTTRANSLIT:Nekomata Master;
#CREDIT:Steps, song cut and graphics by Xythar (source: official video);
#BANNER:Beyond the Earth (for VJAMix).png;
#BACKGROUND:Beyond the Earth (for VJAMix)-bg.png;
#LYRICSPATH:;
#CDTITLE:beatmania IIDX.png;
#MUSIC:Beyond the Earth (for VJAMix).mp3;
#OFFSET:-0.887;
#SAMPLESTART:29.800;
#SAMPLELENGTH:12.000;
#SELECTABLE:YES;
#DISPLAYBPM:140.000;
#BPMS:0.000=140.000;
#STOPS:;
#BGCHANGES:-2.000=beyondtheearth(forvjamix).avi=1.000=1=1=0,
275.000=Beyond the Earth (for VJAMix)-bg.png=1.000=0=0=1,
99999=-nosongbg-=1.000=0=0=0 // don't automatically add -songbackground-
;

//---------------dance-single - ----------------
#NOTES:
     dance-single:
     :
     Hard:
     9:
     0.660,0.746,0.321,0.016,0.346:
0000
0000
0000
0000
0000
0000
0000
1000
,
0100
0010
0000
0001
0010
0100
0010
0001
,
0010
0100
1000
0100
0010
0000
0001
0010
,
0001
0000
1000
0100
1000
0000
0010
1000
,
1001
0000
0000
1001
0000
0000
1001
0000
0001
0000
0000
0000
0000
0000
1000
0000
,
0010
0100
0000
0100
0010
0100
0001
0100
,
0001
0010
0100
0010
0001
0000
0010
0100
,
0020
0000
0031
0010
,
0110
0000
0000
0110
0000
0000
0110
0000
0000
0000
1000
0000
0100
0000
1000
0000
,
1000
0100
0010
0001
0010
0100
1000
0100
,
1000
0100
0001
0100
1000
0010
0100
0010
,
1000
0010
0001
0010
1000
0001
1000
0001
,
0010
1000
0010
0001
0100
1000
0100
0001
,
1000
0010
0100
0010
0100
0001
0010
0001
,
0010
1000
0010
0100
0001
0100
1000
0010
,
0001
0010
0100
0010
1000
0100
0010
0100
,
0001
0000
0100
0000
1000
0000
0100
0000
0010
0000
0100
0000
0010
0000
0001
0010
,
0100
0000
1000
0000
0100
0000
1000
0100
0010
0000
0100
0000
0010
0000
0100
0010
,
0001
0000
0010
0000
0001
0000
0100
0010
0001
0000
0001
0000
0010
0000
0000
0001
,
0010
0000
0100
0000
0010
0000
0001
0010
0100
0000
0010
0000
0100
0000
1000
0100
,
1000
0000
0100
0000
0010
0000
0001
0000
0100
0000
0010
0000
1000
0000
0001
0010
,
0100
0000
0001
0000
0100
0000
1000
0100
0010
0000
0100
0000
0001
0000
0100
0010
,
0001
0000
0100
0000
1000
0000
0100
0001
0010
0000
1000
0000
0010
0000
0000
0001
,
0100
0000
1000
0000
0100
0000
0010
0000
1000
0000
0100
0000
0001
0000
0100
1000
,
0100
0010
0001
0100
0010
1000
0100
0010
,
0001
0100
0000
0001
0100
0010
1000
0100
,
0001
0100
1000
0100
0001
0000
0100
1000
,
0010
0000
0001
0010
1000
0000
0100
0010
,
0011
0000
0000
0011
0000
0000
0011
0000
0110
0000
0000
0000
0000
0000
1000
0000
,
0010
0100
0000
0001
0100
0010
1000
0100
,
0001
0100
0010
0100
1000
0000
0010
1000
,
0200
0000
1300
0010
,
1100
0000
0000
1100
0000
0000
1100
0000
0000
0000
1000
0000
0100
0000
1000
0000
,
0100
0000
0100
0010
0000
0010
0100
0000
0010
0000
0010
0001
0000
0001
0010
0000
,
0100
0000
0100
1000
0000
1000
0100
0000
0001
0000
0001
0100
0000
0100
0001
0100
,
0010
0000
0010
0100
0000
0100
0010
0000
0001
0000
1000
0001
0000
0001
1000
0000
,
1000
0100
1000
0100
0010
0100
0010
0100
0010
0000
0010
0001
0000
0001
0010
0000
,
0011
0000
0000
0011
0000
0010
0100
0000
0110
0000
0000
0110
0000
0100
1000
0000
,
1100
0000
0000
1100
0000
1000
0100
0000
1000
0001
0000
0001
1000
0000
0010
0000
,
1010
0000
0000
1010
0000
0000
0000
0000
0011
0000
0000
0011
0000
0000
0000
0000
,
1001
0000
1001
0000
1001
0000
1001
0000
0000
0010
0000
0000
0100
0000
0000
0000
0000
0000
1000
0000
0000
0000
0000
0000
,
1000
0010
0100
0001
1000
0100
0010
0001
,
0100
0010
1000
0001
0100
1000
0100
0001
,
0010
0100
0010
1000
0010
0001
0100
1000
,
0100
0010
0100
1000
0100
0001
0010
0100
,
0010
1000
0010
0001
0010
1000
0010
0100
,
1000
0100
0001
0100
0010
0001
0100
1000
,
0100
0010
0001
0010
1000
0100
0010
0001
,
1000
0000
0000
0000
0000
0000
0000
0000
1001
0000
0000
1001
0000
0000
0001
0010
,
0100
0000
0010
0000
0001
0000
1000
0100
0010
0000
0100
0000
1000
0000
0100
0010
,
0001
0000
0010
0000
0100
0000
0010
0100
1000
0000
0001
0000
0010
0000
0000
0100
,
1000
0000
0100
0000
0010
0000
0100
0010
0001
0000
0100
0000
0010
0000
1000
0010
,
1000
0000
0001
0000
0100
0000
1000
0000
0100
0000
0001
0000
0010
0000
0100
1000
,
0010
0000
0100
0000
0001
0000
0100
0001
0010
0000
0100
0000
0010
0000
0001
0100
,
0010
0000
0100
0000
1000
0000
0100
0001
0010
0000
1000
0000
0010
0000
0000
0001
,
0010
0000
0100
0000
0010
0000
0100
0000
1000
0000
0010
0000
0100
0000
0001
0010
,
0100
0000
1000
0000
0100
0000
1000
0000
0100
0000
1000
0100
1000
0100
0010
0001
,
0010
0000
0100
0000
1000
0000
0001
0000
0100
0000
0010
0000
1000
0000
0001
0010
,
0001
0000
0010
0000
0100
0000
1000
0100
1000
0000
0100
0000
0010
0000
0001
0000
,
0100
0010
1000
0001
0010
0100
1000
0001
,
1000
0000
0100
0000
0010
0000
0001
0000
0100
0000
0010
0000
1000
0000
0001
0010
,
0001
0000
0000
0010
0000
0000
0100
0000
0010
0000
0000
0000
0000
0000
0100
1000
,
0100
0000
0000
0010
0000
0000
0001
0000
0100
0000
0000
1000
0000
0000
0100
0000
,
0001
0010
0001
0100
0001
0000
0000
0000
,
0101
0000
0000
0101
0000
0000
0101
0000
1001
0000
0000
0000
0000
0000
0000
0000
,
1000
0000
0100
1000
0000
0100
1000
0000
0001
0000
0100
0001
0000
0100
0001
0000
,
0010
0000
0100
0010
0000
0100
0010
0000
0100
0000
1000
0100
0000
1000
0100
0000
,
0110
0000
0000
0110
0000
0000
0000
0000
0011
0000
0000
0011
0000
0000
0000
0000
,
0101
0000
0000
0101
0000
0000
1000
0100
0010
0001
0000
0000
1001
0000
0000
0000
;

//---------------dance-single - ----------------
#NOTES:
     dance-single:
     :
     Medium:
     8:
     0.505,0.608,0.273,0.016,0.185:
0000
0000
0000
0000
0000
0000
0000
1000
,
0100
0010
0000
0001
0100
0010
0100
0001
,
0010
0100
0010
0001
0100
0000
0001
1000
,
0010
0000
1000
0001
0100
0000
0001
0000
,
1001
0000
0000
1001
0000
0000
1001
0000
1000
0000
0000
0000
0000
0000
1000
0000
,
0001
0100
0000
0001
0010
0100
0010
0100
,
0010
0001
1000
0010
0100
0000
0001
0010
,
0200
0000
0310
0100
,
0110
0000
0000
0110
0000
0000
0110
0000
0000
0000
0000
0000
0000
0000
1000
0000
,
0100
0010
0001
0000
0100
0000
0010
0100
,
0001
0000
0010
0000
0100
0000
1000
0010
,
0100
0001
0100
0000
0010
0000
0100
0001
,
0010
0001
0000
1000
0100
0000
0010
0001
,
0100
0010
0100
0000
1000
0000
0100
0001
,
0010
0000
0100
0000
0010
0000
0001
0010
,
0100
1000
0100
0000
0010
0000
0001
0000
,
0100
0010
0000
1000
0001
0000
0000
0001
,
0100
0000
0000
0100
0001
0000
0000
1000
,
0010
0000
0000
0000
0000
0000
1000
0000
0100
0000
0010
0000
0001
0000
0000
0010
,
0100
0000
0000
1000
0100
0000
0000
0010
,
0100
0000
1000
0010
0100
0001
1000
0010
,
0100
0000
0000
0001
0010
0000
0000
0001
,
0100
0000
0000
0000
0000
0000
0010
0000
1000
0000
0100
0000
0010
0000
0000
0100
,
1000
0001
0100
0010
1000
0100
0010
0001
,
0100
0000
0001
0010
0100
0010
0001
1000
,
0010
0100
0000
0001
0010
0100
1000
0100
,
0010
0001
0010
0100
1000
0000
0001
0100
,
0010
0000
1000
0100
0010
0000
0001
0100
,
0101
0000
0000
0101
0000
0000
0101
0000
0001
0000
0000
0000
0000
0000
1000
0000
,
0010
0100
0000
0001
0100
0010
1000
0100
,
0001
0100
0010
0100
1000
0000
0010
1000
,
0200
0000
1300
0010
,
1100
0000
0000
1100
0000
0000
1100
0000
0000
0000
1000
0000
0100
0000
0010
0000
,
0001
0000
0100
0001
0000
0000
0100
0000
0010
0000
1000
0010
0000
0000
0100
0000
,
0001
0000
0010
0001
0000
0000
1000
0000
0100
0000
1000
0100
0000
1000
0010
0000
,
1000
0000
0001
1000
0000
0000
0100
0000
0010
0000
0100
0010
0000
0000
0001
0000
,
1000
0100
1000
0000
0100
0010
0100
0000
0010
0000
0001
0010
0000
0000
0010
0000
,
0011
0000
0000
0011
0000
0000
0100
0000
0110
0000
0000
0110
0000
0000
1000
0000
,
1100
0000
0000
1100
0000
0000
0100
0000
1000
0001
0000
0001
1000
0000
0010
0000
,
1010
0000
0000
1010
0000
0000
0000
0000
0011
0000
0000
0011
0000
0000
0000
0000
,
1000
0000
0001
0000
1000
0000
0001
0000
0000
0010
0000
0000
0100
0000
0000
0000
0000
0000
1000
0000
0000
0100
0000
0000
,
1000
0010
0100
0000
0001
0000
0010
0100
,
1000
0000
0001
0000
0100
0000
0010
1000
,
0100
0010
0100
0000
0010
0000
0001
1000
,
0100
0010
0000
0001
0100
0000
0001
0010
,
0100
0010
0001
0000
0010
0000
0100
1000
,
0010
0000
1000
0000
0100
0000
0010
0001
,
0010
0100
0010
0000
0001
0000
1000
0000
,
0010
0000
0000
0000
0000
0000
0000
0000
1001
0000
0000
1001
0000
0000
0001
0000
,
0100
0000
0000
1000
0010
0000
0000
0100
,
0010
0000
0000
0000
0000
0000
1000
0000
0001
0000
0010
0000
0100
0000
0000
0100
,
1000
0000
0000
0010
0100
0000
0000
0001
,
1000
0000
0100
0010
0001
0100
0010
1000
,
0100
0000
0000
1000
0010
0000
0000
1000
,
0001
0000
0000
0000
0000
0000
0100
0000
0010
0000
1000
0000
0010
0000
0000
1000
,
0100
0010
0001
0100
0010
1000
0100
0010
,
0100
0000
1000
0000
0100
1000
0100
0010
,
0001
0000
1000
0001
0100
0010
1000
0001
,
0010
0000
0000
0000
0000
0000
0100
0000
1000
0000
0000
0100
0000
0000
1000
0000
,
0010
0000
1000
0000
0001
0000
0010
0100
,
1000
0100
0010
0001
0100
0010
1000
0001
,
0010
0000
0000
0100
0000
0000
0010
0000
0001
0000
0000
0000
0000
0000
0100
0000
,
0010
0000
0000
1000
0000
0000
0100
0000
0010
0000
0000
0100
0000
0000
1000
0000
,
0010
0100
0001
0010
,
0011
0000
0000
0011
0000
0000
0011
0000
0001
0000
0000
0000
0000
0000
0000
0000
,
1000
0000
0000
0100
0000
1000
0100
0000
0010
0000
0000
0001
0000
0010
0001
0000
,
0010
0000
0000
0100
0000
0010
0100
0000
1000
0000
0000
0010
0000
1000
0010
0000
,
1010
0000
0000
1010
0000
0000
0000
0000
1001
0000
0000
1001
0000
0000
0000
0000
,
1100
0000
0000
1100
0000
0000
1000
0100
1000
0100
0000
0000
1001
0000
0000
0000
;

//---------------dance-single - ----------------
#NOTES:
     dance-single:
     :
     Easy:
     4:
     0.282,0.387,0.217,0.024,0.000:
0000
0000
0000
0000
,
1000
0100
0010
0100
,
0010
0001
0100
0000
,
0010
1000
0100
0000
,
1001
1001
0001
0000
,
0010
0100
1000
0010
,
0100
0001
0010
0000
,
0002
0000
1003
0000
,
0110
0110
0010
0000
,
1000
0100
0010
0001
,
0010
0100
1000
0010
,
0100
0001
0100
0010
,
1000
0001
0010
0100
,
0010
0001
0100
0010
,
1000
0100
1000
0010
,
1000
0001
0010
0100
,
1000
0100
0010
0100
,
1000
0000
0100
0000
,
0010
0000
0100
0010
,
0001
0000
0100
0000
,
0010
1000
0100
0010
,
0001
0000
0010
0000
,
0001
0000
0100
0010
,
1000
0100
0010
0100
,
1000
0001
1000
0001
,
1000
0100
0010
0001
,
0010
0100
1000
0000
,
0010
0001
0100
0000
,
0101
0101
0001
0000
,
1000
0010
0100
0001
,
0010
0100
1000
0100
,
0020
0000
0130
1000
,
0010
0000
1000
0100
,
0010
0000
0001
0000
,
0010
0000
0100
0000
,
0010
0000
0001
0000
,
1000
0100
0010
0000
,
1001
0000
1010
0000
,
0110
0000
0101
0101
,
0101
0000
0011
0000
,
1001
1001
1001
0000
,
1000
0100
0010
0100
,
0010
0001
0100
0010
,
0100
0010
1000
0100
,
0010
0100
1000
0010
,
0100
0001
0100
0010
,
1000
0100
1000
0010
,
1000
0100
0010
0001
,
0010
0100
1000
0010
,
0100
0000
0001
0000
,
0010
0000
0100
0010
,
0001
0000
0010
0000
,
0100
1000
0010
0100
,
0001
0000
0100
0000
,
0010
0000
1000
0100
,
0020
0000
0000
0000
,
0130
0000
1000
0100
,
0010
0000
0000
0001
,
0100
0000
0010
1000
,
0100
0000
0000
0010
,
0001
0000
0000
1000
,
0100
0010
0001
0010
,
0100
0010
0001
1000
,
0100
0000
0000
0000
,
1100
1100
1100
0000
,
1000
0100
0010
0100
,
1000
0010
0100
0010
,
1010
1010
0110
0110
,
0101
0101
1001
1001
;

//---------------dance-single - ----------------
#NOTES:
     dance-single:
     :
     Beginner:
     1:
     0.178,0.276,0.121,0.000,0.000:
0000
0000
0000
0000
,
1000
0000
0001
0000
,
1000
0000
0010
0000
,
0100
0000
0010
0000
,
1000
1000
1000
0000
,
0001
0000
0010
0000
,
0001
0000
0100
0000
,
0010
0000
1000
0000
,
0001
0001
0000
0000
,
1000
0000
0100
0000
,
1000
0000
0010
0000
,
1000
0000
0001
0000
,
0010
0000
0100
0000
,
0010
0000
0001
0000
,
0100
0000
0010
0000
,
0100
0000
0001
0000
,
0010
0000
0100
0000
,
1000
0000
0100
0000
,
0010
0000
0001
0001
,
0001
0000
0010
0000
,
0100
0000
0000
0000
,
0010
0000
0100
0000
,
1000
0000
0100
0100
,
0100
0000
0000
0000
,
0010
0000
0000
0000
,
0001
0000
1000
0000
,
0010
0000
0100
0000
,
0010
0000
1000
0000
,
0010
0010
0010
0000
,
0100
0000
0001
0000
,
1000
0000
0100
0000
,
0010
0000
0100
0000
,
0010
0010
0000
0000
,
1000
0000
0100
0000
,
1000
0000
0001
0000
,
0010
0000
0001
0000
,
0100
0100
0100
0100
,
0000
0000
1001
0000
,
1001
0000
0110
0000
,
0110
0000
1001
0000
,
1001
1001
1001
0000
,
1000
0000
0100
0000
,
0010
0000
0100
0000
,
0010
0000
0001
0000
,
0100
0000
0010
0000
,
1000
0000
0100
0000
,
0010
0000
0100
0000
,
0010
0000
0001
0000
,
0100
0000
0010
0000
,
1000
0000
0010
0000
,
0100
0000
0001
0001
,
0001
0000
0010
0000
,
0100
0000
0000
0000
,
0010
0000
0001
0000
,
0010
0000
0100
0100
,
0100
0000
0000
0000
,
1000
0000
0000
0010
,
0010
0000
0100
0000
,
0010
0000
1000
0000
,
0100
0000
0010
0000
,
0001
0000
0010
0000
,
0100
0000
0010
0000
,
0001
0000
0100
0000
,
0010
0000
0100
0000
,
0110
0000
0110
0000
,
1000
0000
0100
0000
,
1000
0000
0010
0000
,
0110
0000
1001
0000
,
0110
0000
1001
1001
;
