#TITLE:반;
#SUBTITLE:;
#ARTIST:이정현;
#TITLETRANSLIT:Ban;
#SUBTITLETRANSLIT:;
#ARTISTTRANSLIT:Lee Jung Hyun;
#CREDIT:Xythar;
#BANNER:Banner.avi;
#BACKGROUND:Banground.png;
#LYRICSPATH:;
#CDTITLE:BanCD.png;
#MUSIC:Ban.mp3;
#OFFSET:-0.125;
#SAMPLESTART:53.840;
#SAMPLELENGTH:13.413;
#SELECTABLE:YES;
#BPMS:0.000=143.000;
#STOPS:;
#BGCHANGES:5.250=Ban.avi=1.000=1=0=1,
99999=-nosongbg-=1.000=0=0=0 // don't automatically add -songbackground-
;

//---------------dance-single - ----------------
#NOTES:
     dance-single:
     :
     Hard:
     7:
     0.514,0.542,0.386,0.000,0.066:
0000
0000
0000
0000
,
0000
0000
0000
0000
,
0000
0000
0000
0000
,
0000
0000
0000
0000
,
1000
0000
0001
0000
,
1000
0010
0100
0000
,
0010
1000
0100
0010
,
0011
1001
0101
1010
,
0010
0000
0000
0010
0000
0000
0100
0000
0001
0000
0100
0000
0001
0000
1000
0000
,
0100
0000
0000
0100
0000
0000
1000
0000
0001
0000
0010
0000
0100
0000
1000
0000
,
0010
0000
0000
0010
0000
0000
0100
0000
1000
0000
0100
0000
0001
0000
0100
0000
,
0010
0000
0000
0010
0000
0000
1000
0000
0001
0000
0010
0000
0100
0000
1000
0000
,
0001
0000
0000
0001
0000
0000
1000
0000
0100
0000
1000
0000
0001
0000
1000
0000
,
0010
0000
0000
0010
0000
0000
1000
0000
0001
0000
0010
0000
0100
0000
1000
0000
,
0001
0000
0000
0001
0000
0000
0010
0000
1000
0000
0010
0000
0100
0000
0010
0000
,
0001
0000
0000
0001
0000
0000
0100
0000
1000
0000
0100
0000
0010
0000
1000
0000
,
0001
0010
0100
0000
1000
0010
0100
0010
,
1000
0000
0001
0010
0100
0000
1001
0000
,
0010
0100
0001
0100
0010
0000
1000
0100
,
0010
0000
0100
1000
0000
0001
0100
0010
,
0100
0000
0001
0000
1000
0100
0010
0000
,
0100
1000
0001
0100
0000
1000
0000
0100
,
0001
1000
0100
1000
0001
0000
0010
0100
,
1000
0000
0010
0000
0101
0000
0010
1000
,
0001
0000
1000
0010
0100
0000
1000
0000
,
0100
0000
0001
0000
1000
0100
0010
0100
,
1000
0000
0010
0100
0001
0000
0010
0000
,
1000
0000
0010
0001
,
0101
0000
0010
0000
1100
0000
0010
0001
,
1000
0000
0010
0100
0001
0000
1000
0000
,
0100
1000
0001
1000
0010
0000
0100
0000
,
0101
0000
0011
0000
1100
0000
0001
1000
,
1001
0000
0000
0000
,
0001
1000
0000
0010
0100
0001
0100
0010
,
0000
1000
0000
0100
1000
0010
1000
0001
,
0010
1000
0000
0010
0100
0010
0100
1000
,
0000
0010
0100
0001
0100
0010
0000
1000
,
0100
0010
0000
0100
1000
0001
1000
0010
,
0000
0001
0010
1000
0001
1000
0100
0001
,
0100
0000
1000
0000
0001
0000
0100
0010
,
1000
0000
0101
0000
0010
1000
0001
0010
,
0001
1000
0000
0100
0010
0001
0010
0100
,
0000
1000
0010
0100
1000
0100
0010
1000
,
0001
1000
0000
0100
1000
0001
1000
0010
,
0000
0001
0010
1000
0100
0000
0010
0001
,
1000
0000
0110
0000
0001
0010
0100
1000
,
0010
0000
0101
0000
1100
0000
0010
0100
,
0001
0100
0010
0100
0001
0010
0100
1000
,
0001
1100
0101
1100
,
1001
1001
1001
0000
0010
0100
0001
0100
,
0010
0010
1000
1000
0001
0001
1001
0000
,
0011
0000
1100
0000
0001
0100
0010
1000
,
0100
0100
0010
0010
0001
0001
0101
0000
,
0110
0110
0110
0000
1000
0010
0100
0010
,
1000
1000
0100
0100
0010
0001
1001
0000
,
0010
0010
0100
0100
0001
0001
1000
0000
,
0110
1010
0011
0101
,
0001
0000
0000
1001
0000
0000
0001
0000
1000
0000
0100
0000
1000
0000
0100
0000
,
0010
0000
0000
0011
0000
0000
0100
0000
1000
0000
1000
0000
0001
0000
0001
0000
,
0100
0000
0000
0110
0000
0000
0010
0000
1000
0000
0001
0000
1000
0000
0100
0000
,
1000
0000
0000
1010
0000
0000
0100
0000
0001
0000
0001
0000
1000
0000
1000
0000
,
0001
0000
0000
0101
0000
0000
0010
0000
0100
0000
1000
0000
0100
0000
0010
0000
,
1000
0000
0000
1100
0000
0000
0001
0000
0100
0000
0100
0000
0010
0000
0010
0000
,
1000
0000
0000
1001
0000
0000
0001
0000
0010
0000
0001
0000
1000
0000
0001
0000
,
0100
0000
1010
0000
0011
0000
1000
0001
,
1001
0000
0000
0000
;

//---------------dance-single - ----------------
#NOTES:
     dance-single:
     :
     Easy:
     3:
     0.246,0.257,0.088,0.000,0.000: // measure 1
0000
0000
0000
0000
,  // measure 2
0000
0000
0000
0000
,  // measure 3
0000
0000
0000
0000
,  // measure 4
0000
0000
0000
0000
,  // measure 5
1000
0000
1000
0000
,  // measure 6
0001
0001
0001
0000
,  // measure 7
1000
0001
1000
0001
,  // measure 8
1000
0000
0001
1001
,  // measure 9
1000
0000
0010
0100
,  // measure 10
0001
0000
1000
0100
,  // measure 11
1000
0000
0010
0100
,  // measure 12
0010
0000
0100
0100
,  // measure 13
0001
0000
1000
0100
,  // measure 14
1000
0000
0010
0010
,  // measure 15
0100
0000
0001
0010
,  // measure 16
0001
0000
1000
1000
,  // measure 17
1000
0001
1000
0001
,  // measure 18
1000
0000
0100
0000
,  // measure 19
1000
0010
0100
0010
,  // measure 20
1000
0000
0001
0000
,  // measure 21
1000
0100
0010
0100
,  // measure 22
1000
0000
0001
0000
,  // measure 23
0100
0010
0100
0001
,  // measure 24
1000
0000
0001
0010
,  // measure 25
0100
0000
1000
0000
,  // measure 26
0010
0000
0100
0001
,  // measure 27
1000
0000
0100
0000
,  // measure 28
0010
0000
0000
0000
,  // measure 29
0001
0100
0010
0000
,  // measure 30
0100
0001
1000
0000
,  // measure 31
0001
1000
0100
1000
,  // measure 32
0001
0000
1000
0000
,  // measure 33
1001
0000
0000
0000
,  // measure 34
0010
0000
0100
0001
,  // measure 35
1000
0000
0100
1000
,  // measure 36
0010
0000
0100
0001
,  // measure 37
0010
0000
0100
1000
,  // measure 38
0001
0000
0100
0010
,  // measure 39
0100
0000
0001
0010
,  // measure 40
0100
1000
0010
0100
,  // measure 41
0001
0000
1000
0100
,  // measure 42
1000
0000
0010
0100
,  // measure 43
0001
0000
1000
0100
,  // measure 44
1000
0000
0001
0010
,  // measure 45
0100
0000
1000
0010
,  // measure 46
0100
0001
1000
0100
,  // measure 47
1000
0001
1000
0001
,  // measure 48
1000
0000
0001
0000
,  // measure 49
1001
0000
1001
0000
,  // measure 50
0010
0010
0100
0100
,  // measure 51
0001
0001
1000
1000
,  // measure 52
0100
0100
0010
0010
,  // measure 53
0001
0001
1000
1000
,  // measure 54
0010
0010
0100
0100
,  // measure 55
0001
0001
1000
1000
,  // measure 56
1001
0000
1001
0000
,  // measure 57
0001
0001
1000
1000
,  // measure 58
1001
0000
0010
0100
,  // measure 59
0001
0000
1000
1000
,  // measure 60
0100
0000
1000
0010
,  // measure 61
0100
0000
0001
0001
,  // measure 62
0101
0000
1000
0100
,  // measure 63
1000
0000
0001
0001
,  // measure 64
1001
0000
0010
0100
,  // measure 65
0001
0000
1000
1000
,  // measure 66
1001
0000
0000
0000
;

//---------------dance-single - ----------------
#NOTES:
     dance-single:
     :
     Medium:
     6:
     0.409,0.428,0.219,0.000,0.000:
0000
0000
0000
0000
,
0000
0000
0000
0000
,
0000
0000
0000
0000
,
0000
0000
0000
0000
,
1000
0000
0001
0000
,
1000
0001
1000
0000
,
0001
1000
0001
1000
,
1001
0000
0101
0101
,
0010
0000
1000
0000
0100
1000
0001
0000
,
0010
0000
0100
0000
1000
0100
1000
0100
,
1000
0000
0010
0000
0100
0001
1000
0000
,
0100
0000
0010
0000
0001
0010
0001
0010
,
0001
0000
0100
0000
0010
1000
0001
0000
,
0010
0000
0100
0000
0010
0100
0010
0100
,
0010
0000
0001
0000
0100
0010
1000
0000
,
1100
0001
0110
0110
,
1000
0000
0100
1000
0100
0000
1000
0001
,
1000
0010
0100
0001
,
0010
0100
0010
0000
0001
0000
1000
0100
,
1000
0000
0001
1000
0000
0010
0000
0010
,
0100
0000
0001
0000
1000
0000
0100
1000
,
0100
1000
0001
1000
,
0100
1000
0001
0000
0100
0001
1000
0000
,
1001
0000
0000
0000
0100
0000
0010
0001
,
0010
0000
0100
1000
0000
0001
0000
1000
,
0000
0010
0000
0100
0001
0000
1000
0000
,
0100
0000
1000
0001
0000
0010
0000
0100
,
0000
1000
0000
0001
0000
1000
0100
0000
,
1000
0000
0010
0000
0100
0001
1000
0000
,
0100
0000
0010
0001
1000
0000
0010
0000
,
0100
0001
0100
0000
0001
1000
0001
1000
,
0001
0000
1100
0000
1001
0000
1000
0001
,
1000
0000
0000
0000
,
0010
0100
0000
0001
0010
0000
0100
0010
,
0000
0001
0000
1000
0010
0000
0100
0001
,
0100
0010
0000
1000
0100
0000
1000
0001
,
0000
1000
0000
0001
0010
0000
0100
0000
,
1100
0000
0001
0100
0001
0000
1000
0100
,
0000
1000
0000
0001
1000
0000
0001
1000
,
0001
0000
0100
0000
0010
0000
1000
0100
,
1000
0000
0001
0000
0010
0000
0100
0100
,
0100
0000
1000
0000
0001
1000
0001
1000
,
0000
0010
0000
0100
0000
0001
1000
0001
,
0000
1000
0000
0100
1000
0000
0001
0100
,
0000
0010
0000
0010
1000
0000
0100
0000
,
0010
0000
0100
1000
,
0001
0000
0100
0010
0000
0100
0001
1000
,
0000
0100
0000
0100
1000
0000
0001
1000
,
0100
0110
0100
1100
,
0001
0001
0001
0000
1000
0100
1000
0000
,
0001
0100
0010
0100
0001
0000
1100
0000
,
0010
0000
1100
0000
0001
0001
0001
0000
,
1000
1000
1000
0000
0100
0000
0010
0000
,
0001
0001
0001
0000
0100
0100
0100
0000
,
0010
0000
1000
0000
0001
1000
0001
0000
,
1100
0011
0101
1010
,
0001
1000
1001
1001
,
1000
0000
0110
0000
0100
0001
0100
0000
,
0001
0000
1001
0000
1000
0100
1000
0100
,
1000
0000
0011
0000
0100
0010
0100
0000
,
1000
0000
1000
0000
0001
0100
0001
0100
,
0001
0000
1000
0000
0100
0010
0100
0000
,
1000
0000
0101
0000
0010
1000
0010
1000
,
0010
0000
0100
0000
0001
1000
0001
0000
,
0100
0000
0011
0000
0100
1000
0100
1000
,
0100
0000
0000
0000
;

//---------------dance-single - ----------------
#NOTES:
     dance-single:
     :
     Beginner:
     1:
     0.159,0.171,0.009,0.000,0.000: // measure 1
0000
0000
0000
0000
,  // measure 2
0000
0000
0000
0000
,  // measure 3
0000
0000
0000
0000
,  // measure 4
0000
0000
0000
0000
,  // measure 5
1000
0000
0000
0000
,  // measure 6
0001
0000
0001
0000
,  // measure 7
1000
0000
1000
0000
,  // measure 8
1000
1000
1000
0000
,  // measure 9
0001
0000
0010
0000
,  // measure 10
0100
0000
1000
1000
,  // measure 11
1000
0000
0010
0000
,  // measure 12
0100
0000
0001
0001
,  // measure 13
0001
0000
1000
0000
,  // measure 14
0100
0000
1000
1000
,  // measure 15
1000
0000
0010
0000
,  // measure 16
0100
0000
0100
0100
,  // measure 17
0100
0000
0001
0000
,  // measure 18
1000
0000
0000
0000
,  // measure 19
0100
0000
1000
0000
,  // measure 20
0010
0000
0000
0000
,  // measure 21
0100
0000
0001
0000
,  // measure 22
0010
0000
0100
0000
,  // measure 23
1000
0000
0001
0000
,  // measure 24
1000
0000
0000
0000
,  // measure 25
0001
0000
0100
0000
,  // measure 26
0010
0000
0000
0000
,  // measure 27
0100
0000
0001
0000
,  // measure 28
1000
0000
0000
0000
,  // measure 29
0100
0000
1000
0000
,  // measure 30
0010
0000
0100
0000
,  // measure 31
0001
0000
1000
0000
,  // measure 32
0100
0000
0000
0100
,  // measure 33
0100
0000
0000
0000
,  // measure 34
1000
0000
0010
0000
,  // measure 35
0100
0000
0001
0000
,  // measure 36
1000
0000
0100
0000
,  // measure 37
1000
0000
0010
0000
,  // measure 38
0100
0000
0001
0000
,  // measure 39
0010
0000
0100
0000
,  // measure 40
1000
0000
0000
0000
,  // measure 41
0001
0000
1000
0000
,  // measure 42
0001
0000
0000
0000
,  // measure 43
1000
0000
0010
0000
,  // measure 44
0100
0000
0000
0000
,  // measure 45
0001
0000
0010
0000
,  // measure 46
0100
0000
1000
0000
,  // measure 47
0001
0000
1000
0000
,  // measure 48
0001
0000
1000
0000
,  // measure 49
0001
0001
0001
0000
,  // measure 50
1000
0000
0001
0000
,  // measure 51
1000
0000
0010
0010
,  // measure 52
0010
0000
0100
0000
,  // measure 53
0001
0000
1000
0000
,  // measure 54
0100
0100
0100
0000
,  // measure 55
0010
0000
0001
0000
,  // measure 56
1000
1000
1000
0000
,  // measure 57
0001
0000
1000
0000
,  // measure 58
0100
0000
0010
0010
,  // measure 59
0010
0000
0001
0000
,  // measure 60
1000
0000
0010
0010
,  // measure 61
0010
0000
0100
0000
,  // measure 62
0001
0000
1000
1000
,  // measure 63
1000
0000
0100
0000
,  // measure 64
0010
0000
0001
0001
,  // measure 65
0001
0000
1000
0000
,  // measure 66
1001
0000
0000
0000
;
