#TITLE:Bambina;
#SUBTITLE:;
#ARTIST:Tomoyasu Hotei;
#TITLETRANSLIT:;
#SUBTITLETRANSLIT:;
#ARTISTTRANSLIT:;
#CREDIT:Xythar;
#BANNER:Bambina-bn.avi;
#BACKGROUND:Bambina-bg.png;
#LYRICSPATH:;
#CDTITLE:Bambina-cd.png;
#MUSIC:Bambina.mp3;
#OFFSET:-1.162;
#SAMPLESTART:50.704;
#SAMPLELENGTH:14.320;
#SELECTABLE:YES;
#BPMS:0.000=267.490;
#STOPS:;
#BGCHANGES:-1.500=Bambina.avi=1.000=1=1=0,
99999=-nosongbg-=1.000=0=0=0 // don't automatically add -songbackground-
;

//---------------dance-single - ----------------
#NOTES:
     dance-single:
     :
     Hard:
     8:
     0.526,0.677,0.309,0.000,0.000:
0000
0000
0000
0000
,
0000
0000
0000
0000
,
0000
0000
0000
0000
,
0000
0000
0000
0000
,
0000
0000
0000
0000
,
0000
0000
0000
0000
,
0000
0000
0000
0000
,
0000
0000
0000
0000
,
1001
0001
0100
0010
,
0100
0001
0100
0010
,
1000
0000
0100
0000
0010
0000
0001
1000
,
0000
1000
0001
0000
0100
0000
0010
0000
,
1001
1000
0010
0100
,
0010
1000
0010
0100
,
0010
0000
1000
0000
0100
0000
0010
0100
,
0000
0100
0010
0000
0001
0000
0100
0000
,
1001
0100
1000
0010
,
1000
0100
1000
0010
,
1000
0000
0100
0000
1000
0000
0010
0100
,
0000
0100
0010
0000
1000
0000
0100
0000
,
0011
0100
1000
0010
,
0100
0001
0100
0010
,
0100
0000
0001
0000
0100
0000
0001
1000
,
0000
1000
0001
0000
0010
0000
0100
0000
,
1001
0000
0010
0000
,
0100
0001
1000
0000
,
0100
1000
0001
0000
,
1000
0010
0100
0010
,
1001
0001
0010
0100
,
1000
0010
0100
0010
,
1000
0000
0100
0000
0010
0000
0001
1000
,
0000
1000
0001
0000
1000
0000
0100
0000
,
0011
0000
0100
0000
,
1000
0010
0100
0000
,
0001
0010
0100
0000
,
1000
0010
0100
0010
,
1001
1000
0100
0010
,
0100
0010
0001
0100
,
0010
0000
0100
0000
0001
0000
0010
0100
,
0000
0100
0010
0000
0100
0000
1000
0000
,
1001
0000
0000
0010
0000
0000
0100
0000
,
0001
0000
0000
1100
0000
0000
0001
0000
,
0010
0100
1000
0010
,
0100
0010
1000
0100
,
0011
0000
0000
0100
0000
0000
1000
0000
,
0010
0000
0000
0101
0000
0000
0010
0000
,
1000
0100
1000
0010
,
0100
0001
0100
0001
,
1001
0000
0000
0100
0000
0000
0010
0000
,
0001
0000
0000
1100
0000
0000
0010
0000
,
0100
0001
1000
0100
,
1000
0010
0100
0001
,
0010
0000
0000
1001
0000
0000
0010
0000
,
0100
0000
0000
1001
0000
0000
0010
0000
,
0100
0001
0010
0100
,
1000
0000
0000
0000
,
0101
0000
0010
1000
0000
0000
0100
0000
,
0010
0000
0001
1000
0000
0000
0010
0000
,
0100
0000
0001
1000
0000
0000
0100
0000
,
0010
0100
0010
0001
,
1000
0000
0000
1000
0000
0000
0001
0000
,
0100
0010
0100
0001
,
1100
0000
0101
0000
,
1010
0000
0011
0000
,
1001
0000
0100
0010
0000
0000
0001
0000
,
1100
0000
0010
0100
0000
0000
0010
0000
,
0101
0000
0010
1000
0000
0000
0001
0000
,
0010
0100
1000
0010
,
0100
0001
0100
0010
,
1000
0100
0010
0001
,
1000
0001
1000
0001
1000
0001
1000
0001
,
1000
0000
0000
0000
,
0011
0000
0000
0000
,
0100
0000
0000
0000
,
1000
0000
0000
0000
,
0001
1000
1001
0000
,
0001
0010
0000
0100
0000
0000
1000
0000
,
0010
0100
0000
0001
0000
0000
1000
0000
,
0100
1000
0010
0100
,
0001
0000
0000
0010
0000
0000
0100
0000
,
1000
0010
1000
0001
,
1000
0100
0010
0001
,
0100
0000
0000
0010
0000
0000
1000
0000
,
0100
1000
0010
0100
,
0001
0000
0000
0001
0000
0000
1000
0000
,
0010
0000
0000
0100
0000
0000
0001
0000
,
1000
0100
1000
0010
,
0100
0000
0000
0001
0000
0000
0010
0000
,
0100
1000
0010
0100
,
1000
0000
0000
1000
0000
0000
0100
0000
,
0001
1000
0100
0010
,
0001
0001
1000
0001
,
1000
0000
0100
0000
1000
0010
0000
0000
,
0100
0000
0001
0010
0000
0000
0100
0000
,
1000
0000
0001
1000
0000
0000
0010
0000
,
0100
0001
1000
0000
,
0100
0010
1000
0010
,
0100
0000
0000
0001
0000
0000
1000
0000
,
0100
1000
0010
0100
,
0001
0000
0000
1000
0000
0000
0001
0000
,
1001
0000
0000
0000
,
0000
0000
0000
0000
,
0000
0000
0000
0000
,
0000
0000
0000
0000
,
0001
0010
0100
1000
,
1001
0000
0000
1001
0000
0000
0000
0000
,
0010
0100
0001
0010
,
0110
0000
0000
0110
0000
0000
0000
0000
,
1100
0000
0000
0000
,
0101
0000
0000
0000
,
0001
0000
1000
0000
,
0001
1000
0001
1000
,
0001
0100
0010
0100
,
0001
0100
0010
0100
,
0001
0100
0010
0100
,
0001
0100
0010
0100
,
0001
0010
0100
0100
,
1000
0010
0100
0100
,
0001
1000
0100
0100
,
1000
0001
0100
0000
,
0001
0010
0100
1000
,
0010
0100
0000
0100
,
0001
1000
0100
0010
,
0001
1000
0001
0000
,
1001
1000
0100
0010
,
0001
0100
0000
0100
,
0010
0101
1000
0101
,
0010
0101
1000
0101
,
0010
0000
0000
0000
;

//---------------dance-single - ----------------
#NOTES:
     dance-single:
     :
     Medium:
     7:
     0.383,0.521,0.195,0.000,0.000: // measure 1
0000
0000
0000
0000
,  // measure 2
0000
0000
0000
0000
,  // measure 3
0000
0000
0000
0000
,  // measure 4
0000
0000
0000
0000
,  // measure 5
0000
0000
0000
0000
,  // measure 6
0000
0000
0000
0000
,  // measure 7
0000
0000
0000
0000
,  // measure 8
0000
0000
0000
0000
,  // measure 9
1000
0000
0010
0000
,  // measure 10
0100
0000
0010
0000
,  // measure 11
1000
0000
0100
0000
,  // measure 12
1000
0001
0100
0001
,  // measure 13
1000
0000
0100
0000
,  // measure 14
0010
0000
0001
0000
,  // measure 15
0100
0000
0010
0000
,  // measure 16
1000
0010
0100
0010
,  // measure 17
1000
0000
0001
0000
,  // measure 18
0010
0000
0100
0000
,  // measure 19
1000
0000
0010
0000
,  // measure 20
0100
0001
1000
0001
,  // measure 21
0010
0000
1000
0000
,  // measure 22
0010
0000
0001
0000
,  // measure 23
0100
0000
0010
0000
,  // measure 24
1000
0100
1000
0010
,  // measure 25
0100
0000
0100
0000
,  // measure 26
0001
0000
0001
0000
,  // measure 27
1000
0000
1000
0000
,  // measure 28
0100
0000
1000
0010
,  // measure 29
0100
0000
0001
0000
,  // measure 30
1000
0000
0100
0000
,  // measure 31
1000
0000
0010
0000
,  // measure 32
0100
0001
1000
0001
,  // measure 33
0010
0000
1000
0000
,  // measure 34
0010
0000
0001
0000
,  // measure 35
0100
0000
0010
0000
,  // measure 36
1000
0000
0100
1000
,  // measure 37
0010
0000
0100
0000
,  // measure 38
0001
0000
1000
0000
,  // measure 39
0100
0000
1000
0000
,  // measure 40
0010
0100
0001
0100
,  // measure 41
0010
0000
0000
1000
0000
0000
0100
0000
,  // measure 42
0010
0000
0000
0001
0000
0000
0100
0000
,  // measure 43
0010
0000
1000
0100
,  // measure 44
1000
0000
0001
0000
,  // measure 45
1000
0000
0000
0010
0000
0000
0100
0000
,  // measure 46
0001
0000
0000
0010
0000
0000
0100
0000
,  // measure 47
1000
0000
0010
0100
,  // measure 48
0001
0000
1001
0000
,  // measure 49
0010
0000
0000
0100
0000
0000
0001
0000
,  // measure 50
0010
0000
0000
0100
0000
0000
1000
0000
,  // measure 51
0010
0000
0100
0001
,  // measure 52
1000
0000
0110
0000
,  // measure 53
0001
0000
0000
0010
0000
0000
0100
0000
,  // measure 54
1000
0000
0000
0010
0000
0000
0100
0000
,  // measure 55
0001
0000
1000
0100
,  // measure 56
1000
0000
0000
0000
,  // measure 57
0101
0000
0000
0010
0000
0000
1000
0000
,  // measure 58
0100
0000
0000
0001
0000
0000
0100
0000
,  // measure 59
1000
0000
0000
0010
0000
0000
0100
0000
,  // measure 60
0001
0000
1000
0000
,  // measure 61
0101
0000
0000
0010
0000
0000
1000
0000
,  // measure 62
0100
1000
0010
0000
,  // measure 63
0101
0000
0010
0000
,  // measure 64
1100
0000
0010
0000
,  // measure 65
1001
0000
0000
0100
0000
0000
1000
0000
,  // measure 66
0010
0000
0000
0100
0000
0000
0001
0000
,  // measure 67
1000
0000
0000
0100
0000
0000
1000
0000
,  // measure 68
0010
1000
0001
1000
,  // measure 69
0100
0000
0010
0000
,  // measure 70
0001
0000
0100
0000
,  // measure 71
0001
1000
0001
1000
,  // measure 72
0001
0000
0000
0000
,  // measure 73
1100
0000
0000
0000
,  // measure 74
0001
0000
0000
0000
,  // measure 75
1010
0000
0000
0000
,  // measure 76
0001
1000
1001
0000
,  // measure 77
0100
0000
0000
1000
0000
0000
0010
0000
,  // measure 78
0100
0000
0000
0001
0000
0000
1000
0000
,  // measure 79
0100
0000
1000
0000
,  // measure 80
0001
0000
0000
1000
0000
0000
0100
0000
,  // measure 81
1000
0000
0010
0000
,  // measure 82
0100
0001
1000
0100
,  // measure 83
1000
0000
0000
0010
0000
0000
0100
0000
,  // measure 84
0001
1000
0100
0000
,  // measure 85
1000
0000
0000
0010
0000
0000
0000
0000
,  // measure 86
0100
0000
0000
0001
0000
0000
0000
0000
,  // measure 87
1000
0100
1000
0000
,  // measure 88
0010
0000
0000
0100
0000
0000
0001
0000
,  // measure 89
1001
0000
0010
0000
,  // measure 90
1000
0100
1000
0000
,  // measure 91
0010
0000
0100
0000
,  // measure 92
0001
1000
0001
0000
,  // measure 93
0010
0100
1000
0000
,  // measure 94
0010
0100
0001
0000
,  // measure 95
1000
0100
0010
0000
,  // measure 96
0001
0100
0010
0000
,  // measure 97
1000
0001
0100
0000
,  // measure 98
0010
0000
0000
1001
0000
0000
0000
0000
,  // measure 99
1000
0001
0010
0000
,  // measure 100
0100
0000
0000
1001
0000
0000
0000
0000
,  // measure 101
0110
0000
0000
0000
,  // measure 102
0000
0000
0000
0000
,  // measure 103
0000
0000
0000
0000
,  // measure 104
0000
0000
0000
0000
,  // measure 105
1000
0010
0100
0010
,  // measure 106
1000
0000
0000
0101
0000
0000
0000
0000
,  // measure 107
0001
0010
0100
0010
,  // measure 108
0001
0000
0000
1100
0000
0000
0000
0000
,  // measure 109
1001
0000
0000
0000
,  // measure 110
0110
0000
0000
0000
,  // measure 111
0001
0000
1000
0000
,  // measure 112
0001
1000
0001
1000
,  // measure 113
0010
0000
0100
0001
,  // measure 114
1000
0000
0100
0010
,  // measure 115
0001
0010
0100
0000
,  // measure 116
1000
0010
0100
0000
,  // measure 117
0001
0010
0100
0000
,  // measure 118
0001
0010
0100
0000
,  // measure 119
0001
0010
0100
1000
,  // measure 120
0010
0100
0001
0000
,  // measure 121
1000
0010
0100
0001
,  // measure 122
0100
0010
0000
1000
,  // measure 123
0100
0010
0001
0000
,  // measure 124
0100
0010
1000
0000
,  // measure 125
1001
0100
1000
0000
,  // measure 126
0010
0100
0001
0000
,  // measure 127
1100
0000
0101
0000
,  // measure 128
1100
0000
0101
0000
,  // measure 129
1001
0000
0000
0000
;

//---------------dance-single - ----------------
#NOTES:
     dance-single:
     :
     Easy:
     3:
     0.200,0.365,0.090,0.000,0.000: // measure 1
0000
0000
0000
0000
,  // measure 2
0000
0000
0000
0000
,  // measure 3
0000
0000
0000
0000
,  // measure 4
0000
0000
0000
0000
,  // measure 5
0000
0000
0000
0000
,  // measure 6
0000
0000
0000
0000
,  // measure 7
0000
0000
0000
0000
,  // measure 8
0000
0000
0000
0000
,  // measure 9
1000
0000
0000
0000
,  // measure 10
0010
0000
0000
0000
,  // measure 11
0100
0000
0000
0000
,  // measure 12
0001
0000
0001
0000
,  // measure 13
0010
0000
0000
0000
,  // measure 14
0100
0000
0000
0000
,  // measure 15
1000
0000
0000
0000
,  // measure 16
0010
0000
0100
0000
,  // measure 17
0001
0000
0000
0000
,  // measure 18
1000
0000
0000
0000
,  // measure 19
0100
0000
0000
0000
,  // measure 20
1000
0000
0001
0000
,  // measure 21
0100
0000
0000
0000
,  // measure 22
0010
0000
0000
0000
,  // measure 23
1000
0000
0000
0000
,  // measure 24
0100
0000
1000
0000
,  // measure 25
0010
0000
0000
0000
,  // measure 26
0100
0000
0000
0000
,  // measure 27
0001
0000
0000
0000
,  // measure 28
1000
0000
0100
0000
,  // measure 29
1000
0000
0000
0000
,  // measure 30
0010
0000
0000
0000
,  // measure 31
0100
0000
0000
0000
,  // measure 32
0001
0000
0010
0000
,  // measure 33
0100
0000
0000
0000
,  // measure 34
1000
0000
0000
0000
,  // measure 35
0010
0000
0000
0000
,  // measure 36
0100
0000
0000
0000
,  // measure 37
0010
0000
0000
0000
,  // measure 38
1000
0000
0000
0000
,  // measure 39
0100
0000
0000
0000
,  // measure 40
1000
0000
0001
0000
,  // measure 41
1000
0000
0000
0000
,  // measure 42
0010
0000
0000
0000
,  // measure 43
0100
0000
0001
0000
,  // measure 44
1000
0000
0000
0000
,  // measure 45
0100
0000
0000
0000
,  // measure 46
1000
0000
0000
0000
,  // measure 47
0010
0000
0100
0000
,  // measure 48
0010
0000
0000
0000
,  // measure 49
1000
0000
0000
0000
,  // measure 50
0100
0000
0000
0000
,  // measure 51
0010
0000
0001
0000
,  // measure 52
0100
0000
0000
0000
,  // measure 53
0010
0000
0000
0000
,  // measure 54
1000
0000
0000
0000
,  // measure 55
0001
0000
0100
0000
,  // measure 56
0001
0000
0000
0000
,  // measure 57
1001
0000
0000
0000
,  // measure 58
0001
0000
0100
0000
,  // measure 59
0010
0000
0000
0000
,  // measure 60
1000
0000
0100
0000
,  // measure 61
1000
0000
0000
0000
,  // measure 62
0010
0000
0100
0000
,  // measure 63
0001
0000
1000
0000
,  // measure 64
0001
0000
1000
0000
,  // measure 65
0010
0000
0000
0000
,  // measure 66
0100
0000
0000
0000
,  // measure 67
0001
0000
0000
0000
,  // measure 68
0010
0000
0100
0000
,  // measure 69
1000
0000
0010
0000
,  // measure 70
0100
0000
0001
0000
,  // measure 71
1001
0000
1001
0000
,  // measure 72
1001
0000
0000
0000
,  // measure 73
0010
0000
0000
0000
,  // measure 74
0100
0000
0000
0000
,  // measure 75
0001
0000
0000
0000
,  // measure 76
1001
0000
0000
0000
,  // measure 77
0001
0000
0000
0000
,  // measure 78
1000
0000
0000
0000
,  // measure 79
0100
0000
1000
0000
,  // measure 80
0010
0000
0000
0000
,  // measure 81
0100
0000
0001
0000
,  // measure 82
0100
0000
0010
0000
,  // measure 83
1000
0000
0100
0000
,  // measure 84
1000
0000
0000
0000
,  // measure 85
0001
0000
0000
0000
,  // measure 86
1000
0000
0000
0000
,  // measure 87
0010
0000
0100
0000
,  // measure 88
0001
0000
1000
0000
,  // measure 89
0100
0000
0000
0000
,  // measure 90
1000
0000
0000
0000
,  // measure 91
0010
0000
0000
0000
,  // measure 92
0100
0000
0001
0000
,  // measure 93
1000
0000
0000
0000
,  // measure 94
0100
0000
0000
0000
,  // measure 95
1000
0000
0000
0000
,  // measure 96
0010
0000
0100
0000
,  // measure 97
0001
0000
0000
0000
,  // measure 98
0010
0000
0000
0000
,  // measure 99
0100
0000
0000
0000
,  // measure 100
1000
0000
0000
0000
,  // measure 101
1001
0000
0000
0000
,  // measure 102
0000
0000
0000
0000
,  // measure 103
0000
0000
0000
0000
,  // measure 104
0000
0000
0000
0000
,  // measure 105
1000
0000
0000
0000
,  // measure 106
1001
0000
0000
0000
,  // measure 107
0001
0000
0000
0000
,  // measure 108
1001
0000
0000
0000
,  // measure 109
0110
0000
0000
0000
,  // measure 110
1001
0000
0000
0000
,  // measure 111
1000
0000
0001
0000
,  // measure 112
1000
0000
0001
0000
,  // measure 113
1000
0000
0010
0000
,  // measure 114
0100
0000
0010
0000
,  // measure 115
1000
0000
0100
0000
,  // measure 116
0010
0000
0001
0000
,  // measure 117
0100
0000
0010
0000
,  // measure 118
1000
0000
0001
0000
,  // measure 119
1000
0000
0100
0000
,  // measure 120
1000
0000
0010
0000
,  // measure 121
0100
0000
0001
0000
,  // measure 122
0010
0000
0000
0000
,  // measure 123
0100
0000
1000
0000
,  // measure 124
0010
0000
0100
0000
,  // measure 125
0001
0000
0000
0000
,  // measure 126
1000
0000
0000
0000
,  // measure 127
0001
0000
0001
0000
,  // measure 128
0001
0000
0001
0000
,  // measure 129
1001
0000
0000
0000
;
