#TITLE:BUTTERFLY;
#SUBTITLE:(DELACTION REMIX);
#ARTIST:SMiLE.dk;
#TITLETRANSLIT:;
#SUBTITLETRANSLIT:;
#ARTISTTRANSLIT:;
#CREDIT:Xythar;
#BANNER:BUTTERFLY (DELACTION REMIX).png;
#BACKGROUND:BUTTERFLY (DELACTION REMIX)-bg.png;
#LYRICSPATH:;
#CDTITLE:HIME TRANCE.png;
#MUSIC:BUTTERFLY (DELACTION REMIX).mp3;
#OFFSET:-0.390;
#SAMPLESTART:45.700;
#SAMPLELENGTH:13.386;
#SELECTABLE:YES;
#BPMS:0.000=143.000;
#STOPS:;
#BGCHANGES:;

//---------------dance-single - ----------------
#NOTES:
     dance-single:
     :
     Hard:
     8:
     0.568,0.517,0.449,0.000,0.086: // measure 1
0000
0000
0000
0000
,  // measure 2
0100
1000
0010
1000
0100
1000
0010
1000
,  // measure 3
0100
1000
0010
1000
0100
0010
0001
0000
,  // measure 4
0100
0001
0010
0001
0100
0001
0010
0001
,  // measure 5
0100
0001
0010
0001
0100
0010
1000
0000
,  // measure 6
1000
0100
0001
0100
1000
0100
0001
0100
,  // measure 7
1000
0100
0001
0100
1000
0001
0010
0000
,  // measure 8
0100
0000
1000
0000
0010
0000
1000
0000
0001
1000
0001
1000
0001
0000
0010
0000
,  // measure 9
0100
0000
0000
1000
,  // measure 10
0101
0000
0000
0000
0010
0000
0000
0000
1000
0000
0000
0001
1000
0000
0010
0000
,  // measure 11
0100
0001
0100
0000
0001
0000
1000
0000
0100
0000
0000
0000
0011
0000
0000
0000
,  // measure 12
1001
0000
0000
0000
0100
0000
0000
0000
1000
0000
0000
0010
1000
0000
0001
0000
,  // measure 13
1000
0100
1000
0000
0010
0000
0100
0000
0001
0000
0000
0000
1100
0000
0000
0000
,  // measure 14
1001
0000
0000
0000
0010
0000
0000
0000
1000
0000
0000
0001
1000
0000
0100
0000
,  // measure 15
0010
0001
0010
0000
0100
0000
1000
0000
0010
0000
0000
0000
0101
0000
0000
0000
,  // measure 16
1001
0000
0000
0000
0100
0000
0000
0000
1000
0000
0000
0010
0100
0000
0001
0000
,  // measure 17
1000
0010
1000
0000
0001
0000
0010
0000
0100
0000
0000
0000
1001
0000
0000
0000
,  // measure 18
1010
0101
1100
0000
,  // measure 19
0001
0001
0001
0001
,  // measure 20
1100
0101
1010
0000
,  // measure 21
0100
0100
0100
0100
,  // measure 22
0011
0101
1010
0001
,  // measure 23
1100
0011
0101
1000
,  // measure 24
0110
1001
0110
1001
,  // measure 25
0010
0100
0001
0100
0010
1000
0100
0010
,  // measure 26
0001
0000
0000
0000
,  // measure 27
1000
1000
1000
0010
,  // measure 28
0100
0001
0010
1000
0010
0000
0001
0100
,  // measure 29
0010
0000
1000
0100
0010
0000
0100
1000
,  // measure 30
0010
0100
0001
0100
0010
0000
1000
0100
,  // measure 31
0001
0000
1000
0010
0001
0000
0100
0100
,  // measure 32
0010
1000
0100
1000
0010
0000
0100
0001
,  // measure 33
1000
0000
0100
1000
0010
0000
0100
0100
,  // measure 34
0001
0010
1000
0010
0001
0000
0100
0010
,  // measure 35
1000
0100
1000
0010
0100
0000
1001
0000
,  // measure 36
0001
0010
0100
0001
0100
1000
0010
0100
,  // measure 37
1000
0100
0001
1000
0100
1000
0010
0001
,  // measure 38
0010
1000
0100
0001
0100
0010
0001
0100
,  // measure 39
0010
0000
1000
0000
0001
0000
0000
0100
0000
0001
1000
0000
0100
0000
0000
0000
,  // measure 40
1000
0001
0100
1000
0100
0010
1000
0100
,  // measure 41
0001
0100
1000
0010
0100
0001
0010
1000
,  // measure 42
0010
0001
0100
0010
1000
0100
1000
0010
,  // measure 43
0100
0000
0000
0001
,  // measure 44
1000
0100
1000
0010
0100
0000
1001
0000
,  // measure 45
0100
0010
0001
0100
0010
0000
1001
0000
,  // measure 46
0100
1000
0010
0000
0100
0001
0010
0000
,  // measure 47
0100
1000
0010
0100
0010
1001
1001
0000
,  // measure 48
0100
1000
0010
0100
0001
0000
0110
0000
,  // measure 49
1000
0100
0010
0001
1000
0000
0110
0000
,  // measure 50
0001
1000
0100
0000
1000
0001
0100
0000
,  // measure 51
0010
0100
0001
1000
0001
0110
0110
0000
,  // measure 52
0001
0010
1000
0010
0001
0000
0100
0010
,  // measure 53
1000
0000
0100
0010
0001
0000
1000
1000
,  // measure 54
0010
0100
1000
0100
0001
0000
0010
0100
,  // measure 55
1000
0000
0010
0100
0001
0000
1100
0000
,  // measure 56
0001
0100
0010
0100
0001
0000
1000
0100
,  // measure 57
0001
0000
1000
0010
0001
0000
0100
0100
,  // measure 58
0010
1000
0100
1000
0010
0100
0001
0000
,  // measure 59
1100
0011
0101
0010
,  // measure 60
1100
0000
0000
0000
1010
0000
0000
0000
0101
0000
0000
0010
1000
0000
0001
0000
,  // measure 61
1000
0100
1000
0000
0010
0000
0100
0000
0001
0000
0000
0000
1100
0000
0000
0000
,  // measure 62
0011
0000
0000
0000
0101
0000
0000
0000
1010
0000
0000
0001
0100
0000
0010
0000
,  // measure 63
1000
0100
1000
0000
0001
0000
1000
0000
0010
0000
0000
0000
0101
0000
0000
0000
,  // measure 64
1010
0000
0000
0000
1100
0000
0000
0000
0011
0000
0000
0100
1000
0000
0010
0000
,  // measure 65
0100
0001
0100
0000
0010
0000
1000
0000
0001
0000
0000
0000
0100
0000
0010
0000
,  // measure 66
1001
0000
0000
0000
0110
0000
0000
0000
1001
0000
0000
0100
0010
0000
0001
0000
,  // measure 67
1000
0001
1000
0000
0010
0000
0100
0000
1001
0000
0000
0000
0000
0000
0000
0000
;

//---------------dance-single - ----------------
#NOTES:
     dance-single:
     :
     Medium:
     6:
     0.463,0.460,0.285,0.000,0.000: // measure 1
0000
0000
0000
0000
,  // measure 2
1000
0100
1000
0000
0001
0100
0001
0000
,  // measure 3
1000
0010
1000
0001
0010
0001
1000
0000
,  // measure 4
0001
0100
0001
0000
1000
0100
1000
0000
,  // measure 5
0001
0010
0001
1000
0010
1000
0100
0000
,  // measure 6
1000
0010
0100
0000
0001
0010
0100
0000
,  // measure 7
1000
0010
0100
0001
0010
0100
1000
0000
,  // measure 8
0001
0100
0010
0100
0001
0001
1000
1000
,  // measure 9
0001
0000
0000
1000
,  // measure 10
1001
0000
0100
0000
1000
0000
0010
0100
,  // measure 11
0001
0100
0010
1000
0100
0000
0010
0000
,  // measure 12
1001
0000
0010
0000
0100
0000
0001
1000
,  // measure 13
0100
1000
0001
0100
0001
0000
1000
0000
,  // measure 14
0110
0000
0001
0000
1000
0000
0100
1000
,  // measure 15
0010
0100
0010
1000
0100
0000
0010
0000
,  // measure 16
1001
0000
0100
0000
1000
0000
0010
0100
,  // measure 17
0001
0100
0010
1000
0100
0000
0000
0000
,  // measure 18
1001
1001
1001
0000
,  // measure 19
0100
0100
0100
0100
,  // measure 20
0110
0110
0110
0000
,  // measure 21
0001
0001
0001
0001
,  // measure 22
1100
0010
0100
0001
,  // measure 23
1010
0001
0010
0100
,  // measure 24
1001
0010
1001
0100
,  // measure 25
1000
0010
0100
0001
0100
0010
1000
0100
,  // measure 26
0010
0000
0000
0000
,  // measure 27
1000
1000
1000
1001
,  // measure 28
0100
0000
1000
0010
0100
0000
0001
1000
,  // measure 29
0100
0000
0010
0001
0100
0000
0001
0000
,  // measure 30
1000
0000
0010
0100
0001
0000
1000
0100
,  // measure 31
1000
0000
0010
0100
0001
0000
0010
0000
,  // measure 32
0100
0000
0100
1000
0010
0000
0100
0001
,  // measure 33
0010
0000
0010
0001
1000
0000
0001
0000
,  // measure 34
0110
0000
0001
1000
0100
0000
0010
0000
,  // measure 35
1001
0000
0000
1000
,  // measure 36
0001
0010
0000
0001
1000
0010
1000
0000
,  // measure 37
0001
0100
0000
0010
1000
0001
1000
0000
,  // measure 38
0100
1000
0000
0010
0100
0001
1000
0000
,  // measure 39
0001
1000
0100
0000
1000
0001
0100
0000
,  // measure 40
0010
1000
0000
0001
0010
0001
1000
0000
,  // measure 41
0010
0100
0000
0001
1000
0100
1000
0000
,  // measure 42
0001
0100
0000
0010
1000
0001
1000
0000
,  // measure 43
1001
0000
0000
0100
,  // measure 44
1000
0010
0100
0000
0001
0000
1100
0000
,  // measure 45
0010
0100
0001
0000
0010
0000
1001
0000
,  // measure 46
0100
1000
0010
0000
0100
0001
0010
0000
,  // measure 47
0100
1000
0001
1000
0010
0000
1001
0000
,  // measure 48
0100
1000
0010
0000
1000
0000
0101
0000
,  // measure 49
0010
1000
0001
0000
0010
0000
1100
0000
,  // measure 50
0010
0100
0001
0000
0010
0100
1000
0000
,  // measure 51
0010
0100
0001
0100
0010
0000
1001
0000
,  // measure 52
0100
0000
1000
0000
0010
0000
0100
0001
,  // measure 53
1000
0000
0100
1000
0010
0000
1000
0000
,  // measure 54
0001
0000
0010
0100
1000
0000
0010
0100
,  // measure 55
0001
0000
1000
0100
0010
0000
0100
0000
,  // measure 56
1000
0000
0010
0100
0001
0000
1000
0100
,  // measure 57
1000
0000
0001
0100
0001
0000
0110
0000
,  // measure 58
0001
1000
0100
1000
0001
0000
0010
0000
,  // measure 59
1001
0110
1001
0110
,  // measure 60
1001
0000
0100
0000
1000
0000
0010
0100
,  // measure 61
0001
0000
1000
0100
1000
0000
0001
0000
,  // measure 62
0110
0000
1000
0000
0100
0000
0010
0001
,  // measure 63
1000
0000
0010
1000
0001
0000
1000
0000
,  // measure 64
0110
0000
0001
0000
1000
0000
0001
0100
,  // measure 65
0010
0100
0001
1000
0001
0000
0010
0000
,  // measure 66
1001
0000
0010
0000
0100
0000
0001
1000
,  // measure 67
0100
1000
0001
0100
0001
0000
0000
0000
;

//---------------dance-single - ----------------
#NOTES:
     dance-single:
     :
     Easy:
     4:
     0.295,0.316,0.156,0.000,0.000: // measure 1
0000
0000
0000
0000
,  // measure 2
1000
0010
1000
0010
,  // measure 3
1000
0010
0100
0001
,  // measure 4
0010
0001
0010
0001
,  // measure 5
0010
0001
0100
0010
,  // measure 6
1000
0001
1000
0001
,  // measure 7
1000
0001
1000
0010
,  // measure 8
0100
0010
0100
0001
,  // measure 9
1000
0000
0000
0000
,  // measure 10
0001
0000
1000
0000
,  // measure 11
0100
1000
0010
0000
,  // measure 12
1001
0000
0110
0000
,  // measure 13
0001
0100
0010
0000
,  // measure 14
1001
0000
1100
0000
,  // measure 15
0010
0100
0001
0000
,  // measure 16
1001
0000
0110
0000
,  // measure 17
0001
0100
0010
0000
,  // measure 18
1000
1000
1000
0000
,  // measure 19
0001
0000
0001
0000
,  // measure 20
0100
0100
0100
0000
,  // measure 21
0010
0000
0010
0000
,  // measure 22
1000
0000
1000
0000
,  // measure 23
0001
0000
0001
0000
,  // measure 24
1000
0001
1000
0001
,  // measure 25
1000
0001
1000
0001
,  // measure 26
1001
0000
0000
0000
,  // measure 27
0010
0010
0010
0100
,  // measure 28
0001
0010
0100
1000
,  // measure 29
0010
0100
0001
0000
,  // measure 30
1000
0100
1000
0010
,  // measure 31
0100
0001
1000
0000
,  // measure 32
0001
0010
0001
0100
,  // measure 33
0010
1000
0100
0000
,  // measure 34
1000
0010
0100
0010
,  // measure 35
1000
0000
0000
0000
,  // measure 36
0001
1000
0100
1000
,  // measure 37
0010
0100
0001
0010
,  // measure 38
0001
0100
0010
1000
,  // measure 39
0100
0100
1000
1000
,  // measure 40
0010
0100
0001
0010
,  // measure 41
0100
1000
0010
0100
,  // measure 42
0001
1000
0100
1000
,  // measure 43
0001
0000
0000
0000
,  // measure 44
1000
0010
0100
1001
,  // measure 45
0100
0010
0001
1001
,  // measure 46
0010
0100
0010
0100
,  // measure 47
0001
1000
0001
0110
,  // measure 48
0001
1000
0100
1001
,  // measure 49
0100
1000
0010
1001
,  // measure 50
0100
0001
1000
0001
,  // measure 51
1000
0001
0110
0110
,  // measure 52
1000
0100
0010
0001
,  // measure 53
0100
0010
0100
0000
,  // measure 54
0001
1000
0100
1000
,  // measure 55
0010
0100
0001
0000
,  // measure 56
1000
0100
1000
0010
,  // measure 57
0100
0001
0010
0000
,  // measure 58
0100
1000
0010
0100
,  // measure 59
1001
0000
1001
0000
,  // measure 60
1000
0010
0100
0010
,  // measure 61
1000
0100
0010
0001
,  // measure 62
0100
0010
1000
0001
,  // measure 63
0010
0100
1000
1001
,  // measure 64
0001
0100
0010
1000
,  // measure 65
0100
1000
0010
0110
,  // measure 66
0100
0001
0010
0100
,  // measure 67
1000
0001
1000
0000
;
