#TITLE:Andante;
#SUBTITLE:;
#ARTIST:Hitomi Yaida;
#TITLETRANSLIT:;
#SUBTITLETRANSLIT:;
#ARTISTTRANSLIT:;
#CREDIT:Xythar;
#BANNER:Andante.png;
#BACKGROUND:Andante-bg.png;
#LYRICSPATH:;
#CDTITLE:blankcd.png;
#MUSIC:Andante.mp3;
#OFFSET:-2.009;
#SAMPLESTART:73.670;
#SAMPLELENGTH:13.003;
#SELECTABLE:YES;
#BPMS:0.000=154.050;
#LASTBEAT:268;
#STOPS:;
#BGCHANGES:-5.000=Andante.avi=1.000=1=1=0,
267.000=Andante-eg.png=1.000=0=0=1,
99999=-nosongbg-=1.000=0=0=0 // don't automatically add -songbackground-
;

//---------------dance-single - ----------------
#NOTES:
     dance-single:
     Xythar:
     Hard:
     9:
     0.646,0.581,0.223,0.000,0.232: // measure 1
0000
0000
0000
0000
,  // measure 2
0001
1000
0001
1000
0001
1000
0001
0000
0100
0000
0010
0000
0000
0000
1100
0000
,  // measure 3
0000
0001
0010
0001
0010
0001
0010
0100
,  // measure 4
1000
0100
1000
0100
1000
0100
1000
0000
0010
0000
0100
0000
0001
0000
1000
0000
,  // measure 5
0000
0100
1000
0010
0000
0100
0001
0010
,  // measure 6
0100
0010
0100
0010
0100
0010
0100
0000
1000
0000
0010
0000
0000
0000
0101
0000
,  // measure 7
0000
1000
0001
1000
0001
1000
0001
0100
,  // measure 8
0010
1000
0010
1000
0010
1000
0010
0000
0100
0000
0001
0000
0010
0000
0100
0000
,  // measure 9
0000
1000
0010
1000
0001
1000
0100
1000
,  // measure 10
0011
0000
0000
0000
0100
0000
1000
0000
0000
0000
0010
0000
0100
0000
0001
0100
,  // measure 11
0001
0000
0000
0000
1000
0000
0100
0000
0000
0000
0010
0000
0001
0000
1000
0001
,  // measure 12
1000
0000
0000
0000
0010
0000
0100
0000
0000
0000
0001
0000
1000
0000
0100
1000
,  // measure 13
0100
0000
0010
0000
0001
0000
0100
0000
0010
1000
0010
0000
0100
0000
0001
1000
,  // measure 14
0001
0000
0000
0000
0010
0000
0100
0000
0000
0000
1000
0000
0010
0000
0100
0010
,  // measure 15
0100
0000
0000
0000
0001
0000
1000
0000
0000
0000
0100
0000
0010
0000
0001
0010
,  // measure 16
0001
0000
0000
0000
1000
0000
0010
0000
0000
0000
0100
0000
0001
0000
1000
0100
,  // measure 17
1000
0000
0001
0000
0100
0000
0001
0000
1000
0010
1000
0000
0001
0000
0010
0100
,  // measure 18
0010
0100
1000
0010
0100
0001
0100
0010
,  // measure 19
1000
0100
0010
0001
0100
0010
0100
0001
,  // measure 20
0000
1000
0100
1000
0010
0100
0001
0010
,  // measure 21
0000
0100
1000
0010
0000
0100
0001
0100
,  // measure 22
0001
0010
0100
1000
0010
0100
0001
1000
,  // measure 23
0100
1000
0010
0100
0001
0010
0100
1000
,  // measure 24
0101
0000
0010
1000
0001
1000
0100
1000
,  // measure 25
0010
0100
0001
1000
0001
0000
1100
0000
,  // measure 26
0001
0100
0001
0100
0001
0100
0001
0000
1000
0000
0100
0000
0000
0000
0011
0000
,  // measure 27
0000
0100
1000
0100
1000
0100
1000
0010
,  // measure 28
0100
0010
0100
0010
0100
0010
0100
0000
0001
0000
0010
0000
0000
0000
1100
0000
,  // measure 29
0000
0001
0100
0010
0100
0001
0100
0010
,  // measure 30
1000
0000
0000
0000
0100
0000
0010
0000
0000
0000
0001
0000
0100
0000
0010
1000
,  // measure 31
0010
0000
0000
0000
0100
0000
0001
0000
0000
0000
0010
0000
0100
0000
1000
0100
,  // measure 32
1000
0000
0000
0000
0001
0000
0100
0000
0000
0000
0010
0000
1000
0000
0001
1000
,  // measure 33
0001
0000
1000
0000
0100
0000
1000
0000
0001
1000
0001
1000
0001
0000
0100
0000
,  // measure 34
0010
0000
0000
0000
1000
0000
0100
0000
0000
0000
1000
0000
0010
0000
0100
0001
,  // measure 35
0100
0000
0000
0000
0010
0000
1000
0000
0000
0000
0001
0000
0010
0000
0100
1000
,  // measure 36
0100
0000
0000
0000
1000
0000
0010
0000
0000
0000
0100
0000
0001
0000
1000
0100
,  // measure 37
1000
0000
0001
0000
0100
0000
0010
0000
1000
0100
1000
0100
1000
0000
0001
0000
,  // measure 38
0100
0010
1000
0100
0010
0001
0100
0010
,  // measure 39
1000
0100
1000
0010
0100
0001
1000
0100
,  // measure 40
0000
1000
0010
0100
0001
1000
0100
1000
,  // measure 41
0000
0001
0100
0010
0000
1000
0100
1000
,  // measure 42
0010
0100
0001
0010
0100
1000
0010
0100
,  // measure 43
0001
1000
0100
1000
0000
0001
0100
0010
,  // measure 44
1001
0000
0100
1000
0010
0100
0010
1000
,  // measure 45
0000
0001
1000
0100
0000
1000
0001
0001
,  // measure 46
1000
0000
0000
0000
,  // measure 47
1100
0000
1001
0000
0100
0010
1000
0000
,  // measure 48
0011
0000
1100
0000
0001
0100
0010
0000
,  // measure 49
1100
0000
0001
0100
1010
0000
0100
0010
,  // measure 50
0001
0100
0010
0000
1000
0001
0110
0000
,  // measure 51
1001
0000
1100
0000
0001
0100
0010
1000
,  // measure 52
0100
0000
0011
0000
0100
1000
0010
0100
,  // measure 53
0001
0000
1100
0000
0100
1000
0010
0100
,  // measure 54
0001
0000
0101
0000
1000
0100
0011
0000
,  // measure 55
0100
1000
0100
1000
0100
1000
0100
0000
1000
0000
0010
0000
0000
0000
0100
0000
,  // measure 56
0000
0001
1000
0001
1000
0001
1000
0001
,  // measure 57
0010
0001
0010
0001
0010
0001
0010
0000
0100
0000
1000
0000
0001
0000
0110
0000
,  // measure 58
0000
1000
0001
1000
0001
1000
0001
1000
,  // measure 59
0010
0100
0010
0100
0010
0100
0010
0000
0100
0000
0001
0000
0000
0000
1100
0000
,  // measure 60
0000
0001
0100
0001
0100
0001
0100
0010
,  // measure 61
1000
0001
1000
0001
1000
0001
1000
0000
0001
0000
0100
0000
0010
0000
1001
0000
,  // measure 62
0000
0010
0100
0010
0100
0001
0100
0001
,  // measure 63
1000
0001
1000
0001
1000
0000
0000
0000
;

//---------------dance-single - ----------------
#NOTES:
     dance-single:
     Xythar:
     Medium:
     7:
     0.503,0.464,0.139,0.000,0.000:
0000
0000
0000
0000
,
1000
0001
1000
0001
1000
0010
0000
0100
,
0000
0001
1000
0001
1000
0001
1000
0000
,
0100
0010
0100
0010
0100
0010
0001
0100
,
0000
0010
1000
0010
1000
0010
1000
0000
,
0001
0010
0001
0010
0001
0010
0000
0100
,
0000
1000
0010
1000
0010
1000
0010
0000
,
0100
0001
0100
0001
0100
0001
0010
0100
,
0000
1000
0010
1000
0010
1000
0010
0000
,
1000
0000
0001
0100
0000
0010
1000
0001
,
0000
1000
0000
0100
0000
1000
0010
1000
,
0010
0000
0100
0001
0000
1000
0100
1000
,
0010
0000
0100
0001
0000
0010
0100
0010
,
0100
0000
1000
0010
0000
1000
0001
1000
,
0000
0100
1000
0010
0000
0100
0010
0100
,
0010
0000
1000
0100
0000
1000
0001
1000
,
0010
0000
0100
0001
0000
1000
0100
1000
,
0010
0000
0100
0000
0001
0010
0100
0000
,
1000
0000
0010
0000
0100
0001
1000
0000
,
1001
0000
0100
0000
1000
0010
0100
0001
,
0000
1000
0100
1000
0000
0001
0100
0010
,
1000
0000
0100
0000
1000
0010
1000
0000
,
0001
0000
1000
0100
1000
0000
0010
0000
,
1100
0000
0001
0000
1000
0010
1000
0001
,
0000
1000
0100
1000
0000
0001
1000
0000
,
0100
1000
0100
1000
0100
1000
0000
0010
,
0000
0100
0001
0100
0001
0100
0001
0000
,
1000
0100
1000
0100
1000
0100
0010
0001
,
0000
1000
0010
1000
0010
1000
0010
0000
,
0100
0001
0100
0010
0000
1000
0100
1000
,
0000
0001
0100
0001
0000
1000
0010
1000
,
0001
0000
1000
0100
0000
1000
0010
0000
,
0100
0010
0100
0001
0000
1000
0100
1000
,
0010
0000
0100
0001
0000
1000
0010
1000
,
0000
0001
0010
0001
0000
1000
0100
1000
,
0010
0000
1000
0100
0000
1000
0001
0000
,
0100
0000
1010
0000
0001
1000
0100
1000
,
0010
0000
0100
0000
0001
1000
0100
1000
,
0001
0000
1000
0000
0010
0100
0001
0000
,
1100
0000
0001
0000
1000
0010
0100
0010
,
1000
0001
1100
1100
,
0001
0100
0010
0000
1000
0100
0010
0000
,
0001
0100
0010
0100
0001
0000
0010
0000
,
1100
0000
0001
1000
0010
0000
0100
0001
,
1000
0110
0001
1000
,
0100
0000
0000
0000
,
1000
0000
0101
0000
0010
1000
0100
0000
,
0010
0000
1001
0000
0100
1000
0010
0000
,
0100
0000
0001
0000
1000
0000
0100
1000
,
0001
0000
0100
0001
0010
0000
1100
0000
,
0001
0000
1010
0000
0100
0001
0010
0000
,
0100
0000
1001
0000
0010
0100
0001
0000
,
1100
0001
1000
0010
,
0100
0001
0100
0001
1000
0000
0100
0000
,
0010
0001
0010
0001
0010
0001
0000
1000
,
0000
0010
1000
0010
1000
0010
1000
0001
,
0100
0001
0100
0001
0100
0001
1000
0100
,
0000
1000
0010
1000
0010
1000
0010
0100
,
0001
1000
0001
1000
0001
1000
0000
0110
,
0000
0001
0100
0001
0100
0001
0100
0010
,
1000
0100
1000
0100
1000
0100
0010
0001
,
0000
1000
0010
1000
0001
1000
0010
1000
,
0001
1000
0001
0000
;

//---------------dance-single - ----------------
#NOTES:
     dance-single:
     Xythar:
     Easy:
     4:
     0.260,0.261,0.037,0.000,0.000:
0000
0000
0000
0000
,
1000
0001
1000
0000
,
0001
0001
0001
0000
,
1000
0010
1000
0000
,
0100
0100
0100
0000
,
0010
0001
0010
0000
,
0100
0100
0100
0100
,
1000
0010
1000
0000
,
0001
0001
0001
0001
,
1000
0000
0001
0000
,
0100
0000
0010
0000
,
1000
0000
0100
0000
,
1000
0010
0100
0010
,
1000
0000
0100
0000
,
0010
0001
0010
0000
,
0100
1000
0100
0000
,
1000
0001
1000
0010
,
1000
1000
0001
0001
,
1000
0000
0100
0000
,
1000
0010
0100
0010
,
1000
0000
0100
0000
,
0011
0010
0001
0100
,
0010
0000
1000
0000
,
1001
0001
1000
0000
,
0010
0000
0100
0000
,
0001
1000
0001
0000
,
1000
1000
1000
1000
,
0001
0001
0001
0000
,
1000
0010
1000
0010
,
0100
0000
0001
0000
,
0010
0100
1000
0000
,
0010
0100
0010
0000
,
1000
0001
1000
0000
,
1001
0000
0100
0000
,
1000
0010
0100
0001
,
0010
0000
0100
1000
,
0010
0000
0100
0000
,
0001
1000
0100
1000
,
0001
0001
0001
0000
,
1000
0001
0100
0001
,
1000
1000
1000
0000
,
0001
0100
0010
0100
,
0001
0001
0001
0000
,
1001
1000
0010
0000
,
0100
0001
0010
0000
,
0100
0000
0000
0000
,
1000
0010
1000
0000
,
0001
0100
0001
0000
,
1000
0100
0010
0001
,
0100
0010
1000
0000
,
0001
0100
0001
0000
,
1000
0100
1000
0000
,
0001
0010
0100
1000
,
0010
0100
0001
0000
,
1000
0001
1000
0000
,
0001
0100
0001
0100
,
0010
0010
0010
0000
,
1000
0100
1000
0100
,
0010
0010
0010
0000
,
0001
1000
0001
1000
,
0010
0010
0010
0000
,
1000
0001
1000
0001
,
1000
0001
1000
0000
;
