#TITLE:あこがれ;
#SUBTITLE:;
#ARTIST:肥塚良彦;
#TITLETRANSLIT:Akogare;
#SUBTITLETRANSLIT:;
#ARTISTTRANSLIT:Yoshihiko Koezuka;
#CREDIT:Xythar (BG image by Aimoo on deviantart);
#BANNER:Akogare.png;
#BACKGROUND:Akogare-bg.png;
#LYRICSPATH:;
#CDTITLE:gfdm.png;
#MUSIC:Akogare.mp3;
#OFFSET:-0.252;
#SAMPLESTART:36.104;
#SAMPLELENGTH:14.740;
#SELECTABLE:YES;
#BPMS:0.000=65.000,38.000=56.620,40.000=61.000,41.000=64.600,42.000=65.000,86.000=53.700,88.000=41.500,89.000=37.860,90.000=65.000,108.000=60.900,109.000=57.340,109.500=56.600;
#STOPS:;
#BGCHANGES:;

//---------------dance-single - ----------------
#NOTES:
     dance-single:
     Xythar:
     Hard:
     5:
     0.202,0.237,0.000,0.071,0.036: // measure 1
0000
0000
0000
0000
,  // measure 2
1000
0000
0001
1000
0000
0000
0100
0000
,  // measure 3
0010
0001
0100
0001
,  // measure 4
1000
0100
0010
0100
,  // measure 5
1000
0010
0100
0000
1000
0010
0100
0000
,  // measure 6
0001
0000
0010
0000
0100
1000
0001
1000
,  // measure 7
0001
0000
0100
0000
0010
0000
0001
1000
,  // measure 8
0100
0000
1000
0001
0100
0000
0010
0000
,  // measure 9
1000
0000
0100
0010
0001
0000
0100
0010
,  // measure 10
0002
1000
2003
0000
,  // measure 11
3001
0100
0010
0100
0001
0000
0010
0000
,  // measure 12
1000
0010
0001
0100
0010
0000
0001
0000
,  // measure 13
0010
1000
0100
1000
0001
1000
0100
0010
,  // measure 14
0001
0000
0100
1000
0010
0000
0100
0000
,  // measure 15
1000
0100
0010
0000
1000
0100
0010
0000
,  // measure 16
1000
0000
0100
0000
0010
0000
0001
0000
2000
0000
0000
0001
0001
0000
0001
0000
,  // measure 17
3001
0000
1000
0000
,  // measure 18
0001
0000
0100
0000
0001
0000
1000
0100
,  // measure 19
0010
0000
0001
0010
0001
0000
1000
0010
1000
0000
0001
0000
0000
0000
1000
0000
,  // measure 20
0001
0000
1000
0100
1000
0000
0001
0100
0001
0000
1000
0000
0000
0000
0100
0000
,  // measure 21
0010
1000
0100
0010
0001
0100
0010
1000
,  // measure 22
0001
1000
0002
0000
,  // measure 23
2003
0000
3200
0000
0310
0001
1000
0100
,  // measure 24
1000
0000
0001
0000
0100
1000
0010
1000
,  // measure 25
0002
0000
0000
1000
1000
0000
1000
0000
1003
0000
0000
0000
0000
0000
0000
0000
,  // measure 26
0010
0000
0100
0001
,  // measure 27
1000
0000
0000
0000
0100
0000
1000
0000
0001
0000
0100
0010
0100
0000
0001
1000
,  // measure 28
0001
1000
0000
0100
0020
0000
0000
0000
,  // measure 29
0030
0000
0000
0000
;

//---------------dance-single - ----------------
#NOTES:
     dance-single:
     Xythar:
     Easy:
     1:
     0.109,0.110,0.018,0.000,0.000:
0000
0000
0000
0000
,
1000
0001
1000
0100
,
0010
0000
0001
0000
,
0100
0000
0010
1000
,
1001
0000
0110
0000
,
0100
1000
0010
0100
,
0001
1000
0100
1000
,
0001
0000
0100
0010
,
0100
0001
0010
0100
,
1000
0000
0000
0000
,
0001
0100
0010
0000
,
0100
0001
0010
0000
,
0100
1000
0010
0100
,
0001
1000
0001
1000
,
0100
0010
0100
0000
,
1000
0010
0100
0001
,
0001
0000
1000
0000
,
0001
0000
1000
0100
,
0010
0001
0010
0001
,
0100
0010
0100
0010
,
1000
0001
1000
0100
,
0010
0000
0001
0000
,
1000
0000
0010
0100
,
0010
1000
0100
0010
,
0001
0000
1000
0000
,
0001
0000
1000
0010
,
0100
0010
1000
0000
,
0001
0000
1000
0000
;

//---------------dance-single - ----------------
#NOTES:
     dance-single:
     Xythar:
     Medium:
     3:
     0.137,0.162,0.000,0.036,0.000:
0000
0000
0000
0000
,
1000
0000
0000
0001
0000
0000
0100
0000
,
0010
0000
1000
0001
,
0000
0100
0010
1000
,
0100
0010
0100
0000
1000
0001
1000
0000
,
0000
0010
0100
0000
,
0001
1000
0100
1000
,
0001
0000
1000
0100
,
0010
0000
0001
0100
,
0010
0000
0100
0000
,
1000
0100
1000
0000
0100
0000
0001
0000
,
1000
0001
1000
0000
0100
0000
1000
0000
,
0010
0100
0001
0000
,
1000
0000
0001
1000
,
0100
0010
0100
0000
0010
0000
0001
0000
,
1000
0000
0001
1000
0002
0000
1000
0000
,
1003
0000
0010
0000
,
0100
0000
0001
1000
,
0100
0010
0001
0010
0001
0100
0000
0000
,
0010
0100
0001
0100
0001
1000
0000
0000
,
0100
0000
1000
0000
0001
0000
0100
0010
,
0100
0001
2000
0000
,
0000
0000
0000
0000
3100
0010
0100
0010
,
0000
0001
0000
1000
0000
0100
1000
0100
,
2000
0001
3001
0000
,
0100
0000
0010
0000
,
1000
0000
0100
0000
1000
0001
0100
0001
,
0100
0010
0000
1000
0002
0000
0000
0000
,
0003
0000
0000
0000
;

//---------------dance-single - ----------------
#NOTES:
     dance-single:
     Xythar:
     Beginner:
     1:
     0.047,0.061,0.000,0.000,0.000:
0000
0000
0000
0000
,
1000
0000
0000
0000
,
0001
0000
0000
0000
,
0010
0000
0000
0000
,
0100
0000
0100
0000
,
1000
0000
0010
0000
,
0100
0000
0000
0000
,
0001
0000
0000
0000
,
1000
0000
0000
0000
,
0001
0000
0000
0000
,
0010
0000
0000
0000
,
0100
0000
0000
0000
,
1000
0000
1000
0000
,
0010
0000
0000
0000
,
0100
0000
0000
0000
,
0001
0000
1000
0000
,
1000
0000
0100
0000
,
0010
0000
0000
0000
,
0001
0000
1000
0000
,
0001
0000
1000
0000
,
0100
0000
0000
0000
,
0010
0000
0000
0000
,
0000
0000
0001
0000
,
1000
0000
0001
0000
,
1000
0000
0000
0000
,
0100
0000
0000
0000
,
0010
0000
0001
0000
,
0100
0000
0001
0000
;

//---------------dance-single - ----------------
#NOTES:
     dance-single:
     :
     Challenge:
     7:
     0.314,0.343,0.107,0.000,0.241: // measure 1
0000
0000
0000
0000
,  // measure 2
0001
0000
1000
0100
1000
0000
0101
0000
0000
0010
0010
0000
1000
0000
0000
0000
,  // measure 3
0100
0010
0001
0000
0100
1000
0001
0000
,  // measure 4
0010
0100
0001
0100
0010
1000
0100
1000
,  // measure 5
0101
0000
0100
0001
1100
0000
0100
1000
,  // measure 6
0101
0000
0000
0000
0010
0000
1000
0100
1000
0100
0010
0000
0001
0100
0001
0100
,  // measure 7
0010
0000
1000
0000
0001
0000
1000
0100
1000
0100
1000
0000
0001
0000
0100
0000
,  // measure 8
0100
0000
0010
0000
1000
0000
0001
1000
0001
1000
0100
0000
1001
0000
0010
1000
,  // measure 9
0010
0000
0100
0000
0001
0000
1000
0100
1000
0100
1000
0000
0010
0000
0100
0000
,  // measure 10
1001
0000
0000
0000
0010
0100
0010
0100
0001
0000
0000
0000
0000
0000
0000
0000
,  // measure 11
1000
0000
0100
0000
1000
0000
0001
1000
0001
0000
0100
0000
1010
0000
0100
0000
,  // measure 12
0010
0000
0001
0000
1000
0000
0001
0100
0001
0100
0010
0000
1000
0000
0100
0000
,  // measure 13
0010
0100
1000
0001
0100
0010
1000
0001
,  // measure 14
1000
0000
0100
0000
0011
0000
0100
1000
0100
1000
0001
0000
0100
0010
0100
0010
,  // measure 15
1000
0001
0110
1000
0100
0010
0101
0010
,  // measure 16
1000
0000
0001
0000
1100
0000
0001
1000
0001
0000
0000
1000
1000
0000
0001
0001
,  // measure 17
0001
0000
0100
0000
,  // measure 18
0010
1000
0100
1000
0001
0100
0100
0010
,  // measure 19
1000
0100
0010
0100
1000
0000
0001
0100
0010
0100
0001
0000
0000
1000
0010
0100
,  // measure 20
0010
1000
0100
0010
0001
0000
0100
0010
1000
0010
0100
0000
0001
0100
0001
0100
,  // measure 21
0001
0000
1000
0100
1000
0000
0001
1000
0001
1000
0010
0000
0100
0000
0001
0000
,  // measure 22
1000
0000
0100
0000
1000
0001
1000
0000
0001
0000
0000
0000
0000
0000
0000
0000
,  // measure 23
1000
0000
0000
0000
0100
0000
0000
0000
0001
0000
0100
0000
0010
0000
1000
0001
,  // measure 24
1000
0001
0010
0000
1100
0000
0010
0000
0100
0000
0001
0100
0001
0000
1000
0100
,  // measure 25
1000
0000
0000
0010
0010
0000
0100
0100
0100
0000
0000
0000
0000
0000
0000
0000
,  // measure 26
0001
0000
0000
0000
1000
0100
1000
0010
,  // measure 27
0100
0000
0001
0001
1000
0100
1000
0001
0100
0010
0100
0001
1000
0000
0100
0010
,  // measure 28
0001
0010
0100
0000
0000
0000
1000
0000
0001
0000
0000
0000
0000
0000
0000
0000
;
